#TITLE:Still a Thrill;
#SUBTITLE:(K-Klass Edit);
#ARTIST:Sybil;
#TITLETRANSLIT:;
#SUBTITLETRANSLIT:;
#ARTISTTRANSLIT:;
#CREDIT:;
#BANNER:Still a Thrill (K-Klass Edit).png;
#BACKGROUND:Still a Thrill (K-Klass Edit)-bg.png;
#LYRICSPATH:;
#CDTITLE:;
#MUSIC:Still a Thrill (K-Klass Edit).mp3;
#OFFSET:-0.160;
#SAMPLESTART:86.150;
#SAMPLELENGTH:12.000;
#SELECTABLE:YES;
#BPMS:0.000=122.000;
#STOPS:;
#BGCHANGES:16.000=disco3.avi=0.800=1=1=1,
32.000=tunnel5.avi=1.000=0=0=1,
48.000=fireworks1.avi=0.700=0=0=1,
80.000=text12.avi=1.000=0=0=1,
96.000=girl2b.avi=1.000=0=0=1,
112.000=heart2.avi=1.000=0=0=1,
128.000=disco3.avi=1.000=0=0=1,
144.000=tunnel5.avi=1.000=0=0=1,
160.000=piston1.avi=1.000=0=0=1,
176.000=disco3.avi=0.900=0=0=1,
192.000=tunnel5.avi=1.000=0=0=1,
208.000=girl2b.avi=1.000=0=0=1,
224.000=heart2.avi=1.000=0=0=1,
240.000=Still a Thrill (K-Klass Edit)-jacket.png=1.000=0=0=1,
99999=-nosongbg-=1.000=0=0=0 // don't automatically add -songbackground-
;

//---------------dance-single - ----------------
#NOTES:
     dance-single:
     :
     Beginner:
     2:
     0.121,0.172,0.049,0.000,0.000:
0000
0000
0000
0000
,
0000
0000
0000
0000
,
1000
0000
0000
0000
,
1000
0000
0001
0000
,
1001
0000
0000
0000
,
1000
0000
1000
0000
,
0001
0000
0000
0000
,
0001
0000
0001
0000
,
1000
0000
0000
0000
,
0100
0000
0100
0000
,
0100
0000
0000
0000
,
0010
0000
0010
0000
,
0010
0000
0000
0000
,
1000
0000
0001
0000
,
1000
0000
0000
0000
,
0001
0000
0001
0000
,
0001
0000
0000
0000
,
1000
0000
1000
0000
,
1000
0000
0001
0000
,
1000
0000
0001
0000
,
1001
0000
0000
0000
,
0001
0001
0001
0000
,
1000
0000
1000
0000
,
0001
0001
0001
0000
,
0100
0000
0100
0000
,
0010
0010
0010
0000
,
0100
0000
0100
0000
,
0100
0100
0100
0000
,
1001
0000
0000
0000
,
0100
0000
0000
0000
,
0010
0000
0000
0000
,
0010
0000
0010
0000
,
0010
0000
0000
0000
,
1000
0000
1000
0000
,
1000
0000
0000
0000
,
0001
0000
1000
0000
,
0001
0000
0000
0000
,
0100
0000
0100
0000
,
0100
0000
0000
0000
,
0001
0000
0001
0000
,
1000
0000
0000
0000
,
1000
0000
1000
0000
,
1000
0000
0001
0000
,
1000
0000
0001
0000
,
1001
0000
0000
0000
,
0100
0000
0100
0000
,
0010
0000
0000
0000
,
0010
0000
0010
0000
,
0100
0000
0000
0000
,
0100
0000
0100
0000
,
0010
0000
0100
0000
,
0010
0000
0100
0000
,
0110
0000
0000
0000
,
1000
0000
0000
0000
,
0001
0000
0000
0000
,
1000
0000
1000
0000
,
1000
0000
0000
0000
,
0001
0000
0001
0000
,
0001
0000
0000
0000
,
1000
1000
1000
0000
,
1001
0000
0000
0000
;

//---------------dance-single - ----------------
#NOTES:
     dance-single:
     :
     Easy:
     6:
     0.219,0.251,0.082,0.107,0.000:
0000
0000
0000
0000
,
0000
0000
0000
0000
,
1000
0000
1000
0000
,
0001
0001
0001
0000
,
1001
0000
0100
0000
,
0010
0100
0010
0100
,
0010
0000
0001
0000
,
1000
1000
0001
0001
,
1001
0000
0100
0000
,
0010
0010
0100
0100
,
0110
0000
1001
0000
,
0010
1000
0010
1000
,
2002
0000
0000
3003
,
1000
0001
1000
0001
,
1000
0000
0010
0000
,
1000
0100
1000
0100
,
1000
0000
0001
0000
,
1000
0010
1000
0010
,
1000
0000
0001
0000
,
1000
1000
0001
0001
,
1001
0000
0100
0000
,
0010
0100
0010
1000
,
0001
0000
1000
0000
,
0001
0001
1000
0100
,
1000
0000
0010
0000
,
0100
0100
0001
0100
,
0010
0000
0010
0000
,
0100
0100
0100
0010
,
0020
0000
1030
0000
,
1000
0001
0001
0000
,
0001
0000
0001
0000
,
1000
0100
1000
0000
,
1000
0000
0001
0000
,
1000
1000
1000
0000
,
0001
0000
0000
0000
,
1000
0001
1000
0001
,
2000
0000
3001
0000
,
0001
0001
1000
0000
,
1000
0000
1000
0000
,
1000
0001
1000
0000
,
1001
0000
0001
0000
,
1000
1000
1000
0000
,
0001
0000
1000
0000
,
0001
0001
1000
0100
,
1001
0000
0100
0000
,
0001
1000
0001
1000
,
0001
0000
0001
0000
,
1000
0001
1000
0001
,
1000
0000
1000
0000
,
0001
1000
0001
1000
,
0001
0000
1000
0000
,
1000
1000
1000
0001
,
1001
0000
0200
0300
,
2000
3000
0002
0003
,
2000
3000
0002
0003
,
2000
3000
0200
0300
,
1000
1000
1000
0000
,
0100
0100
0100
0000
,
0001
0001
1000
1000
,
0001
1000
0001
1000
,
2002
0000
0000
0000
,
3003
0000
0000
0000
;

//---------------dance-single - ----------------
#NOTES:
     dance-single:
     :
     Medium:
     9:
     0.384,0.401,0.099,0.222,0.000:
0000
0000
0000
0000
,
0000
0000
0000
0000
,
1000
1000
0001
0001
,
1000
0000
0001
0000
1000
0000
0001
1000
,
0200
0010
0010
0310
,
1000
0000
1000
0000
0001
1000
0001
0000
,
0200
0010
0010
0310
,
0001
1000
0001
0000
0100
0000
1000
0001
,
2000
0001
0001
3001
,
1000
0001
1000
0000
0100
0000
0100
0001
,
2000
0001
0001
3001
,
1000
0001
1000
0100
1000
0000
1000
1000
,
0002
1000
0000
1003
,
1000
0001
1000
0000
0100
0000
0100
0000
,
1000
0020
0230
0301
,
0001
1000
0001
0000
0100
0000
1000
0001
,
2000
0100
0000
3010
,
0001
1000
0001
1000
0001
0000
0100
0000
,
0002
1003
2000
3001
,
1000
0001
1000
0001
1000
0000
1000
0000
,
1001
1000
0001
1000
,
1000
0001
1000
0000
0100
0000
0100
0000
,
0001
1000
0001
0100
,
1000
0001
1000
0001
0100
0000
1000
0000
,
1002
0000
1003
0000
1000
0001
1000
0000
,
0100
0100
0010
0100
,
0001
1000
0001
0000
1000
1000
0001
0000
,
1000
0001
1000
0100
1000
0000
0001
0000
,
2002
0000
0000
3000
1003
0000
1000
0000
,
1000
0001
0100
0000
0100
0000
1000
0010
,
1000
0000
1000
0100
1000
0000
1000
0010
,
1000
1000
1000
0001
,
2001
0000
3001
1000
,
0001
1000
0001
0000
0100
0000
0100
0000
,
1000
0010
1000
0000
1000
0001
1000
0000
,
1000
0100
1000
0000
0001
1000
0001
0000
,
1002
0000
0000
0000
1003
0000
1000
0001
,
2000
0000
0001
3001
,
1000
0001
0100
0000
0100
0001
1000
0000
,
1000
0100
0100
0010
,
1002
0100
1000
0103
,
1000
0001
1000
0000
0100
0000
0010
0000
,
1000
0001
1000
0000
1000
0100
1000
0000
,
1000
0001
1000
0100
1000
0001
1000
0100
,
2002
0000
0000
3000
1003
0000
1000
0000
,
0001
1000
0001
1000
0100
0000
0100
0000
,
1000
0002
2003
3001
,
1000
0001
1000
0100
1000
0001
1000
0000
,
2002
0000
0000
3000
1000
0000
1003
0000
,
1000
0001
1000
0100
1000
0000
0010
0000
,
1010
1000
1100
1000
,
0001
1000
0001
1000
1000
0001
0001
0000
,
1001
1000
0001
1000
,
0001
1000
0100
0000
1000
0001
0100
0000
,
2000
3001
0002
1003
,
1000
0100
0100
0000
0001
0100
0100
0000
,
1000
0000
0001
0000
1000
0000
0001
0010
,
0001
0000
1000
0000
0001
0000
0100
0100
,
0001
0001
1000
0001
,
1000
0100
1000
0001
1000
0010
1000
0001
,
2002
0000
0000
0000
,
3003
0000
0000
0000
;

//---------------dance-single - ----------------
#NOTES:
     dance-single:
     :
     Hard:
     10:
     0.441,0.451,0.131,0.304,0.041: // measure 1
0000
0000
0000
0000
,  // measure 2
0000
0000
0000
0000
,  // measure 3
0000
0000
0000
0000
,  // measure 4
0000
0000
0000
0000
,  // measure 5
1000
0001
1000
0000
1000
0100
1000
0000
,  // measure 6
1000
0001
1000
0010
1000
0000
0001
0000
,  // measure 7
1000
0100
1000
0000
1000
0010
1000
0000
,  // measure 8
1000
0001
1000
0100
1000
0000
0010
0000
,  // measure 9
0001
1000
0001
0000
0001
0010
0100
0000
,  // measure 10
1000
0001
0100
0010
0001
0000
1000
0000
,  // measure 11
0001
0000
0000
1000
0000
0000
1000
0000
1000
0000
0001
0000
,  // measure 12
1000
0000
0000
0000
0100
0000
0000
0000
1000
0000
0000
0000
0001
0000
0000
0000
0000
0000
0001
0000
0000
0100
0000
0000
,  // measure 13
2001
0100
0001
3100
,  // measure 14
0001
1000
0001
1000
0100
0000
0100
0000
,  // measure 15
0001
0000
0000
0000
1000
0000
0000
0001
0200
0000
0000
0000
0310
0000
0000
0000
,  // measure 16
1000
0001
1000
0100
1000
0010
0100
0010
,  // measure 17
1002
0100
1000
0103
,  // measure 18
1000
0001
1000
0100
1000
0000
0100
0001
,  // measure 19
2000
0000
3001
0100
0002
0000
1003
0100
,  // measure 20
0010
0001
1000
0100
1000
0001
1000
0100
,  // measure 21
1002
0000
0000
0000
1003
0000
0000
1000
0100
0000
0000
0000
0001
0000
0000
0000
,  // measure 22
1000
0000
0001
0000
1000
0000
0000
1000
0200
0000
0000
0000
0310
0000
0000
0000
,  // measure 23
0200
0010
0010
0310
,  // measure 24
1000
0001
0001
1000
0100
0000
1000
0100
,  // measure 25
1002
0100
1000
0103
,  // measure 26
1000
0000
0001
0000
1000
0000
0000
0001
0200
0000
0000
0000
0310
0000
0000
0000
,  // measure 27
2000
0000
3001
0100
0020
0000
1030
0100
,  // measure 28
1000
0001
1000
0100
2000
0000
3001
0000
,  // measure 29
1001
0000
1000
0001
1000
0100
1000
0001
,  // measure 30
2000
0000
3002
0000
1003
0000
1000
1000
,  // measure 31
0001
0000
1000
0100
0100
0000
0001
0100
,  // measure 32
0100
0000
0010
0000
1000
0000
0100
0100
,  // measure 33
1001
0000
0001
0000
1000
0100
1000
0010
,  // measure 34
0100
0000
0100
0000
0001
1000
0001
1000
,  // measure 35
0100
0010
0100
0010
,  // measure 36
1000
1000
0001
0001
1000
0100
0010
1000
,  // measure 37
1001
0000
1000
0000
0001
1000
0001
1000
,  // measure 38
0200
0000
0010
0000
0010
0000
0310
0100
,  // measure 39
0010
0000
1000
0000
0001
1000
0001
0001
,  // measure 40
0100
0010
0100
0010
,  // measure 41
1001
0000
1000
0000
1000
0001
1000
0000
,  // measure 42
0001
0000
0001
0000
1000
0100
1000
0010
,  // measure 43
0100
0100
0010
0010
,  // measure 44
1000
0001
1000
0100
1000
0100
0001
0001
,  // measure 45
1002
0100
1000
0103
,  // measure 46
1000
0001
1000
0100
1010
0000
0101
0000
,  // measure 47
2000
0000
0000
0000
3001
0000
0000
1000
0200
0000
0000
0000
0310
0000
1000
0000
,  // measure 48
0010
1000
0100
1000
0001
0100
0010
0010
,  // measure 49
1002
0100
1000
0103
,  // measure 50
1000
0001
1000
0100
1000
0000
0010
0001
,  // measure 51
0011
0000
0010
1000
1010
0000
1000
0001
,  // measure 52
1000
0100
1000
0001
0010
0010
1000
0001
,  // measure 53
1001
2000
3002
0203
,  // measure 54
0302
0023
0230
2300
,  // measure 55
3001
0100
1000
0000
1000
0010
1000
0000
,  // measure 56
1000
0001
1000
0100
1000
0000
0001
0000
,  // measure 57
2000
3002
0203
0302
,  // measure 58
0023
0230
2300
3002
,  // measure 59
1003
0100
1000
0000
1000
0001
1000
0000
,  // measure 60
1000
0000
0010
0000
1000
0000
0001
0000
1000
0000
0001
0000
1000
0100
1000
0000
,  // measure 61
2002
0000
0000
0000
,  // measure 62
3003
0000
0000
0000
;

//---------------dance-single - ----------------
#NOTES:
     dance-single:
     :
     Challenge:
     12:
     0.517,0.551,0.197,0.296,0.082: // measure 1
0000
0000
0000
0000
,  // measure 2
0000
0000
0000
0000
,  // measure 3
0000
0000
0000
0000
,  // measure 4
0000
0000
0000
0000
,  // measure 5
1000
0001
1000
0100
1000
0001
0100
0000
,  // measure 6
0010
0001
1000
0100
1000
0010
1000
0000
,  // measure 7
1000
0001
1000
0100
1000
0001
1000
0010
,  // measure 8
1000
0001
1000
0100
1000
0100
0001
0000
,  // measure 9
1001
0001
0001
1000
0100
1000
0001
0000
,  // measure 10
1000
0100
1000
0001
1000
0010
1000
0000
,  // measure 11
1000
0000
0000
0001
0000
0000
1000
0000
0000
0000
0000
0000
0001
0000
0000
0000
1000
0000
0000
0000
0100
0000
0000
0000
,  // measure 12
1000
0001
1000
0001
0100
1000
0001
1000
,  // measure 13
1002
0100
0010
1003
,  // measure 14
1000
0000
0001
0000
1000
0000
0100
0000
1000
0100
0000
0000
0001
0100
0000
0000
,  // measure 15
1001
0000
0000
0000
1000
0000
0000
1000
0002
0000
0010
0000
0013
0000
0000
0000
,  // measure 16
1000
0001
1000
0100
1000
0010
1000
1000
,  // measure 17
1002
0000
0000
0000
1003
0000
0000
1000
0100
0000
1000
0000
1000
0000
0000
0000
,  // measure 18
0001
1000
1000
0100
1000
0000
2000
0100
,  // measure 19
3010
0000
0002
0010
0103
0000
1000
0001
,  // measure 20
1000
0100
0010
0001
1000
1000
0100
1000
,  // measure 21
1001
0000
0000
0000
0001
0000
0000
1000
0200
0000
0000
0000
0310
0000
0000
0001
,  // measure 22
1000
0000
0001
0000
1000
0000
1000
0100
2000
0000
0000
0000
3001
0000
1000
0000
,  // measure 23
1001
0000
0000
0000
0001
0000
0000
1000
0200
0000
0000
0000
0301
0000
0000
0000
,  // measure 24
1000
0001
1000
0100
1000
0010
1000
0001
,  // measure 25
1002
0000
0000
0000
1003
0000
0000
1000
0200
0000
0000
0000
0310
0000
0000
0000
,  // measure 26
1000
0001
1000
0100
1000
0000
0001
0001
,  // measure 27
1010
0000
1000
1000
1100
0000
0001
1000
,  // measure 28
1000
0100
1000
0010
1000
0100
0010
0001
,  // measure 29
1001
0000
1000
0001
1000
0100
1000
0010
,  // measure 30
0020
0000
2030
0000
3200
0000
1300
1000
,  // measure 31
0001
1000
0001
1000
0100
1000
0001
1000
,  // measure 32
0010
1000
0100
0001
1000
0001
1000
0100
,  // measure 33
1002
0000
1003
1000
0001
1000
0100
1000
,  // measure 34
0001
0010
1000
0001
1000
0100
1000
0001
,  // measure 35
0001
0000
1000
0000
1000
0100
1000
0000
,  // measure 36
1000
0001
1000
0010
1000
0001
1000
0001
,  // measure 37
1002
0000
1003
1000
0100
1000
0001
2000
,  // measure 38
0020
3000
1030
1000
0001
0001
1000
0100
,  // measure 39
1000
0000
0001
1000
0001
0000
1000
0100
,  // measure 40
1000
0000
1000
0001
1000
0010
1000
0001
,  // measure 41
1001
0000
1000
0000
0001
1000
0100
1000
,  // measure 42
0001
0000
0010
0000
0001
0001
1000
0100
,  // measure 43
1100
0000
1000
0001
1000
0000
1000
0100
,  // measure 44
1000
1000
1000
0001
0001
0001
1000
0100
,  // measure 45
1002
0000
0000
0000
1003
0000
0000
0100
2000
0000
0000
0000
3001
0000
0000
0000
,  // measure 46
0001
0001
1000
0100
0020
0000
0230
0000
,  // measure 47
0310
0000
0000
0000
1000
0000
0000
0001
0200
0000
0010
0000
0310
0000
0000
0000
,  // measure 48
1000
0001
1000
0100
1000
0010
1000
0001
,  // measure 49
2001
0000
0000
0000
3001
0000
0000
1000
0200
0000
0010
0000
0310
0000
0000
0000
,  // measure 50
1000
0001
1000
0100
1000
0000
0010
0010
,  // measure 51
0012
0000
1003
1000
2100
0000
3001
0001
,  // measure 52
1000
0100
1000
0001
1000
0100
1000
0010
,  // measure 53
1001
0000
0000
0000
1000
0000
0000
0001
0200
0000
0000
0000
0310
0000
1000
0000
,  // measure 54
0020
0000
1030
0100
2000
0000
3001
0010
,  // measure 55
0200
0000
0310
0001
2000
0000
3001
0100
,  // measure 56
0020
0000
1030
0100
2000
0000
3001
0010
,  // measure 57
0110
0000
0010
1000
0001
1000
1000
0001
,  // measure 58
1001
0000
1000
0001
1000
0001
1010
0100
,  // measure 59
1100
0000
0000
0000
0100
0000
0000
0001
0200
0000
0010
0000
0310
0000
0000
0000
,  // measure 60
1000
0100
1000
0000
1000
0010
1000
0000
1000
0001
1000
0000
1000
0100
1000
0000
,  // measure 61
2002
0000
0000
0000
,  // measure 62
3003
0000
0000
0000
;
