#TITLE:Sound Of My Heart;
#SUBTITLE:;
#ARTIST:Dave Hammond;
#TITLETRANSLIT:;
#SUBTITLETRANSLIT:;
#ARTISTTRANSLIT:;
#CREDIT:;
#BANNER:Sound Of My Heart.png;
#BACKGROUND:Sound Of My Heart-bg.png;
#LYRICSPATH:;
#CDTITLE:cdtitle.png;
#MUSIC:Sound Of My Heart.mp3;
#OFFSET:-8.660;
#SAMPLESTART:22.350;
#SAMPLELENGTH:12.000;
#SELECTABLE:YES;
#BPMS:0.000=139.920;
#STOPS:216.000=1.286
;
#BGCHANGES:;

//---------------dance-single - ----------------
#NOTES:
     dance-single:
     :
     Hard:
     10:
     0.538,0.458,0.341,0.239,0.000: // measure 1
1000
0010
1000
0010
1000
0010
0000
0110
,  // measure 2
0000
0001
0100
0001
0100
0001
0000
0110
,  // measure 3
0000
0010
0100
0010
0100
0010
0000
0110
,  // measure 4
0000
0001
0100
0001
0100
0001
0000
0101
,  // measure 5
0000
1000
0100
1000
0100
1000
0000
1100
,  // measure 6
0000
0010
1000
0010
1000
0010
0000
1010
,  // measure 7
0000
0010
0100
0010
0100
0010
0000
0010
,  // measure 8
0200
0320
0230
0310
,  // measure 9
2000
0000
3010
1000
0010
0000
0010
0100
,  // measure 10
0001
0010
0001
0010
0100
0000
0010
0100
,  // measure 11
0010
0110
0000
0001
0100
0101
0001
0100
,  // measure 12
0010
1000
0010
1000
0020
0000
0130
0000
,  // measure 13
0110
0000
0010
1000
1100
0000
0100
1000
,  // measure 14
0001
0100
0001
0100
0101
0000
0010
0100
,  // measure 15
0010
0110
0000
0010
0100
0110
0100
0001
,  // measure 16
0010
0100
0010
0100
0020
0000
0130
0000
,  // measure 17
0100
0010
0100
0010
0110
0000
0001
0100
,  // measure 18
0001
0010
0100
0010
0100
0000
0110
0100
,  // measure 19
0010
0100
0000
0100
0010
0100
0010
0001
,  // measure 20
1000
0010
1000
0010
1000
0000
1010
0000
,  // measure 21
1010
0000
0100
1000
0100
0000
0010
0100
,  // measure 22
0010
1000
0001
0010
0001
0000
0001
0010
,  // measure 23
0100
0011
0000
0001
0010
0110
0100
1000
,  // measure 24
0010
1000
0010
1000
0200
0000
1300
0000
,  // measure 25
2001
0000
3010
0000
0010
1000
0010
1000
,  // measure 26
0200
0000
1300
0000
1000
0010
0100
0001
,  // measure 27
0020
0000
0130
0000
0100
0010
0001
0010
,  // measure 28
0002
0000
0023
0000
0230
0000
1300
0010
,  // measure 29
1010
0000
0020
0000
1030
0100
1000
0001
,  // measure 30
2000
0000
3001
0000
0001
0010
0100
0100
,  // measure 31
2000
0000
3001
0000
0010
1000
0100
1000
,  // measure 32
0010
0100
0001
0100
0010
0100
0001
0100
,  // measure 33
0100
0001
0100
0010
0100
0001
0010
0100
,  // measure 34
1000
0010
0100
0001
0010
0001
0010
0100
,  // measure 35
0020
0000
0031
0010
0100
0010
0001
0000
,  // measure 36
2000
0000
0010
0010
3010
0010
1000
0100
,  // measure 37
1000
0001
0010
0100
1000
0010
0100
0010
,  // measure 38
1000
0001
0010
0100
1000
0001
1001
0000
,  // measure 39
0002
0000
0103
0001
0100
0000
0100
0010
,  // measure 40
1000
0100
1000
0100
0010
0000
0100
0010
,  // measure 41
0100
0110
0000
1000
0010
1010
1000
0010
,  // measure 42
0100
0001
0100
0001
0200
0000
0310
0000
,  // measure 43
0110
0000
0100
0001
0011
0000
0010
0001
,  // measure 44
1000
0010
1000
0010
1010
0000
0100
0010
,  // measure 45
0100
0110
0000
0100
0010
0110
0010
1000
,  // measure 46
0100
0010
0100
0010
0200
0000
0310
0000
,  // measure 47
0001
0100
0001
0100
0001
0100
0000
0110
,  // measure 48
0000
1000
0010
1000
0010
1000
0000
0110
,  // measure 49
0000
0100
0010
0100
0010
0100
0000
0110
,  // measure 50
0000
1000
0010
1000
0010
1000
0000
1010
,  // measure 51
0000
0001
0010
0001
0010
0001
0000
0011
,  // measure 52
0000
0100
0001
0100
0001
0100
0000
0101
,  // measure 53
0000
0100
0010
0100
0010
0100
0000
0100
,  // measure 54
0020
0230
0320
0130
,  // measure 55
1001
2002
0000
0000
,  // measure 56
0000
3003
0000
0000
;

//---------------dance-single - ----------------
#NOTES:
     dance-single:
     :
     Medium:
     7:
     0.368,0.354,0.193,0.120,0.000:
1000
0000
0001
0000
1000
0001
1000
0000
,
0010
0000
0100
0000
0010
0100
0010
0000
,
1000
0000
0100
0000
1000
0100
1000
0000
,
0001
0000
0100
0000
0010
0100
0010
0000
,
1000
0000
0001
0000
0010
0100
0010
0000
,
1001
0000
0110
0000
0010
0100
0010
0000
,
1000
0000
0001
0000
0100
0010
0100
0000
,
2001
0010
0001
3010
,
0001
0000
1000
0010
1000
0000
0001
1000
,
0010
0000
0100
0000
0002
0000
0003
1000
,
0010
1000
0000
0001
0100
0001
0100
0000
,
0010
1000
1001
0000
,
0010
0100
0110
0001
,
1000
0000
0010
1000
0010
0000
0000
1000
,
0010
1000
0000
0001
0100
0001
0100
0000
,
0100
0001
1000
0010
,
1000
0001
1000
0010
,
0100
0010
0220
0330
,
0001
0001
1000
1000
,
0001
1000
1001
0010
,
0100
0010
0110
0001
,
1000
0010
2020
3030
,
0100
1000
0010
1000
,
0001
0100
0010
0100
,
0001
1000
0010
1000
,
0001
0000
0100
0000
0010
0100
0010
0000
,
1000
0001
0010
0100
,
1000
0010
1000
0000
0010
0000
0100
0000
,
1001
0000
0001
1000
,
0010
0100
0001
0010
,
0011
0001
1000
0010
,
1000
0010
1000
0000
0010
0000
0100
0000
,
0001
0100
0010
0000
0010
0100
0010
0000
,
1000
0010
1000
0000
0100
1000
0100
0000
,
1001
0000
0010
1000
0010
1000
0010
0000
,
0100
0000
0001
0100
0001
0100
0001
0000
,
0100
0010
1000
0100
,
1000
0000
0010
1000
0010
1000
0010
0000
,
1000
0000
0001
1000
0010
0000
0010
0100
,
0010
0000
0001
0100
0010
0000
0000
0100
,
0001
0100
0000
0010
1000
0010
1000
0000
,
0010
1000
1001
0000
,
0010
0100
0101
0010
,
1000
0000
0100
0000
0110
0000
0000
0001
,
0100
0001
0000
0100
0010
0100
0010
0000
,
0100
0001
2002
3003
,
0010
1000
0010
1000
,
0001
0100
0220
0330
,
0001
0001
1000
1000
,
0010
1000
2020
3030
,
0100
0001
0101
0010
,
1000
0000
0100
0000
0110
0000
0000
0001
,
0010
0001
0000
0010
0100
0010
0100
0000
,
1000
0010
0100
0001
,
1001
0020
0000
0000
,
0030
0000
0000
0000
;

//---------------dance-single - ----------------
#NOTES:
     dance-single:
     :
     Easy:
     5:
     0.229,0.253,0.110,0.083,0.000:
1000
0001
1000
0000
,
0010
0100
0010
0000
,
1000
0100
1000
0000
,
0001
0100
0001
0000
,
1000
0010
0100
0000
,
0100
0010
1000
0000
,
1000
0001
0010
0000
,
0002
0000
2003
0000
,
3010
0100
0001
1000
,
0010
1000
0010
0000
,
1000
0000
0001
0000
,
1000
1000
1000
0000
,
0001
1000
0010
0100
,
0001
0010
0100
0000
,
1000
0000
0001
0000
,
1000
0001
1000
0000
,
0010
0010
0010
0000
,
0100
0100
0100
0000
,
1001
0000
0110
0000
,
0001
1000
0001
0000
,
1000
0001
1000
0000
,
0010
0100
0010
0000
,
0110
0000
1001
0000
,
0001
0001
1000
0001
,
1000
0000
0001
0000
,
1000
0000
0001
1000
,
0001
0000
1000
0000
,
0001
0000
1000
0010
,
0100
0000
0010
0000
,
0100
0010
0100
0000
,
0010
0000
0100
0000
,
0001
1000
0010
0100
,
0001
0000
1000
0000
,
0001
0001
0001
1000
,
2002
0000
3003
0000
,
0220
0000
0330
0000
,
0000
0001
1000
0010
,
1000
0100
1000
0000
,
0010
1000
0010
0000
,
0100
0001
0100
0000
,
0110
0000
1001
0000
,
0010
0010
0010
0000
,
0100
0001
0010
0000
,
0100
1000
0010
0000
,
1010
0000
0101
0000
,
0001
0001
0001
0000
,
1000
0010
1000
0001
,
0100
0010
0200
0300
,
0001
0000
1000
0000
,
0001
1000
0001
0000
,
1000
0001
0010
0100
,
1000
0001
2000
3000
,
1001
0000
0110
0000
,
0010
0010
0010
0000
,
1000
0002
0000
0000
,
0003
0000
0000
0000
;

//---------------dance-single - ----------------
#NOTES:
     dance-single:
     :
     Beginner:
     3:
     0.150,0.174,0.074,0.018,0.000:
0010
0000
0000
0000
,
0100
0000
0000
0000
,
0001
0000
0000
0000
,
1000
0000
0000
0000
,
0010
0000
0000
0000
,
0100
0000
0000
0000
,
0001
0000
0000
0000
,
1000
0000
0001
0000
,
1000
1000
1000
0000
,
0001
0001
0001
0000
,
1000
0000
0010
0000
,
1000
0000
0100
0000
,
0010
0010
0010
0000
,
0100
0100
0100
0000
,
0001
0000
1000
0000
,
0010
1000
0010
0000
,
0001
0000
1000
0000
,
0001
0000
1000
0000
,
1001
0000
0000
0000
,
0110
0000
0000
0000
,
0010
0000
0100
0000
,
0010
0000
0100
0000
,
0110
0000
0000
0000
,
1001
0000
0000
0000
,
1000
0000
0001
0000
,
1000
0000
0001
0000
,
1000
0000
0010
0000
,
0100
0000
0010
0000
,
0100
0000
0001
0000
,
1000
0000
0010
0000
,
1000
0000
0100
0000
,
1000
0000
0001
1000
,
0001
0000
1000
0000
,
0010
1000
0001
0000
,
2000
0000
3000
0000
,
0002
0000
0003
0000
,
1000
0000
0010
0000
,
0100
0010
0100
0000
,
0001
0000
1000
0000
,
0001
0000
1000
0000
,
1001
0000
0000
0000
,
0110
0000
0000
0000
,
0010
0000
0100
0000
,
0010
0000
0100
0000
,
0110
0000
0000
0000
,
1001
0000
0000
0000
,
0001
0000
1000
0000
,
0001
0001
0001
0000
,
1000
0000
0001
0000
,
1000
1000
1000
0000
,
0010
0000
0100
0000
,
0010
0010
0010
0000
,
0100
0000
0010
0000
,
0100
0100
0100
0000
,
0010
0000
0000
0000
;
