#TITLE:Smile 'N' Shine;
#SUBTITLE:;
#ARTIST:Pandora;
#TITLETRANSLIT:;
#SUBTITLETRANSLIT:;
#ARTISTTRANSLIT:;
#GENRE:;
#CREDIT:;
#MUSIC:Smile 'N' Shine.ogg;
#BANNER:Smile 'N' Shine.png;
#BACKGROUND:Smile 'N' Shine-bg.png;
#CDTITLE:;
#SAMPLESTART:67.917;
#SAMPLELENGTH:15.000;
#SELECTABLE:YES;
#OFFSET:-1.925;
#BPMS:0.000=130.822;
#STOPS:;
#BGCHANGES:0.000=Smile 'N' Shine-bg.png=1.000=0=0=1,
16.000=cube7a.avi=0.400=1=0=1===CrossFade==,
28.000=cube12b.avi=1.600=0=0=1,
32.000=text10.avi=1.200=0=0=1,
40.000=amoeba2.avi=1.200=0=0=1,
48.000=text10.avi=1.000=0=0=1,
56.000=amoeba2.avi=1.200=0=0=1,
64.000=ring3.avi=1.000=0=0=1,
80.000=heat1.avi=1.200=0=0=1,
96.000=bluey1.avi=1.200=0=0=1,
112.000=spark1.avi=1.000=0=0=1,
128.000=cube8.avi=0.800=0=0=1,
136.000=cube8r.avi=1.000=0=0=1,
144.000=cube7a.avi=0.400=0=0=1,
160.000=cube12b.avi=1.200=0=0=1,
176.000=amoeba2.avi=1.200=0=0=1,
192.000=text10.avi=1.200=0=0=1,
208.000=Smile 'N' Shine-bg.png=1.000=1=0=1===CrossFade==,
99999.000=-nosongbg-=1.000=0=0=0=StretchNoLoop====
;
#FGCHANGES:;

//--------------- dance-single - ----------------
#NOTES:
     dance-single:
     :
     Beginner:
     2:
     0.128,0.177,0.097,0,0:
0000
0000
0000
0000
,
0000
0000
0000
0000
,
0000
0000
0000
0000
,
0000
0000
0000
0000
,
1000
0000
0000
0000
,
0001
0000
0000
0000
,
1000
0000
0001
0000
,
1000
0000
0000
0000
,
1001
0000
0000
0000
,
1000
0000
0000
0000
,
0001
0000
0001
0000
,
0001
0000
0000
0000
,
1000
0000
0000
0000
,
1000
0000
0000
0000
,
0001
0000
0001
0000
,
0001
0000
0000
0000
,
1001
0000
0000
0000
,
1000
0000
0000
0000
,
1000
0000
0100
0000
,
1000
0000
0000
0000
,
1001
0000
0000
0000
,
0001
0000
0000
0000
,
0100
0000
0100
0000
,
0100
0000
0000
0000
,
0110
0000
0000
0000
,
1000
0000
0001
0000
,
1000
0000
0000
0000
,
0010
0010
0010
0000
,
0110
0000
0000
0000
,
0100
0000
0000
0000
,
0001
0000
1000
0000
,
0001
0000
1000
0000
,
0001
0000
0000
0000
,
0100
0000
0000
0000
,
0010
0000
0100
0000
,
0010
0010
0010
0000
,
1001
0000
1000
0000
,
0001
0000
1000
0000
,
0001
0000
1000
0000
,
0001
0001
0001
0000
,
1001
0000
0001
0000
,
0100
0000
0001
0000
,
0100
0000
0001
0000
,
1000
1000
1000
0000
,
1001
0000
0000
0001
,
0001
0000
0000
1000
,
1000
0000
0001
0000
,
1000
1000
1000
0000
,
1001
0000
0000
0001
,
0001
0000
0000
1000
,
1000
0000
0001
0000
,
0100
0100
0100
0000
,
0110
0000
0000
0000
;

//--------------- dance-single - ----------------
#NOTES:
     dance-single:
     :
     Easy:
     6:
     0.187,0.262,0.155,0.019,0:
0000
0000
0000
0000
,
0000
0000
0000
0000
,
0000
0000
0000
0000
,
0000
0000
0000
0000
,
0001
0000
1000
0000
,
0001
0000
0100
0000
,
0001
0000
1000
0000
,
0001
0001
1000
0000
,
1001
0000
0100
0000
,
0001
0000
0100
0000
,
1000
0000
0001
0000
,
1000
1000
1000
0000
,
1001
0000
1000
0000
,
0010
0000
1000
0000
,
0001
0000
0100
0000
,
0001
0001
0001
0000
,
1001
0000
1000
0000
,
1000
0000
0001
0000
,
0100
0100
0001
0000
,
1000
1000
0010
0000
,
1001
0000
0001
0000
,
1000
0000
0100
0000
,
1000
0000
0001
0000
,
1000
1000
1000
0000
,
1001
0000
0000
0001
,
0001
0000
1000
1000
,
1001
0000
0000
0000
,
1001
1001
1001
0000
,
1001
0000
1000
0000
,
0001
0000
0100
0000
,
0001
0000
1000
0000
,
0001
1000
0001
1000
,
1001
0000
0100
0000
,
0001
0000
1000
0000
,
0010
0000
1000
0000
,
0001
0001
1000
1000
,
1001
0000
0100
0000
,
0001
0000
1000
0000
,
0001
0001
1000
0000
,
1000
1000
0001
0000
,
1001
0000
1000
0000
,
0100
0000
1000
0000
,
0010
0010
0010
0000
,
0100
0100
0100
0000
,
0110
0000
0010
0000
,
1000
0000
0001
0000
,
1000
1000
0001
0000
,
0001
0001
0100
0000
,
1001
0000
0001
0000
,
0100
0000
0001
0000
,
1000
0001
1000
0000
,
0010
0010
0100
0100
,
0220
0000
0000
0000
,
0000
0000
0000
0000
,
0330
0000
0000
0000
;

//--------------- dance-single - ----------------
#NOTES:
     dance-single:
     :
     Medium:
     10:
     0.363,0.393,0.311,0.058,0:
0000
0000
0000
0000
,
0000
0000
0000
0000
,
0000
0000
0000
0000
,
0000
0000
0000
0000
,
1000
1000
0100
0100
,
1000
1000
0010
0010
,
1000
1000
0001
0001
,
1000
0001
0000
0001
0000
0001
0100
0001
,
0101
0000
0100
0000
0001
1000
0001
0000
,
1000
0010
1000
0000
0001
0000
0001
0000
,
1001
0000
1001
0000
1000
0000
1000
0001
,
0000
0001
0000
0001
0000
1000
0000
1000
,
0001
0000
0001
0000
1000
0001
1000
0000
,
0001
0000
0001
0000
0100
0001
0100
0000
,
0001
0001
1000
1000
,
0100
1000
0100
0000
1000
0010
1000
0000
,
1001
1000
0001
0001
,
0100
0100
0010
0010
,
1000
1100
1000
1010
,
1000
0000
1001
0000
0001
0000
1000
0001
,
1000
1000
0001
0001
,
0100
0100
0010
0010
,
1000
1100
1000
1001
,
1000
0001
1000
0001
0000
0001
0000
0001
,
0101
0000
0000
0000
0000
1001
0000
1001
,
0000
1000
0001
0101
,
1001
0000
0000
0000
0000
1010
0000
1000
,
1001
0101
1001
1100
,
1001
0000
1000
0000
0001
1000
0001
0000
,
0001
0100
0001
0000
1000
0000
1000
0000
,
1010
0000
1000
0001
0000
0001
1000
0000
,
1000
0001
0100
0001
1000
0000
1001
0000
,
1001
0000
0000
0000
0001
0100
0000
0101
,
0000
1000
0001
0000
0001
1000
0000
1001
,
0000
1000
0001
0000
0001
1000
0000
0000
,
0100
1000
0100
1000
0100
0000
1001
0000
,
1001
0000
1000
0001
0000
0000
0100
0001
,
0000
0000
1000
0010
0000
0010
0000
1000
,
0010
0000
0001
0000
1000
0001
0000
0101
,
0000
0001
0000
1000
0000
1000
0001
0000
,
1001
0000
1000
0001
0000
1000
0001
0000
,
1000
0000
1000
0010
0000
0010
1000
0000
,
1000
0000
0001
0100
0000
0100
0001
0000
,
1000
0001
1000
0000
1000
0010
1000
0020
,
0000
0000
1030
0000
0100
0001
0100
0002
,
0000
0000
0103
0000
1000
0001
1000
0000
,
0001
0001
1000
1000
,
1100
0000
1010
0000
1000
0010
1000
0020
,
0000
0000
1030
0000
1000
0001
1000
0002
,
0000
1003
0001
0001
,
1000
0000
1000
0000
0001
1000
0001
0000
,
1000
0100
1000
0100
1000
0000
0001
0000
,
2002
0000
0000
0000
,
0000
0000
0000
0000
,
3003
0000
0000
0000
;

//--------------- dance-single - ----------------
#NOTES:
     dance-single:
     :
     Hard:
     11:
     0.449,0.446,0.311,0.058,0.049:
0000
0000
0000
0000
,
0000
0000
0000
0000
,
0000
0000
0000
0000
,
0000
0000
0000
0000
,
0001
0000
1000
0000
0001
0100
0001
0000
,
1000
0010
1000
0000
0001
1000
0001
0000
,
1000
0001
1000
0100
,
1000
0001
0100
0001
1000
0001
1000
0100
,
1001
0000
1000
0000
0001
1000
0001
0000
,
0001
0100
0001
0000
1000
0010
1000
0000
,
1001
0000
0000
0000
1001
0000
0000
1000
0000
0000
0001
0000
0000
0000
1000
0000
,
0001
0000
0000
0000
1000
0000
0000
0001
0000
0000
0100
0000
0001
0000
1000
0000
,
1001
0000
1000
0001
1000
0000
0001
0100
,
0001
0000
1000
0010
1000
0000
0001
0000
,
1001
0000
0000
0000
1001
0000
0000
1000
0000
0000
0010
0000
0000
0000
1000
0000
,
0001
0000
0000
0000
0001
0000
0000
0100
0000
0000
0001
0000
0100
0000
0001
0000
,
0100
0000
0001
0000
1000
0010
1000
0010
,
0000
1000
0000
0001
1000
0001
1000
0000
,
0001
1000
0001
0000
1000
0100
1000
0000
,
1000
0100
0010
0000
0010
0100
1000
0000
,
1001
0000
1000
0000
0001
1000
0001
0000
,
1000
0100
1000
0000
1000
0001
1000
0000
,
1001
0000
1000
0000
0001
0100
0001
0000
,
1000
0100
1000
0001
1000
0100
1000
0001
,
1001
0000
0000
0001
1000
1001
0000
1001
,
0000
0100
0001
0100
0001
0000
1100
0000
,
1001
0000
1000
1000
0001
1000
0000
0001
,
1001
1100
1010
1001
,
1001
0000
0000
0000
1000
0000
0001
1000
0001
0000
1000
0000
0000
0000
1001
0000
,
0000
0000
0001
0000
1000
0000
1000
0100
1000
0000
0001
0000
0000
0000
1001
0000
,
0000
0001
0100
0001
0000
1000
0001
1000
,
0001
0100
0001
1000
1100
0000
0101
0000
,
1001
0000
0000
0000
1000
0000
0001
0100
0001
0000
1000
0000
0000
0000
0001
0000
,
0000
0000
1000
0000
1000
0000
0001
0100
0001
0000
1000
0000
0000
0000
1000
0000
,
0001
0000
0100
1000
0000
1000
0100
0010
,
0001
0010
0100
0010
1100
0000
0011
0000
,
1001
0000
1000
0001
0000
0001
0100
0001
,
0000
1000
0001
1000
0000
1010
0000
1000
,
0001
0000
0000
0000
1000
0000
0001
1000
0001
0000
1000
0000
0000
0000
0001
0000
,
0100
0001
0100
0001
1000
0001
1000
0000
,
1001
0000
1000
0001
0000
0001
0100
0001
,
0000
1000
0010
1000
0000
0001
0000
1000
,
1001
0000
0000
0000
1000
0000
0001
1000
0001
0000
1000
0000
0000
0000
0010
0000
,
1000
0001
0100
0001
1000
0001
1000
0020
,
0000
0100
0130
0000
1000
0001
1000
0200
,
0000
0010
0310
0000
1000
0001
1000
0000
,
0001
0100
0001
1000
0001
1000
0000
1000
,
0001
1000
0001
0000
0100
0001
0100
0002
,
0000
1000
1003
0000
1000
0001
1000
2000
,
0000
0100
3100
0000
0001
1000
0001
0000
,
1000
0100
1000
0000
0001
1000
0001
0000
,
1000
0001
1000
0100
1100
0000
0101
0000
,
2002
0000
0000
0000
,
0000
0000
0000
0000
,
3003
0000
0000
0000
;

//--------------- dance-single - ----------------
#NOTES:
     dance-single:
     :
     Challenge:
     13:
     0.491,0.577,0.291,0.097,0.252:
0000
0000
0000
0000
,
0000
0000
0000
0000
,
0000
0000
0000
0000
,
0000
0000
0000
0000
,
1000
0000
0000
0000
0001
0000
0000
0100
0000
0000
0001
0000
0000
0000
1000
0000
,
0000
0001
0000
0000
1000
0000
0000
0100
0000
0000
1000
0000
0000
0000
0001
0000
,
1000
0000
0000
0000
0001
0000
0000
1000
0000
0000
0001
0000
0000
0000
1000
0000
,
0001
1000
0001
1000
0000
1000
0100
1000
0000
0001
1000
0001
1000
0001
1000
0001
,
1000
0000
0000
0000
0001
0000
0000
1000
0000
0000
0100
0000
0000
0000
1000
0000
,
0000
0001
0000
0000
1000
0000
0000
0010
0000
0000
1000
0000
0000
0000
0001
0000
,
1000
0000
0000
0000
0001
0000
0000
0100
0000
0000
0001
0000
0000
0000
1000
0000
,
0000
0001
0000
0000
1000
0000
0000
0010
0000
0000
1000
0000
0001
0000
1000
0000
,
1001
0000
0000
0000
1000
0000
0000
0001
0000
0000
0100
0000
0000
0000
0001
0000
,
0000
1000
0000
0000
0100
0000
0000
1000
0000
0000
0010
0000
0000
0000
1000
0000
,
1000
0000
0000
0000
0001
0000
0000
0100
0000
0000
0001
0000
0000
0000
1000
0000
,
0000
0001
0000
0000
0100
0000
0000
0001
0000
0000
0001
0000
1000
0000
0001
0000
,
1000
0001
1000
0001
0100
0001
0100
0000
,
1000
0001
1000
0001
1000
0010
1000
0000
,
1000
0001
1000
0001
0100
0001
1000
0010
,
1000
0100
1000
0001
0100
0001
1000
0000
,
1001
0000
0001
0000
1000
0100
1000
0000
,
0001
0100
0001
0000
1000
0001
1000
0000
,
0001
0000
1000
0001
1000
0001
0000
0001
,
0100
0001
0100
0001
0000
1000
0001
1000
0000
1000
0010
1000
0010
1000
0010
1000
,
0010
0000
1000
0001
1000
1100
0000
1100
,
0000
1000
0001
1000
0001
0000
0100
0000
,
0101
0000
1000
0001
1000
0001
0000
1000
,
0001
1000
0100
1000
1001
0000
1001
0000
,
1001
0000
0000
0000
1000
0000
0001
0100
0001
0000
0101
0000
0000
0000
1001
0000
,
0000
1000
0000
0000
1000
0000
0001
1000
0001
0000
1000
0000
0000
0000
0001
0000
,
1001
0000
1000
0010
0000
0010
1000
0001
,
1000
0100
1000
0001
0101
0000
1100
0000
,
1001
0000
0000
0000
1000
0000
0001
0100
0010
0000
1000
0000
0000
0000
1100
0000
,
0000
0000
0001
0000
1000
0000
0001
1000
0001
0000
1000
0000
0000
0000
1100
0000
,
0010
0000
1000
0001
0000
0001
1000
0100
,
1000
0001
1000
0001
0101
0000
1100
0000
,
1001
0000
1000
0002
0000
1003
0100
2000
,
0000
3010
1000
0020
0000
0230
0000
0310
,
1001
0000
0000
0000
0101
0000
0000
0101
0000
0000
0101
0000
0000
0000
1000
0000
,
0001
0100
0001
1000
0001
1000
0001
1000
,
1001
0000
0000
0000
1010
0000
0000
1010
0000
0000
1010
0000
0000
0000
0010
0000
,
0000
1000
0000
0000
0001
0000
0000
0100
0000
0000
0001
0000
0000
0000
1000
0000
,
0001
0000
0000
0000
1000
0000
0001
0100
0001
0000
1000
0000
0000
0000
0010
0000
,
1000
0001
1000
0001
0000
0001
0100
0001
0000
1000
0001
1000
0001
1000
0001
1000
,
0002
0000
1003
0000
1000
0100
1000
0002
,
0000
0010
0013
0000
0001
1000
0001
0000
,
1000
0000
0001
0000
1000
0000
0100
0010
0100
0000
0010
0000
0000
0000
1000
0000
,
0010
1000
0010
1000
1000
0001
1000
0002
,
0000
1000
1003
0000
1000
0100
1000
0200
,
0000
1000
1300
0000
0001
1000
0001
0000
,
1000
0000
0100
0000
1000
0000
0001
1000
0001
0000
1000
0000
0000
0000
0001
0000
,
1000
1000
0001
0001
0101
0000
1100
0000
,
2002
0000
0000
0000
,
0000
0000
0000
0000
,
3003
0000
0000
0000
;
