#TITLE:She Wants You;
#SUBTITLE:(The Almighty Mix);
#ARTIST:Billie;
#TITLETRANSLIT:;
#SUBTITLETRANSLIT:;
#ARTISTTRANSLIT:;
#CREDIT:;
#BANNER:She Wants You (The Almighty Mix)-jacket.png;
#BACKGROUND:;
#LYRICSPATH:;
#CDTITLE:;
#MUSIC:She Wants You (The Almighty Mix).mp3;
#OFFSET:-0.240;
#SAMPLESTART:76.412;
#SAMPLELENGTH:15.000;
#SELECTABLE:YES;
#BPMS:0.000=125.940;
#STOPS:;
#BGCHANGES:16.000=heart2.avi=1.000=1=0=1,
32.000=snow1.avi=1.000=0=0=1,
48.000=lady3.avi=1.000=0=0=1,
64.000=heart2.avi=1.000=0=0=1,
72.000=lady4.avi=1.400=0=0=1,
76.000=lady4r.avi=1.400=0=0=1,
80.000=amoeba4.avi=1.000=0=0=1,
88.000=lady10.avi=0.800=0=0=1,
96.000=text10.avi=1.000=0=0=1,
112.000=wheel1.avi=1.200=0=0=1,
128.000=amoeba4.avi=1.000=0=0=1,
136.000=heart2.avi=1.000=0=0=1,
144.000=bricks1.avi=1.000=0=0=1,
152.000=amoeba2.avi=1.000=0=0=1,
156.000=wheel1.avi=1.000=0=1=0,
160.000=heart2.avi=1.000=0=0=1,
168.000=lady4.avi=1.400=0=0=1,
172.000=lady4r.avi=1.400=0=0=1,
176.000=amoeba4.avi=1.000=0=0=1,
184.000=lady10.avi=0.800=0=0=1,
192.000=ribbon1.avi=1.400=0=0=1,
204.000=star2.avi=1.400=0=0=1,
208.000=fireworks1.avi=1.000=0=0=1,
224.000=spark1.avi=1.000=0=0=1,
232.000=wheel1.avi=0.800=0=0=1,
236.000=amoeba2.avi=1.000=0=0=1,
240.000=She Wants You (The Almighty Mix)-jacket.png=1.000=1=0=1,
99999=-nosongbg-=1.000=0=0=0 // don't automatically add -songbackground-
;

//---------------dance-single - ----------------
#NOTES:
     dance-single:
     :
     Beginner:
     2:
     0.161,0.206,0.103,0.000,0.000: // measure 1
0000
0000
0000
0000
,  // measure 2
0000
0000
0000
0000
,  // measure 3
0000
0000
0000
0000
,  // measure 4
0000
0000
0000
0000
,  // measure 5
1000
0000
1000
0000
,  // measure 6
1000
0000
1000
0000
,  // measure 7
0001
0000
0001
0000
,  // measure 8
0001
0000
0001
0000
,  // measure 9
1000
0000
1000
0000
,  // measure 10
1000
0000
1000
0000
,  // measure 11
0001
0000
0001
0000
,  // measure 12
0001
0000
0001
0000
,  // measure 13
1001
0000
1000
0000
,  // measure 14
0100
0000
0001
0000
,  // measure 15
0001
0000
1000
0000
,  // measure 16
0001
0000
1000
1000
,  // measure 17
1000
0000
0100
0000
,  // measure 18
1000
0000
1000
0000
,  // measure 19
0001
0000
0100
0000
,  // measure 20
0001
0001
0001
0000
,  // measure 21
1001
0000
0100
0000
,  // measure 22
1000
0000
1000
0000
,  // measure 23
0001
0000
0001
0000
,  // measure 24
0100
0000
0100
0000
,  // measure 25
0110
0000
0100
0000
,  // measure 26
0100
0000
0100
0000
,  // measure 27
0001
0000
0001
0000
,  // measure 28
1000
1000
0000
0001
,  // measure 29
0001
0000
0100
0000
,  // measure 30
1000
0000
0100
0000
,  // measure 31
1000
0000
0001
0000
,  // measure 32
1000
0000
0001
0000
,  // measure 33
1000
0000
0100
0000
,  // measure 34
0001
0000
0100
0000
,  // measure 35
0100
0000
0100
0000
,  // measure 36
0001
0000
0001
0000
,  // measure 37
0010
0000
0010
0000
,  // measure 38
1000
0000
1000
0000
,  // measure 39
0010
0000
0010
0000
,  // measure 40
1000
1000
1000
0000
,  // measure 41
1001
0000
1000
0000
,  // measure 42
0001
0000
0001
0000
,  // measure 43
0100
0000
0100
0000
,  // measure 44
1001
0000
0110
0000
,  // measure 45
1001
0000
1000
0000
,  // measure 46
0001
0000
0001
0000
,  // measure 47
0100
0000
0001
0000
,  // measure 48
1000
0000
0010
0000
,  // measure 49
1000
1000
1000
0000
,  // measure 50
0001
0001
0001
0000
,  // measure 51
0100
0100
0100
0000
,  // measure 52
1001
0000
0110
0000
,  // measure 53
1000
0000
1000
0000
,  // measure 54
0001
0000
0001
0000
,  // measure 55
1000
0000
1000
0000
,  // measure 56
0001
0000
1000
0000
,  // measure 57
1001
0000
0100
0000
,  // measure 58
0100
0000
0001
0000
,  // measure 59
1001
0000
0000
0000
,  // measure 60
1000
0000
0001
0000
,  // measure 61
1001
0000
0000
0000
;

//---------------dance-single - ----------------
#NOTES:
     dance-single:
     :
     Easy:
     6:
     0.257,0.338,0.138,0.172,0.000: // measure 1
0000
0000
0000
0000
,  // measure 2
0000
0000
0000
0000
,  // measure 3
0000
0000
0000
0000
,  // measure 4
0000
0000
0000
0000
,  // measure 5
1000
0010
1000
0000
,  // measure 6
0001
0100
0001
0000
,  // measure 7
1000
1000
0001
0000
,  // measure 8
0001
0001
0100
0000
,  // measure 9
1000
0001
1000
0000
,  // measure 10
0001
0100
0001
0000
,  // measure 11
0010
0100
0010
0000
,  // measure 12
1000
0001
1000
0000
,  // measure 13
0001
1000
0001
1000
,  // measure 14
0200
0300
0020
0030
,  // measure 15
1000
0001
1000
0001
,  // measure 16
2000
3000
0002
0003
,  // measure 17
1001
1000
0001
1000
,  // measure 18
0200
0300
0020
0030
,  // measure 19
1000
0001
0100
0001
,  // measure 20
2000
3000
0002
0003
,  // measure 21
1001
0001
0100
0001
,  // measure 22
2000
3000
0002
0003
,  // measure 23
1000
1000
1000
0000
,  // measure 24
0001
0001
0001
0000
,  // measure 25
1001
0000
1000
0001
,  // measure 26
1000
0000
0001
0100
,  // measure 27
0001
1000
0001
0000
,  // measure 28
1000
1000
0010
0000
,  // measure 29
1001
1000
0001
1000
,  // measure 30
0100
0000
0010
0000
,  // measure 31
1000
0001
0100
0001
,  // measure 32
1000
0000
0001
0000
,  // measure 33
1001
1000
1000
0000
,  // measure 34
0001
0100
0001
0000
,  // measure 35
1000
0001
1000
0100
,  // measure 36
1000
0000
0001
0000
,  // measure 37
1001
0001
0001
0000
,  // measure 38
1000
1000
0100
0000
,  // measure 39
1000
0001
1000
0000
,  // measure 40
1000
0010
0001
0010
,  // measure 41
1001
0100
0100
0001
,  // measure 42
2000
3000
0002
0003
,  // measure 43
0100
1000
0001
1000
,  // measure 44
0002
0003
2000
3000
,  // measure 45
1001
0001
1000
0100
,  // measure 46
2000
3000
0002
0003
,  // measure 47
1000
1000
1000
0000
,  // measure 48
0001
0001
0001
0000
,  // measure 49
1000
1000
1000
1001
,  // measure 50
0001
0001
0001
1001
,  // measure 51
1000
1000
1000
1001
,  // measure 52
2000
3001
0002
1003
,  // measure 53
1001
0100
0100
0000
,  // measure 54
0010
0010
0010
0000
,  // measure 55
1001
0100
0100
0000
,  // measure 56
0010
0010
0010
0000
,  // measure 57
1001
0010
0100
0000
,  // measure 58
0100
0010
0100
0000
,  // measure 59
1001
0000
0000
0000
,  // measure 60
1000
0001
1000
0001
,  // measure 61
2002
0000
3003
0000
;

//---------------dance-single - ----------------
#NOTES:
     dance-single:
     :
     Medium:
     10:
     0.416,0.446,0.327,0.353,0.004: // measure 1
0000
0000
0000
0000
,  // measure 2
0000
0000
0000
0000
,  // measure 3
0000
0000
0000
0000
,  // measure 4
0000
0000
0000
0000
,  // measure 5
1100
1000
0101
0001
,  // measure 6
1100
1000
0101
0001
,  // measure 7
1010
1000
0011
0001
,  // measure 8
1010
1000
0011
0001
,  // measure 9
1000
0000
0100
0000
1000
0001
1000
0000
,  // measure 10
0001
0000
1000
0000
1000
0001
1000
0000
,  // measure 11
0001
0000
0100
0000
1000
0001
1000
0000
,  // measure 12
0100
0000
1000
0000
1000
0001
1000
0000
,  // measure 13
0001
0100
0001
0000
2000
0000
3001
0000
,  // measure 14
0002
0103
2000
3100
,  // measure 15
1002
1003
2000
3010
,  // measure 16
0002
0103
2000
3100
,  // measure 17
1000
0001
1000
0000
2000
0000
3100
0000
,  // measure 18
2000
3010
0200
0301
,  // measure 19
1000
0001
1000
0000
0002
0000
1003
0000
,  // measure 20
1000
0001
1000
0000
0001
1000
0001
0000
,  // measure 21
1001
1000
0002
0103
,  // measure 22
2000
3100
0002
0103
,  // measure 23
1000
0001
1000
0000
0020
0000
1030
0000
,  // measure 24
0001
1000
0001
0000
0002
0000
0103
0000
,  // measure 25
1001
0000
1000
0000
0001
1000
0001
0000
,  // measure 26
0001
0100
0002
1003
,  // measure 27
1000
0001
1000
0000
0010
0000
1000
0000
,  // measure 28
0001
1000
0001
0000
1000
0000
1100
0000
,  // measure 29
1001
0000
1000
0000
0001
0100
0001
0000
,  // measure 30
1000
0000
0010
0000
1000
0001
1000
0000
,  // measure 31
0002
0103
2000
3100
,  // measure 32
0001
1000
0001
0000
1010
0000
1100
0000
,  // measure 33
1001
0000
1000
0000
0001
1000
0001
0000
,  // measure 34
1000
0000
0100
0000
1000
0100
1000
0000
,  // measure 35
0002
0103
2000
3100
,  // measure 36
0002
0000
0000
0000
1003
0000
0000
0000
1000
0000
0000
0100
0000
0000
0001
0000
,  // measure 37
1000
0000
0001
0000
1000
0001
1000
0000
,  // measure 38
0100
0000
1000
0000
0010
1000
0010
0000
,  // measure 39
1000
0001
0100
0001
,  // measure 40
1010
1010
1100
1100
,  // measure 41
1000
0001
1000
0000
2000
0000
3010
0000
,  // measure 42
0002
1003
2000
3100
,  // measure 43
0001
1000
0001
0000
2000
0000
3010
0000
,  // measure 44
0001
1000
0001
0000
1000
0001
1000
0000
,  // measure 45
1001
0001
2000
3100
,  // measure 46
0002
1003
2000
3010
,  // measure 47
0001
1000
0001
0000
2000
0000
3100
0000
,  // measure 48
0001
1000
0001
0000
0002
0000
0103
0000
,  // measure 49
1000
0001
1000
0001
1000
0000
1001
0000
,  // measure 50
0001
0100
0001
0100
0001
0000
1001
0000
,  // measure 51
1000
0010
1000
0010
1000
0000
1001
0000
,  // measure 52
1010
1010
1100
1100
,  // measure 53
1001
1001
0200
0301
,  // measure 54
1001
1010
2000
3001
,  // measure 55
1001
1001
2000
3001
,  // measure 56
0101
0101
2000
3001
,  // measure 57
1000
0010
1000
0000
2000
0000
3001
0000
,  // measure 58
0001
1000
0001
0000
0002
0000
0103
0000
,  // measure 59
2002
0000
0000
3003
,  // measure 60
1000
0001
1000
0001
1000
0000
0001
0000
,  // measure 61
2002
0000
0000
0000
,  // measure 62
3003
0000
0000
0000
;

//---------------dance-single - ----------------
#NOTES:
     dance-single:
     :
     Hard:
     12:
     0.459,0.446,0.301,0.292,0.052: // measure 1
0000
0000
0000
0000
,  // measure 2
0000
0000
0000
0000
,  // measure 3
0000
0000
0000
0000
,  // measure 4
0000
0000
0000
0000
,  // measure 5
1000
0000
0001
0000
0100
0100
0100
0000
,  // measure 6
0001
0000
1000
0000
0010
0010
0010
0000
,  // measure 7
1000
0000
0001
0000
0100
0100
0100
0000
,  // measure 8
0001
0000
1000
0000
0010
0010
0010
0000
,  // measure 9
1000
0000
0100
0000
1000
1000
1000
0000
,  // measure 10
0001
0000
0100
0000
0001
0001
0001
0000
,  // measure 11
1000
0000
0010
0000
1000
1000
1000
0000
,  // measure 12
0001
0000
0100
0000
0010
0010
0010
0000
,  // measure 13
1000
0001
1000
0010
2000
0000
3100
1000
,  // measure 14
0200
0000
1300
0010
2000
0000
3001
0100
,  // measure 15
0002
0000
1003
0100
2000
0000
3010
1000
,  // measure 16
0020
0000
1030
0001
2000
0000
3001
0000
,  // measure 17
1000
0001
1000
0001
2000
0000
3010
1000
,  // measure 18
0002
0000
1003
0100
2000
0000
3001
0000
,  // measure 19
1000
0001
1000
0001
2000
0000
3010
0000
,  // measure 20
1000
0000
0000
0001
0000
0000
0000
0000
0001
0000
0000
1000
0000
0000
0000
0000
,  // measure 21
1000
0001
1000
0001
2000
0000
3010
1000
,  // measure 22
0200
0000
1300
1000
0002
0000
1003
0000
,  // measure 23
1000
0001
1000
0001
2000
0000
3001
0100
,  // measure 24
0001
1000
0001
0000
2001
0000
3100
0000
,  // measure 25
1001
0000
0000
1000
0001
0000
0000
0000
1000
0000
0010
0000
1000
0000
0000
0000
,  // measure 26
0001
1000
0001
0000
2000
0000
3100
0000
,  // measure 27
0001
0000
0000
1000
0000
0000
0001
0000
0000
0000
0000
0000
1000
0000
0000
0000
0000
0000
0010
0000
1000
0000
0010
0000
,  // measure 28
2000
0001
0001
3001
,  // measure 29
1001
0000
1000
0000
0010
1000
0010
1000
,  // measure 30
0020
1030
1002
0103
,  // measure 31
1000
0001
1000
0000
0001
0100
0001
0000
,  // measure 32
1000
0001
1000
0000
0010
0010
1000
1000
,  // measure 33
1001
0000
0100
0000
1000
0001
1000
0000
,  // measure 34
0001
0100
0001
0000
1000
0001
1000
0000
,  // measure 35
0010
0000
1000
0000
0001
0000
1000
0200
,  // measure 36
0000
0000
1300
0000
0000
0000
1000
0000
0001
0000
0000
1000
0000
0000
0100
0000
,  // measure 37
1001
0000
1000
0000
0001
1000
0001
1000
,  // measure 38
0010
0000
1000
0000
0001
1000
0001
0100
,  // measure 39
0001
0000
0000
0000
1000
0000
0000
0000
1000
0000
0000
0001
1000
0000
0001
0000
,  // measure 40
1001
1010
1100
0101
,  // measure 41
1000
0001
0100
0001
2000
0000
3010
1000
,  // measure 42
0002
0000
0103
0001
2000
0000
3010
0000
,  // measure 43
1000
0001
0100
0001
2000
0000
3010
0000
,  // measure 44
1010
0000
0000
1010
0000
0000
0000
0000
0101
0000
0000
0101
0000
0000
0000
0000
,  // measure 45
1000
0001
0100
0001
2000
0000
3010
1000
,  // measure 46
0002
0000
0103
0001
2000
0000
3100
0000
,  // measure 47
0001
1000
0001
0100
0002
0000
1003
0000
,  // measure 48
0010
1000
0010
1000
2000
0000
3001
0000
,  // measure 49
1000
0000
0000
0001
0000
0000
0100
0000
0000
0000
1000
0000
1001
0000
0000
0000
,  // measure 50
0001
0000
0000
0100
0000
0000
0001
0000
0000
0000
1000
0000
1001
0000
0000
0000
,  // measure 51
0010
0000
0000
1000
0000
0000
0100
0000
0000
0000
1000
0000
1001
0000
0000
0000
,  // measure 52
0011
0101
0011
0101
,  // measure 53
1001
0000
1001
0000
0001
0000
1000
0010
,  // measure 54
1001
0000
1001
0000
0100
0000
0001
0100
,  // measure 55
0101
0000
0101
0000
1000
0000
0010
1000
,  // measure 56
1010
0000
1010
0000
0001
0000
0001
1000
,  // measure 57
1001
0000
1001
0000
1000
0000
1000
0010
,  // measure 58
1001
0000
1001
0000
0001
0000
1000
0010
,  // measure 59
2002
0000
0000
0000
3003
1000
1000
0001
,  // measure 60
1000
0100
1000
0001
1000
0000
0001
0100
,  // measure 61
2002
0000
0000
0000
,  // measure 62
3003
0000
0000
0000
;

//---------------dance-single - ----------------
#NOTES:
     dance-single:
     :
     Challenge:
     14:
     0.577,0.577,0.189,0.370,0.417: // measure 1
0000
0000
0000
0000
,  // measure 2
0000
0000
0000
0000
,  // measure 3
0000
0000
0000
0000
,  // measure 4
0000
0000
0000
0000
,  // measure 5
1000
0000
0001
0000
0100
0000
1000
0001
0000
1000
0000
0001
0000
1000
0000
0000
,  // measure 6
0001
0000
0100
0000
0001
0000
0100
1000
0000
0100
0000
1000
0000
0100
0000
0000
,  // measure 7
1000
0000
0001
0000
0100
0000
1000
0001
0000
1000
0000
0100
0000
1000
0000
0000
,  // measure 8
0001
0000
1000
0000
0001
0000
1000
0001
0000
0100
0000
0001
0000
0010
0000
0000
,  // measure 9
0100
0000
1000
0000
0001
0000
0001
1000
0000
0001
0000
1000
0000
0001
0000
0000
,  // measure 10
1000
0000
0100
0000
1000
0000
0001
1000
0000
1000
0000
0001
0000
0001
0000
0000
,  // measure 11
1000
0000
0100
0000
1000
0000
0001
0100
0000
0100
0000
0100
0000
0010
0000
0000
,  // measure 12
1000
0000
0001
0000
1000
0000
0000
1000
0100
1000
0100
0000
1000
0001
1000
0000
,  // measure 13
0001
1000
0000
1000
0001
0000
1000
0000
0002
0000
0000
0000
1003
0000
0100
0000
,  // measure 14
2000
0000
3010
1000
0002
0000
1003
0110
,  // measure 15
2001
0000
3001
1000
0002
0000
1003
0010
,  // measure 16
2000
0000
3001
0100
0002
0000
1003
0000
,  // measure 17
1001
1000
0100
0001
2000
0000
3010
1000
,  // measure 18
0002
0000
0000
0000
1003
0000
0100
0000
1000
0000
0000
0100
0001
0000
1000
0000
,  // measure 19
1001
0001
1000
0100
2000
0000
3001
0000
,  // measure 20
1000
0010
0000
0010
0000
0000
0000
0000
0001
0010
0000
0010
0000
0000
0000
0000
,  // measure 21
1001
0001
1000
0100
2000
0000
3001
0100
,  // measure 22
0002
0000
1003
0010
2000
0000
3001
0000
,  // measure 23
1000
1000
0001
0100
0002
0000
1003
0000
,  // measure 24
0001
1000
0100
1000
0002
0000
1003
0000
,  // measure 25
1001
0000
0000
1000
0100
0000
1000
0000
0001
0000
0100
0000
0001
0000
1000
0000
,  // measure 26
0010
1000
0010
1000
0200
0000
1300
0000
,  // measure 27
1000
0000
0000
0001
0000
0000
1000
0000
0000
0000
0000
0000
0001
0000
0000
0100
0000
0000
0001
0000
1000
0000
0001
0000
,  // measure 28
1000
0000
0100
0000
1000
0000
0000
0000
0001
0100
0001
0000
1000
0100
1000
0000
,  // measure 29
1000
0000
0001
1000
0000
1000
0000
0001
0000
1000
0000
0100
0000
1000
0000
0001
,  // measure 30
1000
0010
1000
0001
2000
0000
3001
0000
,  // measure 31
1000
0001
1000
0000
1000
0100
1000
0010
,  // measure 32
1000
0000
0001
0000
1000
0000
0000
0000
0001
0100
0001
0000
1000
0100
1000
0000
,  // measure 33
0001
0000
1000
0000
0100
0000
1000
0100
0000
1000
0010
0000
1000
0000
0001
0100
,  // measure 34
0000
0100
0000
1000
0001
0000
1000
0001
0000
0000
1000
0000
0100
0000
1000
0000
,  // measure 35
0100
1000
0001
0000
0001
1000
0100
0010
,  // measure 36
0000
0100
2000
0000
0000
0000
3001
0000
0011
0000
0000
1100
0000
0000
1010
0000
,  // measure 37
1001
0000
0001
0000
1000
0000
0100
1000
0000
1000
0100
0000
1000
0100
0000
1000
,  // measure 38
0000
0001
0000
1000
0100
0000
1000
0010
0000
0010
1000
0000
0001
0000
1000
0000
,  // measure 39
0100
0000
1000
0000
0100
0000
0000
0000
1000
0000
0000
0001
0100
0000
0001
0000
,  // measure 40
1001
0000
0000
0000
1010
0000
0000
0100
1000
0000
1000
0000
0001
1000
0001
1000
,  // measure 41
0001
0001
0100
0001
2000
0000
3010
1000
,  // measure 42
0002
0000
0103
0001
2000
0000
3001
0000
,  // measure 43
1001
1000
0100
0001
2000
0000
3010
1000
,  // measure 44
0001
0010
0000
0010
0000
0000
0000
0000
1000
0010
0000
0010
0000
0000
0000
0000
,  // measure 45
1001
0100
1000
0100
2000
0000
3010
0001
,  // measure 46
2000
0000
3100
1000
0020
0000
0130
0000
,  // measure 47
1000
0001
0100
0001
2000
0000
3010
1000
,  // measure 48
0001
0100
0001
1000
0002
0000
1003
0100
,  // measure 49
1000
0010
0000
0010
1000
0000
0001
0100
0000
0100
0001
0000
1001
0000
0000
0000
,  // measure 50
1000
0001
0000
0001
1000
0000
0010
0100
0000
0100
0010
0000
1001
0000
0000
0000
,  // measure 51
1000
0010
0000
0010
1000
0000
1000
0100
0000
0100
1000
0000
1001
0000
0000
0000
,  // measure 52
0011
0000
0000
0000
1100
0000
0000
0000
1000
0010
1000
0000
0001
0100
0001
0100
,  // measure 53
0002
0000
0000
0000
2003
0000
0000
0000
3001
0000
0000
0010
1000
0000
0001
0000
,  // measure 54
2000
0000
0000
0000
3002
0000
0000
0000
0103
0000
0000
1000
0001
0000
1000
0000
,  // measure 55
0200
0000
0000
0000
2300
0000
0000
0000
3010
0000
0000
1000
0001
0000
1000
0000
,  // measure 56
0020
0000
0000
0000
0230
0000
0000
0000
0301
0000
0000
1000
0001
0000
0100
0000
,  // measure 57
0002
0000
0000
0000
2003
0000
0000
0000
3001
0000
0000
1000
0100
0000
1000
0000
,  // measure 58
0002
0000
0000
0000
2003
0000
0000
0000
3001
0000
0000
1000
0010
0000
1000
0000
,  // measure 59
2002
0000
0000
0000
3000
1000
1000
1000
,  // measure 60
1003
0001
0001
0100
0001
1000
1010
1000
,  // measure 61
2002
0000
0000
0000
,  // measure 62
3003
0000
0000
0000
;
