#TITLE:Say A Prayer;
#SUBTITLE:(Morales Mix);
#ARTIST:Taylor Dayne;
#TITLETRANSLIT:;
#SUBTITLETRANSLIT:;
#ARTISTTRANSLIT:;
#CREDIT:;
#BANNER:;
#BACKGROUND:;
#LYRICSPATH:;
#CDTITLE:;
#MUSIC:Say A Prayer (Morales Mix).ogg;
#OFFSET:-1.040;
#SAMPLESTART:67.800;
#SAMPLELENGTH:12.000;
#SELECTABLE:YES;
#BPMS:0.000=122.600,136.000=122.580;
#STOPS:;
#BGCHANGES:;

//---------------dance-single - ----------------
#NOTES:
     dance-single:
     :
     Hard:
     14:
     0.702,0.624,0.242,0.048,0.786:
0000
0000
0000
0000
,
1000
0100
1000
0000
1000
0100
0000
0100
0010
0100
0010
0000
0010
0001
0000
0001
,
1000
0001
1000
0000
1000
0001
0000
0001
0100
0001
0100
0000
0100
0010
0000
0010
,
1000
0010
1000
0000
1000
0001
0000
0001
0100
0001
0100
0000
0100
0010
0000
0010
,
1000
0010
1000
0000
1000
0001
0000
0001
0100
0001
0100
0000
0100
0001
0000
0001
,
1000
0100
1000
0000
1000
0001
0000
0001
0100
0001
1000
0000
1000
0010
0000
0010
,
0100
0001
1000
0000
1000
0010
0000
0010
0100
0001
1000
0000
1000
0001
0000
0001
,
0100
0010
1000
0000
1000
0010
0000
0010
0100
0001
1000
0000
1000
0100
0000
0100
,
0010
0001
1000
0000
0010
1000
0001
0000
0100
0001
1000
0000
0100
1000
0001
1000
,
0100
0000
0000
1000
0000
0000
0001
0000
0100
0000
0010
0000
1000
0100
0000
0010
,
0100
0000
0000
1000
0000
0000
0001
0000
0010
0000
0001
0000
1000
0010
0000
0010
,
0100
0000
0000
0001
0000
0000
1000
0000
0001
0000
0100
0000
0001
0100
0000
0010
,
0100
0000
0000
0001
0000
0000
1000
0000
0100
0000
0010
0000
0001
1000
0000
1000
,
0010
0000
0100
0000
0001
0000
0010
0000
0100
0000
1000
0000
0001
1000
0000
1000
,
0100
0000
0010
0000
1000
0000
0001
0000
0100
0000
0010
0000
0001
1000
0000
1000
,
0100
0000
0010
0000
0001
0000
0100
0000
1000
0000
0100
0000
0001
1000
0000
1000
,
0010
1000
0100
0001
0100
1000
0010
0001
,
0010
0000
1000
0000
0100
0000
0010
0001
0000
0100
0000
0010
1000
0000
0100
0000
,
0010
0000
0100
0000
1000
0000
0010
0100
0000
0001
0000
1000
0100
0000
0010
0000
,
0001
0000
0100
0000
0010
0000
1000
0100
0000
0000
0100
0000
0010
0100
1000
0001
,
2000
0100
3100
0000
0002
0100
0103
0000
,
0100
0000
1000
0000
0010
0000
0100
0001
0000
0010
0000
0001
1000
0000
0010
0000
,
0100
0000
0001
0000
1000
0000
0010
1000
0000
0100
0000
1000
0001
0000
0100
0000
,
0001
0000
1000
0000
0100
0001
0000
0100
0000
0000
1000
0000
0010
0000
0100
0000
,
0101
1100
0011
1010
,
1001
0000
1000
0000
0010
0000
0100
0001
0000
0010
0000
0100
1000
0001
1000
0010
,
1000
0000
0100
0000
0010
0001
0000
1000
0000
0010
0000
0100
0001
0010
0100
1000
,
0001
0000
1000
0000
0010
0100
0000
1001
0000
0000
0000
0000
1000
0100
0010
0001
,
2000
0010
3010
0000
0002
0010
0013
0000
,
1010
0000
1000
0000
0010
0000
0100
0001
0000
1000
0000
0001
0100
0010
1000
0100
,
1000
0000
1000
0000
0100
0000
0010
0001
0000
1000
0000
0001
0010
0100
1000
0100
,
0010
0000
0001
0000
0100
0010
0000
0110
0000
0000
0000
0000
0010
1000
0100
0001
,
0200
0010
0310
0000
0002
1000
1003
0000
,
1000
0100
0010
0001
1000
0100
0010
0001
0100
0010
1000
0001
0100
0010
1000
0001
,
0100
0000
0010
0000
1000
0000
0100
0010
0000
0100
0000
1000
0001
1000
0001
1000
,
0001
0000
0100
0000
0010
0000
1000
0100
0000
0010
0000
0001
1000
0001
1000
0001
,
1000
0010
0100
0000
0001
1000
0000
1001
0000
0000
1000
0100
1000
0100
0010
0001
,
1000
0001
1000
0000
0001
0000
0101
0000
0000
0000
1100
0000
0000
0000
1000
0000
,
1001
0000
1000
0000
0010
0000
0100
0001
0000
1000
0000
0001
1000
0001
1000
0001
,
1000
0000
0010
0000
0100
0000
0001
0010
0000
0100
0000
1000
0001
1000
0001
1000
,
0001
0000
0100
0000
0010
1000
0000
1001
0000
0000
0000
1000
0001
0100
0010
1000
,
0001
1000
0001
0000
0100
0000
1010
0000
0000
0000
0011
0000
0001
0010
0100
1000
,
0010
0000
0100
0000
0001
0000
1000
0010
0000
0100
0000
0001
0010
0100
0010
0100
,
1000
0000
0010
0000
0100
0000
0001
1000
0000
0001
0000
1000
0100
0010
0100
0010
,
0001
1000
0001
0000
0100
0010
0000
0110
0000
0000
0000
0100
0010
1000
0001
1000
,
0100
0010
0100
0000
1000
0000
1100
0000
0000
0000
0011
0000
0000
0000
0001
0000
,
1001
0000
1000
0000
0010
0000
0100
0001
0000
1000
0000
0010
0100
0010
0100
0010
,
0100
0000
0001
0000
1000
0001
0000
0010
0000
0001
0000
0100
0010
0100
0010
0100
,
0010
0000
0000
1010
0000
0000
0011
0000
0000
0000
0001
0000
0100
0000
0010
0000
,
1000
0100
0000
1000
0001
0000
1000
0010
0000
0010
0100
0000
0100
0001
1000
0100
,
0010
0001
0100
1000
0100
0001
0010
1000
,
0010
0001
0100
0010
0100
0001
0010
0100
,
0010
0001
0100
1000
0100
0001
0010
1000
,
0010
0001
1000
0100
0010
0001
1000
0001
,
1001
1000
0010
0100
0001
1000
0010
0100
,
0001
0010
0100
1000
0001
0010
0100
1000
,
0001
0100
1000
0001
0010
1000
0001
1000
,
0100
0000
0000
0001
0000
0000
0000
0000
0000
0100
0000
0000
0010
0000
0000
0000
0000
0000
0100
0000
0000
1000
0000
0000
0000
0000
0000
0100
0000
0000
0010
0000
0000
0000
0000
0000
0100
0000
0000
0000
0001
0000
0000
0000
1000
0000
0000
0000
,
0010
0011
0001
1000
0000
1010
1000
0001
,
0000
1001
0001
0100
0000
1001
1000
0100
,
0000
1100
1000
0001
0000
0101
0001
0100
,
0000
0110
1000
0001
0000
0110
0001
1000
;

//---------------dance-single - ----------------
#NOTES:
     dance-single:
     :
     Medium:
     10:
     0.515,0.474,0.677,0.121,0.056:
0000
0000
0000
0000
,
1000
0000
0102
0000
1003
0000
1100
0001
,
0001
0000
0102
0000
1003
0000
1001
0001
,
0001
0000
0012
0000
1003
0000
1010
0001
,
0001
0000
0012
0000
1003
0000
0101
1000
,
1000
0000
0012
0000
1003
0000
1001
1000
,
1000
0000
0102
0000
1003
0000
0011
1000
,
1000
0000
2001
0000
3100
0000
1001
0100
,
0010
0010
1000
1000
0001
0001
0100
0010
,
1000
0000
0000
1000
0000
0000
2000
0000
0000
0000
0000
0000
3100
0000
0000
0000
,
0001
0000
0000
0001
0000
0000
0002
0000
0000
0000
0000
0000
0103
0000
0000
0000
,
1000
0000
0000
1000
0000
0000
2000
0000
0000
0000
0000
0000
3100
0000
0000
0000
,
0001
0000
0000
0001
0000
0000
0002
0000
0000
0000
0000
0000
0103
0000
0000
0000
,
1000
0000
0000
1000
0000
0000
2000
0000
0000
0000
0000
0000
3010
0000
0000
0000
,
0001
0000
0000
0001
0000
0000
0002
0000
0000
0000
0000
0000
0013
0000
0000
0000
,
1000
0000
0000
1000
0000
0000
2000
0000
0000
0000
0000
0000
3010
0000
0000
0000
,
0001
0000
0000
0001
0000
0000
0002
0000
0000
0000
0000
0000
0013
0000
0000
0000
,
1000
0100
0010
0100
1000
0100
0010
0000
,
0010
0001
0100
0001
0010
0001
0100
0000
,
0100
0010
1000
0100
0010
0000
0000
0010
,
0011
0000
1010
0000
0110
1000
1001
0000
,
0001
0100
0010
0100
0001
0100
0010
0000
,
0010
0100
0001
0010
0100
0010
0001
0000
,
0001
0100
0010
1000
0001
0000
0000
0001
,
0101
0000
1100
0000
0110
0001
1000
0000
,
1000
0100
0001
0100
1000
0100
0001
0000
,
0001
0100
1000
0010
1000
0100
1000
0000
,
1000
0010
0001
0010
1000
0000
0000
1000
,
1100
0000
0011
0000
1001
0010
0100
0000
,
1000
0010
0001
0010
1000
0010
0001
0000
,
0001
0010
1000
0100
1000
0010
1000
0000
,
1000
0100
0001
0100
1000
0000
0000
1000
,
1100
0000
0011
0000
1001
0100
0010
0000
,
1001
0110
1001
0110
,
1001
1000
0100
0010
0100
1000
1010
0000
,
1000
0010
0100
0001
0010
0100
1001
0000
,
0001
0100
0010
1000
1001
0000
1000
0100
,
0010
0010
0000
1001
0000
1001
0000
0000
,
0110
0001
0100
0010
1000
0100
0110
0000
,
0010
0001
0100
1000
0100
0001
0101
0000
,
0001
0010
0100
1000
1001
0000
1000
0010
,
0100
0100
0000
1001
0000
1001
0000
0000
,
0011
0001
0100
0010
1000
0100
1100
0000
,
1000
0010
0100
0001
0010
0100
1010
0000
,
1000
0010
0100
0001
0110
0000
0100
1000
,
0001
0001
0000
0110
0000
0110
0000
0000
,
1010
1000
0100
0010
0001
0100
0101
0000
,
0011
0001
1000
0100
0010
0010
0011
0000
,
0001
0100
1000
0100
0001
0010
1000
0010
,
0001
0000
0000
0100
0000
0000
0010
0000
0000
1000
0000
0000
1001
0000
0000
0000
,
1000
1100
1000
0100
0000
0101
0001
0100
,
0000
1100
1000
0001
0000
0101
0001
1000
,
0000
1010
1000
0010
0000
0011
0001
0010
,
0000
1010
1000
0001
0000
0011
0001
1000
,
0000
1001
0100
0010
0000
0010
0100
1001
,
0000
1001
0010
0100
0000
0100
0010
1001
,
0000
0110
1000
0001
0000
1000
0001
0110
,
1000
0000
0000
0000
0000
0000
0000
0000
0000
0010
0000
0000
0000
0000
0000
0000
0000
0000
0100
0000
0000
0000
0000
0000
0000
0000
0000
0001
0000
0000
0000
0000
0000
0000
0000
0000
0010
0000
0000
0000
0100
0000
0000
0000
0010
0000
0000
0000
,
0100
1100
0000
0101
0000
1100
0000
0101
,
0000
1010
0000
0011
0000
1010
0000
0011
,
0000
1001
0000
0110
0000
1001
0000
0110
,
0000
1100
0000
0011
0000
0101
0000
1010
;

//---------------dance-single - ----------------
#NOTES:
     dance-single:
     :
     Easy:
     7:
     0.313,0.399,0.226,0.040,0.044:
0000
0000
0000
0000
,
1000
1000
1000
1000
,
0100
0100
0100
0100
,
0010
0010
0010
0010
,
0001
0001
0001
0001
,
0100
0100
0100
0100
,
0010
0010
0010
0010
,
1000
1000
1000
1000
,
0001
0100
0010
1000
,
2020
0000
0000
0030
,
0002
0000
0000
0003
,
0200
0000
0000
0300
,
0020
0000
0000
3030
,
0110
0100
0001
0100
,
1000
0100
0001
1000
,
0001
0010
1000
0010
,
1001
0110
1001
0110
,
0001
0000
0010
0000
0100
0100
1000
0000
,
0100
0000
0010
0000
0001
0001
1000
0000
,
1000
0000
0000
0000
1000
0000
0000
1000
0000
0000
0000
0000
0000
0000
0000
0000
,
1000
1000
0001
0001
,
0100
0000
0010
0000
1000
1000
0100
0000
,
0010
0000
0001
0000
0100
0100
0001
0000
,
0010
0000
0000
0000
0100
0000
0000
0100
0000
0000
0000
0000
0000
0000
0000
0000
,
1000
1000
0001
0001
,
0100
0000
0010
0000
1000
0100
1000
0000
,
0001
0000
0010
0000
0001
0100
0001
0000
,
0010
0000
0000
0000
0100
0000
0000
0100
0000
0000
0000
0000
0000
0000
0000
0000
,
0010
0010
0001
0001
,
1000
0000
0001
0000
1000
0010
1000
0000
,
0001
0000
1000
0000
0001
0010
0001
0000
,
1000
0000
0000
0000
0010
0000
0000
0010
0000
0000
0000
0000
0000
0000
0000
0000
,
1000
1000
0100
0100
,
0110
0110
1001
1001
,
0001
0100
0010
1000
,
0100
0010
0001
1000
,
0001
0000
0000
0000
0100
0000
0000
0100
0000
0000
0000
0000
0001
0000
0000
0000
,
1000
1000
0000
0001
0000
0000
1000
0000
,
1010
1000
0100
0010
,
0001
0100
0010
1000
,
0001
0000
0000
0000
1000
0000
0000
1000
0000
0000
0000
0000
1000
0000
0000
0000
,
0100
0100
0000
0010
0000
0000
0010
0000
,
0001
0100
0010
1000
,
0001
1000
0100
0010
,
0001
0000
0000
0000
0010
0000
0000
0010
0000
0000
0000
0000
1000
0000
0000
0000
,
0001
0001
0000
1000
0000
0000
0010
0000
,
0011
0001
0100
0010
,
1000
0000
0100
0000
0010
0010
0010
0000
,
0100
1000
0001
1000
,
0100
0000
0000
0100
0000
0000
1000
0000
0000
0001
0000
0000
0010
0000
0000
0000
,
0000
0001
0000
0010
0000
0001
0000
0010
,
0000
0100
0000
0010
0000
0100
0000
0010
,
0000
0100
0000
1000
0000
0100
0000
1000
,
0000
0001
0000
1000
0000
0001
0000
1000
,
0000
0010
0000
0100
0000
0010
0000
0100
,
0000
0001
0000
1000
0000
0001
0000
1000
,
0000
0001
0000
1000
0000
0100
0000
0010
,
0001
0000
0000
0100
0000
0000
0001
0000
0000
1000
0000
0000
0010
0000
0000
0000
,
0000
1100
0000
0101
0000
1100
0000
0101
,
0000
1001
0000
0110
0000
1001
0000
0110
,
0000
1010
0000
0011
0000
1010
0000
0011
,
0000
1001
0000
0110
0000
1001
0000
0110
;

//---------------dance-single - ----------------
#NOTES:
     dance-single:
     :
     Beginner:
     3:
     0.097,0.175,0.056,0.016,0.000:
0000
0000
0000
0000
,
0000
0000
0000
0000
,
0000
0000
0000
0000
,
0000
0000
0000
0000
,
0000
0000
0000
0000
,
0000
0000
0000
0000
,
0000
0000
0000
0000
,
0000
0000
0000
0000
,
1000
1000
1000
1000
,
1001
0000
0000
0000
,
1000
0000
0000
0000
,
1000
0000
0000
0000
,
1000
0000
0000
0000
,
1001
0000
0000
0000
,
0001
0000
0000
0000
,
0001
0000
0000
0000
,
0001
0001
0001
0001
,
0001
0000
0000
0000
,
0100
0000
0000
0000
,
1000
0000
0000
0000
,
0100
0000
0000
0000
,
0001
0000
0000
0000
,
0010
0000
0000
0000
,
1000
0000
0000
0000
,
0010
0000
0000
0000
,
1001
0000
0000
0000
,
0010
0000
0000
0000
,
0001
0000
0000
0000
,
0010
0000
0010
0000
,
1000
0000
0000
0000
,
0100
0000
0000
0000
,
0001
0000
0000
0000
,
0100
0000
0100
0000
,
2000
0000
0000
0000
0000
3000
1000
0000
,
1000
0000
0000
0000
,
0100
0000
0000
0000
,
0010
0000
0000
0000
,
0001
0000
0000
0000
,
1001
0000
0000
0000
,
0100
0000
0000
0000
,
0010
0000
0000
0000
,
1000
0000
0000
0000
,
0110
0000
0000
0000
,
0001
0000
0000
0000
,
0100
0000
0000
0000
,
0010
0000
0000
0000
,
0110
0000
0000
0000
,
0010
0000
0000
0000
,
1000
0000
0000
0000
,
0200
0000
0000
0000
,
0300
0000
0000
0100
0000
0000
0000
0100
,
0000
0000
0000
1000
0000
0000
0000
1000
,
0000
0000
0000
0001
0000
0000
0000
0001
,
0000
0000
0000
0010
0000
0000
0000
0010
,
0000
0000
0000
1000
0000
0000
0000
0001
,
0000
0000
0000
1000
0000
0000
0000
0001
,
0000
0000
0000
0100
0000
0000
0000
0010
,
0000
0000
0000
0100
0000
0000
0000
0010
,
0000
0000
0000
0010
0000
0000
0000
0010
,
0000
0000
0000
1000
0000
0000
0000
1000
,
0000
0000
0000
0100
0000
0000
0000
0100
,
0000
0000
0000
0010
0000
0000
0000
1001
;

//---------------dance-double - ----------------
#NOTES:
     dance-double:
     :
     Easy:
     8:
     0.339,0.449,0.306,0.032,0.032:
00000000
00000000
00000000
00000000
,
00010000
00001000
00010000
01000000
,
00010000
00001000
00010000
01000000
,
00010000
00001000
00000100
00001000
,
00010000
00001000
00000100
00001000
,
00010000
01000000
10000000
01000000
,
00010000
00001000
00000100
00000001
,
00000100
00001000
00010000
00100000
,
10000000
10000000
00010000
00001000
,
00000002
00000000
00000000
00000003
,
00000200
00000000
00000000
00000300
,
00002000
00000000
00000000
00003000
,
00020000
00000000
00000000
00030000
,
01000000
10000000
01000000
00100000
,
00001000
00010000
00000100
00000010
,
00000001
00000100
00000010
00010000
,
00011000
00011000
00110000
00110000
,
10010000
00000000
10000000
00000000
01000000
00100000
01000000
00000000
,
10000000
00000000
00010000
00000000
00100000
01000000
00100000
00000000
,
00010000
00000000
00000000
00000000
00010000
00000000
00000000
00010000
00000000
00000000
00000000
00000000
00000000
00000000
00000000
00000000
,
11000000
11000000
01010000
01010000
,
00001000
00000000
00010000
00000000
00001000
00010000
00001000
00000000
,
00010000
00000000
00001000
00000000
00010000
00001000
00010000
00000000
,
00001000
00000000
00000000
00000000
00010000
00000000
00000000
00010000
00000000
00000000
00000000
00000000
00000000
00000000
00000000
00000000
,
00011000
00011000
00001100
00001100
,
00001000
00000000
00000001
00000000
00000100
00000010
00000100
00000000
,
00000001
00000000
00001000
00000000
00000010
00000100
00000010
00000000
,
00001000
00000000
00000000
00000000
00000001
00000000
00000000
00000001
00000000
00000000
00000000
00000000
00000000
00000000
00000000
00000000
,
00000011
00001010
00000101
00001100
,
00011000
00000000
00001000
00000000
00010000
00001000
00010000
00000000
,
00001000
00000000
00010000
00000000
00001000
00010000
00001000
00000000
,
00010000
00000000
00000000
00000000
00001000
00000000
00000000
00001000
00000000
00000000
00000000
00000000
00010000
00000000
00000000
00000000
,
00011000
00110000
10100000
11000000
,
01010000
00011000
00001100
00000101
,
00001001
00000000
00001000
00000000
00000100
00000100
00000100
00000000
,
00000010
00000000
00000001
00000000
00000100
00000100
00000100
00000000
,
00001000
00000000
00010000
00001000
00010000
00000000
00001000
00000000
,
00010000
00010000
00000000
00011000
00000000
00011000
00000000
00000000
,
10010000
00000000
10000000
00000000
01000000
01000000
01000000
00000000
,
00100000
00000000
00010000
00000000
01000000
01000000
01000000
00000000
,
00001000
00000000
00010000
00001000
00010000
00000000
00001000
00000000
,
00010000
00010000
00000000
00011000
00000000
00011000
00000000
00000000
,
00001001
00000000
00001000
00000000
00000010
00000010
00000010
00000000
,
00000100
00000000
00000001
00000000
00000010
00000010
00000010
00000000
,
00001000
00000000
00010000
00001000
00010000
00000000
00001000
00000000
,
00010000
00010000
00000000
00011000
00000000
00011000
00000000
00000000
,
10010000
00000000
01000000
00000000
00100000
00100000
00100000
00000000
,
10000000
00000000
01000000
00000000
00100000
00100000
00100000
00000000
,
00001000
00010000
00000100
00000010
,
00000001
00000000
00000000
00000100
00000000
00000000
00001000
00000000
00000000
00010000
00000000
00000000
01000000
00000000
00000000
00000000
,
10010000
10000000
00000000
01000000
00000000
00010000
00000000
01000000
,
00000000
10000000
00000000
00100000
00000000
00010000
00000000
00100000
,
00000000
10000000
00000000
01000000
00000000
00100000
00000000
00001000
,
00000000
00010000
00000000
00000100
00000000
00000010
00000000
00000001
,
00000000
00001000
00000000
00000100
00000000
00000001
00000000
00000100
,
00000000
00001000
00000000
00000010
00000000
00000001
00000000
00000010
,
00000000
00001000
00000000
00000100
00000000
00000010
00000000
00000001
,
00000100
00000000
00000000
00001000
00000000
00000000
00010000
00000000
00000000
00100000
00000000
00000000
10000000
00000000
00000000
00000000
,
10010000
00010000
00000000
10000000
00000000
00100000
00000000
01000000
,
00000000
00001000
00000000
00010000
00000000
00000100
00000000
00000010
,
00000000
00000001
00000000
00000100
00000000
00001000
00000000
00010000
,
00000000
01000000
00000000
10000000
00000000
01000000
00000000
00010000
;

//---------------dance-double - ----------------
#NOTES:
     dance-double:
     :
     Medium:
     12:
     0.554,0.524,0.492,0.145,0.073:
00000000
00000000
00000000
00000000
,
00010000
00001000
00010000
01000000
00010000
00001000
00010000
01000000
,
10000000
01000000
00010000
01000000
10000000
01000000
00010000
00001000
,
00000010
00000001
00000010
00001000
00000010
00000001
00000010
00001000
,
00010000
00100000
00010000
00001000
00010000
00100000
00010000
00001000
,
00000010
00000001
00000100
00000010
00000100
00000001
00000010
00001000
,
00010000
01000000
10000000
00100000
10000000
01000000
00010000
00001000
,
00000100
00000001
00000100
00001000
00010000
00100000
00010000
00001000
,
00000010
00000010
00000001
00000001
00000100
00001000
00010000
01000000
,
21000000
00000000
00000000
00010000
00000000
00000000
00200000
00000000
00000000
00000000
30000000
00000000
10300000
00000000
00100000
00000000
,
02100000
00000000
00000000
00010000
00000000
00000000
00200000
00000000
00000000
00000000
03000000
00000000
01300000
00000000
00001000
00000000
,
00021000
00000000
00000000
00000100
00000000
00000000
00000020
00000000
00000000
00000000
00030000
00000000
00010030
00000000
00000100
00000000
,
00002100
00000000
00000000
00000001
00000000
00000000
00000020
00000000
00000000
00000000
00003000
00000000
00001030
00000000
00000001
00000000
,
00000102
00000000
00000000
00001000
00000000
00000000
00000020
00000000
00000000
00000000
00000000
00000003
00000031
00000000
00000100
00000000
,
00002010
00000000
00000000
00000100
00000000
00000000
00000002
00000000
00000000
00000000
00003000
00000000
00000013
00000000
00000100
00000000
,
00021000
00000000
00000000
00000100
00000000
00000000
00000020
00000000
00000000
00000000
00030000
00000000
00010030
00000000
00001000
00000000
,
00120000
00000000
00000000
01000000
00000000
00000000
20000000
00000000
00000000
00000000
00030000
00000000
30010000
00000000
10000000
00000000
,
01100000
01000000
00010000
00100000
01000000
10000000
00010000
00000000
,
10000000
01000000
00100000
00001000
00010000
00000100
00000110
00000000
,
00000010
00000000
00000001
00000000
00000200
00000000
00000000
00001300
00000000
00000000
00000000
00000000
00000000
00000000
00001000
00000000
,
00011000
00010000
01000000
00000000
00011000
00001000
00000100
00000000
,
00000100
00000001
00000010
00001000
00010000
00001000
00000010
00000000
,
00000010
00000001
00000100
00000010
00010000
00001000
00010000
00000000
,
00001000
00000000
00010000
00000000
02000000
00000000
00000000
13000000
00000000
00000000
00000000
00000000
00000000
00000000
10000000
00000000
,
10010000
01000000
00100000
00000000
01100000
00010000
10000000
00000000
,
11000000
10000000
00100000
01000000
00001000
00001000
00001000
00000000
,
00010000
00000100
00000010
00000001
00001000
00001000
00001000
00000000
,
00001000
00000010
00000100
00000001
00000011
00000000
00000010
00000100
,
00001100
00010000
00001000
00000000
01010000
00001000
00010000
00000000
,
00011000
00010000
00000100
00000010
00000100
00010000
00001000
00000000
,
00010000
00001000
01000000
00100000
01000000
00001000
00010000
00000000
,
00001000
00000000
00000100
00000000
00000001
00000000
00000000
00000001
00000000
00000000
00000000
00000000
00000000
00000000
00000001
00000000
,
00001001
00000100
00000010
00000000
00000110
00001000
00000001
00000000
,
00000011
00001010
00110000
10100000
,
10010000
01000000
00010000
00001000
00000100
00000001
00000100
00000000
,
00000001
00000100
00001000
00010000
01000000
10000000
01000000
00000000
,
01000000
00100000
00001000
00010000
00011000
00000000
00010000
00000100
,
00000010
00000010
00000000
00001001
00000000
00001001
00000000
00000100
,
00001001
00000010
00001000
00010000
01000000
10000000
01000000
00000000
,
10000000
00100000
00010000
00001000
00000100
00000001
00000100
00000000
,
00000100
00000010
00010000
00001000
00011000
00000000
00001000
01000000
,
00100000
00100000
00000000
10010000
00000000
10010000
00000000
01000000
,
10010000
00100000
00010000
00001000
00000010
00000001
00000010
00000000
,
00000001
00000010
00001000
00010000
00100000
10000000
00100000
00000000
,
10000000
01000000
00100000
00001000
00011000
00000000
00010000
00000100
,
00000001
00000001
00000000
00000101
00000000
00001100
00000000
00000001
,
00001001
00000100
00001000
00010000
00100000
10000000
00100000
00000000
,
10000000
01000000
00010000
00001000
00000010
00000001
00000010
00000000
,
00000010
00000000
00000000
00000001
00000000
00000000
00000100
00000000
00000000
00000000
00001000
00000000
00100000
00000000
00010000
00000000
,
10010000
00000000
00000000
01010000
00000000
00000000
00011000
00000000
00000000
00001100
00000000
00000000
00001001
00000000
00000100
00000000
,
00000010
00001000
00000100
00000001
00000100
00010000
00001000
00100000
,
00010000
01000000
10000000
01000000
00010000
00100000
00001000
00010000
,
00000100
00000010
00000001
00000100
00001000
00010000
01000000
10000000
,
00100000
10000000
01000000
00100000
00001000
00010000
00000100
00000010
,
00001001
00000100
00000010
00001000
00000100
00000001
00000100
00001000
,
00000010
00010000
00001000
01000000
00100000
10000000
01000000
00010000
,
01000000
10000000
00100000
01000000
00001000
00010000
00000100
00000010
,
00001001
00000000
00000000
00000000
00000000
00000000
00000000
00000000
00000000
00001100
00000000
00000000
00000000
00000000
00000000
00000000
00000000
00000000
00011000
00000000
00000000
00000000
00000000
00000000
00000000
00000000
00000000
01010000
00000000
00000000
00000000
00000000
00000000
00000000
00000000
00000000
10010000
00000000
00000000
00000000
10000000
00000000
00000000
00000000
00100000
00000000
00000000
00000000
,
01000000
01100000
01000000
00010000
00000000
01010000
01000000
00001000
,
00000000
00011000
00010000
00000100
00000000
00001100
00001000
00000001
,
00000000
00000101
00000001
00000010
00000000
00000011
00001000
00001010
,
00000000
00011000
00001000
00011000
00000000
00011000
00100100
00011000
;

//---------------dance-double - ----------------
#NOTES:
     dance-double:
     :
     Hard:
     14:
     0.725,0.649,0.274,0.097,0.883: // measure 1
00000000
00000000
00000000
00000000
,  // measure 2
00010000
00001000
00010000
00000000
00010000
00001000
00000000
00001000
00100000
00010000
00100000
00000000
00100000
00010000
00000000
00010000
,  // measure 3
10000000
00100000
10000000
00000000
10000000
00100000
00000000
00100000
01000000
00100000
01000000
00000000
01000000
00010000
00000000
00010000
,  // measure 4
10000000
00010000
10000000
00000000
10000000
01000000
00000000
01000000
00100000
01000000
00100000
00000000
00100000
00001000
00000000
00001000
,  // measure 5
00010000
00001000
00010000
00000000
00010000
00000100
00000000
00000100
00001000
00000100
00001000
00000000
00001000
00000010
00000000
00000010
,  // measure 6
00000100
00000010
00000100
00000000
00000100
00000001
00000000
00000001
00000010
00000001
00000010
00000000
00000010
00000100
00000000
00000100
,  // measure 7
00001000
00000100
00001000
00000000
00001000
00000100
00000000
00000010
00000001
00000100
00000010
00000000
00000010
00001000
00000000
00001000
,  // measure 8
00000100
00010000
00001000
00000000
00001000
00100000
00000000
00100000
00010000
01000000
00100000
00000000
00100000
10000000
00000000
10000000
,  // measure 9
01000000
00010000
00001000
00000000
00000100
00001000
00010000
00000000
00100000
00010000
00001000
00000000
00000010
00001000
00010000
00100000
,  // measure 10
20000000
00000000
00000000
01000000
00000000
00000000
00010000
00000000
31000000
00000000
00000000
01000000
00000000
10000000
00000000
00100000
,  // measure 11
00020000
00000000
00000000
00001000
00000000
00000000
00000100
00000000
00031000
00000000
00000000
00010000
00000000
00000100
00000000
00000010
,  // measure 12
00000002
00000000
00000000
00000100
00000000
00000000
00001000
00000000
00000013
00000000
00000000
00000010
00000000
00000001
00000000
00000100
,  // measure 13
00002000
00000000
00000000
00010000
00000000
00000000
01000000
00000000
00103000
00000000
00000000
00100000
00000000
00010000
00000000
10000000
,  // measure 14
00100000
00000000
10000000
00000000
01000000
00000000
00010000
00000000
00001000
00000000
00000100
00000001
00000000
00000010
00000000
00000100
,  // measure 15
00001000
00000000
00000010
00000000
00000100
00000000
00000001
00000000
00000010
00000000
00001000
00010000
00000000
00100000
00000000
10000000
,  // measure 16
01000000
00000000
10000000
00000000
00100000
00000000
00010000
00000000
00001000
00000000
00000100
00000001
00000000
00000100
00000000
00000010
,  // measure 17
00001000
00000000
00000100
00000000
00000010
00000000
00000001
00000000
00000100
00000000
00001000
00010000
00000000
01000000
00000000
10000000
,  // measure 18
00100000
00000000
10000000
00000000
01000000
00000000
00100000
00001000
00000000
00010000
00000000
00001000
00010000
00000000
00000100
00000000
,  // measure 19
00000010
00000000
00000001
00000000
00000100
00000000
00000010
00001000
00000000
00000100
00000000
00001000
00000010
00000000
00000100
00000000
,  // measure 20
00000001
00000000
00000010
00000000
00001000
00000000
00010000
00001000
00000000
00000000
00000000
00000000
00010000
00001000
00100000
00010000
,  // measure 21
20000000
01000000
30010000
00000000
00020000
01000000
10030000
00000000
,  // measure 22
10010000
00000000
00010000
00000000
00100000
00000000
01000000
00010000
00000000
00001000
00000000
00010000
00001000
00000000
00000010
00000000
,  // measure 23
00000100
00000000
00001000
00000000
00000010
00000000
00000100
00000001
00000000
00000010
00000000
00000001
00000100
00000000
00000010
00000000
,  // measure 24
00000001
00000000
00000010
00000000
00001000
00010000
00000000
00001000
00000000
00000000
00000100
00000010
00000001
00000100
00000010
00001000
,  // measure 25
00000002
00000100
00001003
00000000
00002000
00000100
00003001
00000000
,  // measure 26
00001001
00000000
00000001
00000000
00001000
00000000
00000010
00000001
00000000
00000010
00000000
00001000
00010000
00000000
01000000
00000000
,  // measure 27
00100000
00000000
10000000
00000000
01000000
00100000
00000000
00010000
00000000
01000000
00000000
00010000
00100000
00000000
01000000
00000000
,  // measure 28
10000000
00000000
01000000
00000000
00100000
01000000
00000000
01100000
00000000
00000000
00100000
01000000
10000000
00010000
00100000
00001000
,  // measure 29
00020000
00000100
00030010
00000000
00000020
00001000
00010030
00000000
,  // measure 30
00010010
00000000
00000010
00000000
00001000
00000000
00000010
00000001
00000000
00000010
00000000
00001000
00010000
00000000
00100000
00000000
,  // measure 31
00110000
00000000
00010000
00000000
01000000
00000000
00100000
10000000
00000000
01000000
00000000
10000000
00100000
00000000
01000000
00000000
,  // measure 32
00110000
00000000
00100000
00000000
00001000
00010000
00000000
00011000
00000000
00000000
00001000
00010000
01000000
10000000
00100000
01000000
,  // measure 33
00002000
01000000
00103000
00000000
00200000
01000000
00301000
00010000
,  // measure 34
01000000
10000000
00010000
01000000
00001000
00010000
00000100
00001000
00000001
00000100
00000010
00001000
00000100
00010000
00001000
00100000
,  // measure 35
00010000
00000000
10000000
00000000
00100000
00000000
01000000
00001000
00000000
00010000
00000000
00000100
00000010
00000001
00000100
00000010
,  // measure 36
00001000
00000000
00000100
00000000
00010000
00000000
00001000
00100000
00000000
00010000
00000000
10000000
00100000
01000000
00010000
00100000
,  // measure 37
00001000
00000100
00001000
00000000
00010000
00001000
00000000
00011000
00000000
00000000
00000000
00010000
00000100
00001000
00000100
00000010
,  // measure 38
00000001
00001000
00000001
00000000
00000100
00000000
00000010
00000000
00000010
00000000
00001000
00000000
00001000
00000100
00010000
00001000
,  // measure 39
00010000
00000000
00010000
00000000
00001000
00000000
00100000
00010000
00000000
10000000
00000000
00100000
01000000
00010000
00100000
01000000
,  // measure 40
10000000
00000000
00100000
00000000
00010000
00000000
00001000
00000100
00000000
00000001
00000000
00000100
00001000
00010000
00001000
00100000
,  // measure 41
00010000
10000000
00100000
00000000
01000000
00010000
00000000
01010000
00000000
00000000
00000000
00010000
10000000
00010000
01000000
00100000
,  // measure 42
10000000
00010000
10000000
00000000
01000000
00000000
00100000
00000000
00100000
00000000
00001000
00000000
00001000
00010000
00001000
00010000
,  // measure 43
00000100
00000000
00000010
00000000
00000001
00000000
00000100
00001000
00000000
00010000
00000000
01000000
10000000
00100000
10000000
01000000
,  // measure 44
00100000
00000000
00010000
00000000
01000000
00000000
00100000
10000000
00000000
01000000
00000000
00010000
00001000
00000100
00000001
00000010
,  // measure 45
00000001
00001000
00000001
00000000
00000100
00000010
00000000
00010010
00000000
00000000
00000000
00010000
00001000
00000100
00000001
00000010
,  // measure 46
00000001
00001000
00000001
00000000
00000100
00000000
00000010
00000000
00000010
00000000
00010000
00000000
00010000
00001000
00000100
00001000
,  // measure 47
00010000
00000000
00001000
00000000
00100000
00000000
00010000
10000000
00000000
00100000
00000000
01000000
00001000
00010000
00000100
00000010
,  // measure 48
00000001
00000000
00000100
00000000
00001000
00010000
00000000
00001000
00000000
00100000
00000000
00010000
00100000
01000000
10000000
00010000
,  // measure 49
10000000
00000000
00000000
01000000
00000000
00000000
00010000
00000000
00001000
00000000
00000100
00000000
00000001
00000000
00000100
00000000
,  // measure 50
00001000
00010000
00000000
00000010
00001000
00000000
00000001
00000010
00000000
00000001
00001000
00000100
00000010
00000001
00001000
00000000
,  // measure 51
00001001
00000100
00000010
00010000
00011000
00001000
00100000
00010000
,  // measure 52
10010000
10000000
00100000
01000000
01100000
01000000
00010000
00100000
,  // measure 53
00110000
00100000
00001000
00010000
00011000
00010000
00000100
00000010
,  // measure 54
00000001
00001000
00000000
00001000
00000100
00000000
00000100
00010000
00000000
00010000
00001000
00000000
00010000
00000000
00001000
00000000
,  // measure 55
00101000
00100000
00010000
10000000
10100000
10000000
01000000
00100000
,  // measure 56
00101000
00100000
00000100
00001000
00001100
00001000
00000010
00000100
,  // measure 57
00000110
00000100
00000001
00000010
00000011
00000010
00001000
00010000
,  // measure 58
00010000
00000000
00000000
00001000
00000000
00000000
00000000
00000000
00000000
01000000
00000000
00000000
00010000
00000000
00000000
00000000
00000000
00000000
10000000
00000000
00000000
01000000
00000000
00000000
00000000
00000000
00000000
10000000
00000000
00000000
00010000
00000000
00000000
00000000
00000000
00000000
01000000
00000000
00000000
00000000
00100000
00000000
00000000
00000000
10000000
00000000
00000000
00000000
,  // measure 59
00010000
10000000
01000000
00100000
00100000
00001000
00010000
00010000
00000100
00001000
00001000
00000010
,  // measure 60
00000100
00000101
00000000
00000011
00000000
00001010
00000000
00011000
,  // measure 61
00000000
00110000
00000000
10100000
00000000
11000000
00000000
01010000
,  // measure 62
00000000
00011000
00000000
00001100
00000000
00011000
00000000
00100100
;
