#TITLE:Roll to Me;
#SUBTITLE:;
#ARTIST:Del Amitri;
#TITLETRANSLIT:;
#SUBTITLETRANSLIT:;
#ARTISTTRANSLIT:;
#GENRE:;
#CREDIT:;
#MUSIC:Roll to Me.ogg;
#BANNER:bn.png;
#BACKGROUND:bg.png;
#CDTITLE:;
#SAMPLESTART:64.065;
#SAMPLELENGTH:15.000;
#SELECTABLE:YES;
#OFFSET:-0.325;
#BPMS:0.000=150.035;
#STOPS:;
#BGCHANGES:8.000=ring12.avi=1.200=1=0=1===CrossFade==,
24.000=room1.avi=1.000=0=0=1,
40.000=text17.avi=1.200=0=0=1,
54.000=bracelet1.avi=1.200=0=0=1,
70.000=highway1.avi=1.000=0=0=1,
86.000=text17.avi=1.200=0=0=1,
100.000=bracelet1.avi=1.200=0=0=1,
108.000=tunnel2.avi=1.000=0=0=1,
124.000=heart2.avi=1.000=0=0=1,
136.000=ring12.avi=1.200=0=0=1,
144.000=room1.avi=1.000=0=0=1,
160.000=text17.avi=1.200=0=0=1,
174.000=bracelet1.avi=1.200=0=0=1,
206.000=tunnel2.avi=1.000=0=0=1,
222.000=heart2.avi=1.000=0=0=1,
234.000=ring12.avi=1.200=0=0=1,
242.000=room1.avi=1.000=0=0=1,
258.000=text17.avi=1.200=0=0=1,
272.000=highway1.avi=1.000=0=0=1,
280.000=heart2.avi=1.000=0=0=1,
288.000=stairs1.avi=0.600=0=0=1,
296.000=heart2.avi=1.000=0=0=1,
302.000=Roll to Me-jacket.png=1.000=1=0=1===CrossFade==,
99999.000=-nosongbg-=1.000=0=0=0=StretchNoLoop====
;
#FGCHANGES:;

//--------------- dance-single - ----------------
#NOTES:
     dance-single:
     :
     Beginner:
     3:
     0.137,0.18,0.024,0,0:
0000
0000
0000
0000
,
0000
0000
0000
0000
,
1000
0000
1000
0000
,
1000
0000
0000
0000
,
0001
0000
0001
0000
,
0001
0000
0000
0000
,
1001
0000
0000
0000
,
1000
0000
0001
0000
,
1000
0000
0000
0000
,
0001
0000
0001
0000
,
0001
0000
0000
0000
,
1000
0000
1000
0000
,
1000
0000
0000
0000
,
0001
0001
0001
0000
,
0000
0000
0100
0000
,
1000
1000
1000
0000
,
0000
0000
0100
0000
,
0000
0001
0001
0000
,
1000
0000
0001
0000
,
0000
0000
0100
0000
,
0100
0000
0001
0000
,
0000
0000
0001
0000
,
0001
0000
1000
0000
,
0000
0000
0000
1000
,
1000
0000
1000
1000
,
1000
0000
0000
0000
,
0001
0000
0000
1000
,
1000
0000
0001
0000
,
0100
0000
0000
0000
,
0001
0000
1000
0000
,
0100
0000
0000
0000
,
1000
0000
0001
0000
,
0100
0000
0000
0000
,
0001
0000
1000
0000
,
0100
0000
0100
0000
,
1000
0000
0010
0000
,
1001
0000
0000
0000
,
0001
0000
0000
0000
,
0100
0000
0000
0000
,
0001
0000
1000
0000
,
0001
0000
0000
0000
,
1000
0000
0000
0000
,
0001
0000
0000
0000
,
1000
1000
1000
0000
,
0000
0000
0100
0000
,
0001
0001
0001
0000
,
0000
0000
0100
0000
,
1000
1000
1000
0000
,
0000
0000
0100
0000
,
0001
0000
0001
0000
,
0001
0000
0100
0000
,
0001
0000
1000
0000
,
0000
0000
0100
0000
,
0000
0000
0001
0000
,
0000
0000
0010
0000
,
0000
0000
1000
0000
,
0000
0000
1000
0000
,
0000
0000
0001
0000
,
0000
0000
0100
0000
,
0100
0000
0100
0000
,
0100
0000
0010
0000
,
0000
0000
0001
0000
,
0000
0000
1000
0000
,
0000
0000
0001
0000
,
1000
0000
0001
0000
,
0000
0000
0100
0000
,
0000
0000
0010
0000
,
0000
0000
1000
1000
,
1000
0000
0000
0000
,
0001
0000
1000
1000
,
1000
0000
0000
0000
,
0001
0000
1000
1000
,
1000
0000
0000
0000
,
0000
0000
1000
1000
,
1000
0000
0001
0000
,
1000
0000
1001
0000
;

//--------------- dance-single - ----------------
#NOTES:
     dance-single:
     :
     Easy:
     7:
     0.275,0.274,0.048,0.223,0:
0000
0000
0000
0000
,
0000
0000
0000
0000
,
1000
1000
1000
0000
,
0001
0100
0001
0000
,
1000
0010
1000
0000
,
1000
0001
1000
0000
,
1001
0000
0001
0000
,
1000
0001
1000
0100
,
1000
0000
0001
0000
,
1000
0010
1000
0000
,
1000
0001
0010
0000
,
0010
0001
1000
0000
,
0100
0100
0010
0000
,
1000
0001
2000
0000
,
3002
0000
0203
0000
,
0301
1000
0002
0000
,
2003
0000
3020
0000
,
1030
0001
1001
0000
,
0001
0000
0100
0001
,
0001
1000
0001
0000
,
1000
0000
0100
1000
,
0100
0000
1000
0010
,
1000
0000
1000
0001
,
1000
0000
0001
0100
,
0001
0000
1000
1000
,
2001
0000
3002
0000
,
0203
0000
0301
0001
,
0100
0000
0001
0000
,
1000
1000
0001
1000
,
0001
0000
0100
0000
,
0001
1000
0001
0000
,
1000
1000
0010
0000
,
0010
0010
1000
0000
,
1000
0001
1000
0001
,
0200
0000
0302
0000
,
2003
0000
3020
0000
,
1030
1000
0001
0000
,
1000
0001
1000
0000
,
0100
0100
0100
0000
,
1000
0001
1000
0000
,
1000
0010
1000
0000
,
1000
0001
1000
0000
,
0100
0100
0100
0000
,
1000
0001
2000
0000
,
3020
0000
2030
0000
,
3001
0100
0002
0000
,
2003
0000
3002
0000
,
1003
0100
2000
0000
,
3020
0000
2030
0000
,
3001
1000
0002
0000
,
2003
0000
3200
0000
,
1300
1000
0010
0000
,
1000
0000
0001
1000
,
0001
0100
0001
0000
,
1000
0000
0010
1000
,
0010
1000
0001
0000
,
1000
0000
0100
1000
,
0100
1000
0001
0000
,
1000
0000
0010
1000
,
0010
0000
1000
0001
,
1000
0000
1001
0000
,
0001
0000
1000
0001
,
1000
0100
1000
0000
,
0010
0000
1000
0010
,
1001
0000
0001
0000
,
1000
0000
0001
0100
,
0001
1000
0001
0000
,
1000
0000
0001
0001
,
1000
0000
0001
0000
,
1000
1000
0001
0100
,
0001
0000
1000
0000
,
0001
0001
1000
0100
,
2000
0000
0000
0000
,
0000
0000
3001
0001
,
1000
0001
0100
1000
,
0001
1000
2002
0000
,
0000
0000
3003
0000
;

//--------------- dance-single - ----------------
#NOTES:
     dance-single:
     :
     Medium:
     10:
     0.411,0.399,0.199,0.096,0:
0000
0000
0000
0000
,
0000
0000
0000
0000
,
1000
0001
1000
0100
,
1000
0000
0001
0000
0010
0100
0010
0000
,
1000
0001
0100
0001
,
1000
0000
0001
0000
1000
0001
1000
0000
,
1001
0001
1000
0001
,
0100
0000
0001
1000
0100
1000
0001
0000
,
0010
0010
1000
1000
,
0001
0000
1000
0000
0100
1000
0000
0000
,
0001
1000
1000
0000
0001
0000
1000
0100
,
0000
0000
1000
0100
1000
0000
0001
0000
,
1000
0000
1010
0000
0101
0000
0000
0001
,
1000
0001
1000
0000
2000
0000
0001
0000
,
0100
0001
0100
0001
,
0010
3010
1002
0100
,
1000
0100
1000
0100
,
0010
0013
1001
1000
,
0001
0000
0100
0000
0001
0000
1000
0001
,
1000
0001
1000
0000
0100
0000
0100
0000
,
1000
0010
1000
0001
,
1000
0100
0000
0100
1000
0000
0001
0000
,
1000
0001
1000
0010
,
1000
0001
1000
0000
0001
0000
0101
0000
,
1010
0000
0000
1000
0001
1000
0001
1000
,
0002
0010
1000
0010
,
1000
0000
0010
0000
1000
0000
1003
0001
,
1000
0001
0100
0001
,
1000
0001
0000
0100
0000
0001
0000
1000
,
0000
0001
0000
1000
0000
0010
0000
1000
,
0000
0000
0000
0000
1001
0000
0001
1000
,
0000
0001
0000
0100
0000
0001
0000
1000
,
0000
0010
0000
1000
0000
0001
0000
1000
,
0000
0100
0000
1000
0000
0001
0000
1000
,
0001
0001
1000
1000
,
0010
1010
0100
0101
,
1001
0001
1000
0100
,
1000
0000
0001
0000
1000
0001
1000
0001
,
0100
0100
0010
0010
,
1000
0000
0001
0000
0100
0001
0000
0001
,
0100
0001
1000
0001
,
1000
0000
0100
0000
1000
0100
1000
0100
,
0000
0000
1010
0000
0101
0000
0000
1000
,
0001
1000
0001
1000
0002
0000
1000
0000
,
0100
1000
0100
1000
,
0010
0013
2001
0100
,
0001
0100
0001
0100
,
0010
3010
1002
0100
,
1000
0100
1000
0100
,
0010
0013
2001
0100
,
0001
0100
0001
0100
,
0010
3010
1001
1000
,
0001
0000
0100
0000
0001
1000
0000
0010
,
0000
1000
0000
0001
0000
0100
0000
0001
,
0000
1000
0000
0010
0000
0000
0000
0000
,
1001
0000
1000
0001
0000
1000
0000
0100
,
0000
1000
0000
0010
0000
1000
0000
1000
,
0000
0001
0000
0001
0000
0100
0000
0001
,
0000
1000
0000
0001
1000
0000
1000
0000
,
0001
0100
0001
1010
,
1000
0101
0001
1000
,
0001
0100
0001
1000
,
0001
1000
0001
1000
0100
0000
0100
0000
,
1000
0000
1000
0010
1000
0000
0001
0000
,
1000
0101
0000
0000
1001
0000
0001
0000
,
0100
0000
0001
1000
0000
0000
1000
0001
,
1000
0100
1000
1010
,
0101
0000
0000
0001
0100
0001
0100
0001
,
0200
0010
0001
0010
,
0001
0000
0310
0000
0001
1000
0001
0000
,
0200
0010
0001
0010
,
0001
0000
0310
0000
0001
1000
0001
1000
,
0002
0000
0000
0000
,
0000
0000
0000
0000
1003
1000
0001
1000
,
0001
0000
1000
0001
0100
0000
0001
1000
,
0001
0100
0001
0000
2002
0000
0000
0000
,
0000
0000
0000
0000
,
3003
0000
0000
0000
;

//--------------- dance-single - ----------------
#NOTES:
     dance-single:
     :
     Hard:
     12:
     0.568,0.552,0.589,0.175,0.016:
0000
0000
0000
0000
,
0000
0000
0000
0000
,
1000
0000
0001
1000
0001
0000
0001
0100
,
0001
0000
0001
0010
0001
1000
0001
0000
,
1001
0000
1000
0100
1000
0000
1000
0010
,
1000
0000
1000
0001
1000
0100
1000
0001
,
1001
1001
1100
1100
,
1001
0000
0001
1000
0001
1000
0100
1000
,
2000
3001
0200
0301
,
2000
0000
3001
0000
1000
0100
0000
0000
,
1000
0001
1000
0000
0002
0000
1003
0200
,
0000
0300
0010
0100
0010
0000
1000
0000
,
0001
0000
1010
0000
0101
0000
0000
1000
,
0100
0001
0100
1000
0110
0000
0110
0000
,
1001
1001
0110
1001
,
0010
0010
0100
0100
1010
0000
1010
0000
,
0101
0101
1010
0101
,
1000
0010
1000
0010
1001
0000
1001
0000
,
0110
0000
0110
0000
0101
0000
1000
0001
,
1000
0100
1000
0100
2000
0000
3001
0000
,
0002
1003
1000
0001
,
0001
0000
0100
0000
0000
0000
0001
1000
0001
0000
0000
0000
0001
0000
0000
0000
,
1010
0000
1000
0001
1000
0000
0100
1000
,
0100
1000
0100
0100
0000
0000
1100
0000
,
0011
0000
0000
1000
0010
0001
0010
1000
,
1010
1100
1010
1100
,
1010
0000
1100
0000
1000
0001
1000
0001
,
2000
3001
0002
1003
,
1000
0100
1000
0200
0000
1300
1000
0010
,
0000
1000
0001
1000
0000
0011
0000
0102
,
0000
0000
1003
0000
0000
1000
0001
1000
,
0000
1010
0000
1000
0000
0101
0000
0001
,
0000
1100
0000
1000
0000
1010
0000
0100
,
0000
1100
0000
1000
0000
1001
0000
1000
,
0001
1000
0001
0000
1000
0100
1000
0000
,
0001
1000
0001
0100
1000
0001
1000
0001
,
1010
0000
1010
0000
1100
0000
1000
0002
,
0000
0003
1000
0001
0100
0001
1000
0001
,
1000
0000
0001
0000
1000
0000
0100
1000
,
0100
0000
0000
0000
1000
0000
0000
0000
0001
0000
1000
0000
0000
0000
1000
0001
,
1000
0000
0001
0000
1100
0000
1000
0001
,
1000
0000
0001
0000
0100
0001
0100
0001
,
0000
0000
1010
0000
0101
0000
0000
0010
,
1000
0100
1000
0010
1000
0001
1000
0001
,
1000
0000
0001
0001
1000
0001
1000
0001
,
0010
0010
0100
0100
1000
0001
1000
0010
,
1000
0000
0001
0100
0001
0100
0001
0000
,
0001
0001
1000
1000
0001
1000
0001
0100
,
1000
0000
1000
0010
1000
0010
1000
0000
,
0001
0100
0001
0000
0100
0001
0100
1000
,
0001
0000
1000
0001
0000
0000
1010
0000
,
1100
0000
1000
0010
2000
0000
3002
0000
,
0203
0000
0302
0000
1003
1000
0000
1010
,
0000
1100
0000
1100
0000
1100
0000
1010
,
0000
1100
0000
0102
0000
0000
1003
0000
,
0000
1000
0001
1000
0000
0010
1000
0010
,
0000
1000
0001
1000
0000
1000
0100
1000
,
0000
1000
0010
1000
0000
0001
0100
0001
,
0000
1000
0001
1000
0001
0100
0001
0000
,
1000
0010
1000
0000
1000
0001
1000
0100
,
1000
0001
1000
0001
1001
0000
1001
0000
,
1100
0000
1100
0000
1001
0000
1000
0100
,
1000
0001
1000
0001
1010
0000
1100
0000
,
1010
1100
1001
0101
,
1000
0001
0000
0000
1000
0001
1000
0000
,
0002
0000
1003
2000
0000
3001
0001
0100
,
0001
0000
0011
0000
1000
0001
1000
0000
,
1100
0000
0000
0001
0001
1000
0100
1000
,
0001
1000
0100
1000
0000
1000
0010
0000
,
1100
0000
1000
0001
0100
0001
1000
0001
,
1000
0100
1000
0100
0000
1000
0001
0000
,
1001
0000
1000
0001
0100
0001
1000
0001
,
2000
0000
0000
0000
,
0000
0001
0000
0000
3000
0000
0000
0000
0001
0000
0001
1000
0001
0000
0100
0000
,
1001
0000
1000
0001
1000
0000
0001
1000
,
0100
1000
0010
0010
2002
0000
0000
0000
,
0000
0000
0000
0000
,
3003
0000
0000
0000
;

//--------------- dance-single - ----------------
#NOTES:
     dance-single:
     :
     Challenge:
     14:
     0.597,0.552,0.239,0.263,0.06:
0000
0000
0000
0000
,
0000
0000
0000
0000
,
1000
0001
0100
0001
0010
0100
1000
0001
,
1000
0100
1000
0010
1000
0001
1000
0000
,
1000
0010
1000
0001
1000
0100
1000
0100
,
0010
0000
0001
0000
1000
0000
0100
0000
1000
0000
0001
0000
1000
0000
0001
1000
,
0001
0000
1000
0000
1000
0010
0001
0000
,
0001
0000
0100
0001
1000
0001
1000
0100
,
1000
0001
1000
0000
1000
0010
1000
0000
,
1000
0001
0100
0001
1000
1000
0000
0000
,
1000
0001
1000
0000
2000
0010
3010
0200
,
0000
0000
0310
1000
0010
0000
1000
0001
,
0000
0001
1010
0000
0101
0000
0000
0001
,
1000
0000
0100
0000
1000
0000
0001
1000
0001
0000
1000
0000
0100
0000
1000
0000
,
0001
1000
0100
1000
0010
1000
0001
0100
,
0010
0010
0100
0100
0001
0100
0010
0100
,
0010
0001
0100
1000
0001
1000
0001
1000
,
0100
0000
1000
0000
0001
0000
1000
0001
1000
0000
0000
0000
0001
0000
0000
0000
,
1000
0100
1000
0000
0002
0000
1003
0010
,
1000
0001
0100
0001
1000
0000
0001
0000
,
0100
0000
0001
1000
0001
0000
1000
0000
,
1100
0000
1100
0000
0000
0000
1000
0100
1000
0000
0000
0000
0001
0000
0000
0000
,
1000
0000
0001
1000
0001
0000
0100
0001
,
1000
0100
1000
0001
0000
0000
1010
0000
,
0101
0000
0000
0000
1000
0000
0001
0000
0100
0000
0001
0000
1000
0000
0010
1000
,
0010
1000
0100
1000
0010
1000
0010
1000
,
0001
1000
0100
0000
0001
0000
0010
1000
,
0002
2003
3200
2300
,
0001
3001
0000
2000
0000
3002
0000
0203
,
0000
0302
0000
2003
0000
3020
0000
2030
,
0000
3001
0001
0000
1000
0001
1000
0001
,
0000
1000
0000
0010
1000
0010
0000
1000
,
0001
0100
0001
0100
0000
1010
0000
1100
,
0000
0000
1000
0000
0001
0000
1000
0000
0000
0000
0001
0000
0000
0000
1000
0010
,
1000
0001
1000
0000
0001
1000
0001
1000
,
0200
0000
1300
0001
1000
0000
0010
1000
,
0100
0000
1000
0000
0101
0000
1000
0001
,
0000
0100
1000
0100
1000
0001
1000
0010
,
1000
0000
0001
0000
1000
0100
1000
0001
,
1000
0000
0000
0000
0010
0000
0000
0000
1000
0000
0001
0000
0000
0000
1000
0001
,
1000
0000
0100
0000
1001
0000
0100
0100
,
0100
0000
1000
0001
1000
0100
1000
0001
,
0000
0000
0011
0000
0101
0000
0000
1000
,
0001
0000
1000
0000
0100
0000
1000
0001
1000
0000
0001
0000
0100
0000
0001
0000
,
1000
0000
0001
1000
0001
1000
0001
0100
,
0001
0001
1000
1000
0001
0100
0001
1000
,
0001
0000
1000
0100
1000
0001
1000
0010
,
1000
1000
0100
0100
1000
0001
0100
0001
,
1000
0000
0001
1000
0001
0100
0001
1000
,
0001
1000
0100
0000
1000
0001
1000
0100
,
1000
0000
1000
1000
0000
0000
0101
0000
,
0010
0010
1000
0001
2000
0000
3002
0000
,
0203
0000
0302
0000
1000
1003
0000
0002
,
0000
2003
0000
3200
0000
2300
0000
3002
,
0000
2003
0000
3002
0000
1003
1000
0000
,
0001
1000
0001
1000
0000
0001
0100
0001
,
0000
1000
0001
1000
0000
1000
0010
1000
,
0000
1000
0001
1000
0000
1000
0100
1000
,
0000
0000
1000
0000
0001
0000
1000
0001
1000
0000
0100
0000
1000
0000
0000
0000
,
1000
0010
1000
0000
1000
0001
0100
0001
,
1000
0001
1000
1000
0110
0000
0101
0000
,
1001
0000
1100
0000
1010
0000
1000
0001
,
0100
0001
1000
0001
1000
0000
0001
0000
,
1000
0001
1000
0001
0100
0000
0010
0000
,
1001
1001
0000
0000
1000
0001
1000
0001
,
0200
0001
0301
0200
0000
0300
0001
1000
,
0001
0000
1000
0100
0000
0100
1010
0000
,
1100
0000
0000
0000
0001
0000
1000
0000
0001
0000
1000
0000
0100
0000
1000
0001
,
1000
0001
0100
0001
0000
1000
1001
0000
,
1001
0000
0000
0000
1000
0000
0100
0000
1000
0000
0001
0000
1000
0000
0010
1000
,
0010
1000
0001
0100
0000
0001
0101
0000
,
0101
0000
0000
0000
1000
0000
0001
0000
1000
0000
0100
1000
0001
0000
1000
0000
,
2002
0000
0000
0003
,
0000
0002
0000
0000
3003
0000
0000
0000
1001
0000
1000
0001
1000
0000
0001
0000
,
1001
1000
0100
1000
0001
1000
0010
1000
,
0001
0000
1000
0000
0001
1000
0001
0000
2002
0000
0000
0000
0000
0000
0000
0000
,
0000
0000
0000
0000
,
3003
0000
0000
0000
;
