#TITLE:Play Dead;
#SUBTITLE:;
#ARTIST:Björk;
#TITLETRANSLIT:;
#SUBTITLETRANSLIT:;
#ARTISTTRANSLIT:Bjork;
#GENRE:Trip hop;
#CREDIT:TiKAL;
#MUSIC:playdead.ogg;
#BANNER:bn.png;
#BACKGROUND:bg.png;
#CDTITLE:;
#SAMPLESTART:9.325;
#SAMPLELENGTH:24.825;
#SELECTABLE:YES;
#OFFSET:-6.222;
#BPMS:0.000=77.341;
#STOPS:;
#DISPLAYBPM:77.340;
#BGCHANGES:;
#FGCHANGES:;

//--------------- dance-single - TiKAL ----------------
#NOTES:
     dance-single:
     TiKAL:
     Beginner:
     1:
     0,0,0,0,0:
0000
0000
0000
0000
,
1000
0000
0000
0000
,
0001
0000
0000
0000
,
1000
0000
0000
0000
,
0001
0000
0000
0000
,
0100
0000
0000
0000
,
0010
0000
0000
0000
,
0100
0000
0000
0000
,
0010
0000
0000
0000
,
1000
0000
0000
0000
,
0100
0000
0000
0000
,
0010
0000
0001
0000
,
1000
0000
0100
0000
,
1000
0000
0000
0000
,
1000
0000
0000
0000
,
0001
0000
0000
0000
,
0001
0000
0000
0000
,
0100
0000
0000
0000
,
0100
0000
0000
0000
,
0010
0000
0000
0000
,
0010
0000
0000
0000
,
1000
0000
0000
0000
,
1000
0000
0000
0000
,
0001
0000
0000
0000
,
0001
0000
0000
0000
,
0100
0000
0000
0000
,
0100
0000
0000
0000
,
0010
0000
0000
0000
,
1001
0000
0000
0000
,
0001
0000
0000
0000
,
1000
0000
0000
0000
,
0010
0000
0000
0000
,
0100
0000
0000
0000
,
0001
0000
0000
0000
,
0010
0000
0000
0000
,
0100
0000
0000
0000
,
1000
0000
0000
0000
,
1001
0000
0000
0000
;

//--------------- dance-single - TiKAL ----------------
#NOTES:
     dance-single:
     TiKAL:
     Easy:
     4:
     0,0,0,0,0:
0000
0000
0000
0000
,
0001
0001
1000
1000
,
0001
0010
0100
1000
,
0001
0001
1000
1000
,
0001
0100
0010
1000
,
0010
0010
0100
0100
,
0001
1000
0010
0100
,
0010
0010
0100
0100
,
2002
0000
3003
0100
,
0220
0000
0330
0001
,
2002
0000
3003
0010
,
0110
1000
1001
0001
,
0110
1000
0100
0010
,
0001
0000
0001
0001
,
1000
0000
1000
1000
,
0010
0000
0010
0010
,
0100
0000
0100
0100
,
0001
0000
0001
0001
,
0010
0000
0010
0010
,
0100
0000
0100
0100
,
1000
0000
1000
1000
,
0010
0000
0000
0000
0010
0100
0010
0000
,
0001
0000
0000
0000
0001
1000
0001
0000
,
1000
0000
0000
0000
1000
0001
1000
0000
,
0100
0000
0000
0000
0100
0010
0100
0000
,
1000
0000
0000
0000
0010
1000
0010
0000
,
0100
0000
0000
0000
0001
0100
0001
0000
,
1000
0000
0000
0000
0100
0010
0001
0000
,
1001
0000
0000
0000
,
1000
0000
0001
0000
0100
0010
0100
0000
,
0001
0000
1000
0000
0100
0010
0100
0000
,
0010
0000
0001
0000
1000
0100
1000
0000
,
0010
1000
0001
0100
,
0001
0001
1000
1000
,
0001
0010
0100
1000
,
0001
0001
1000
1000
,
2002
0000
0000
3003
,
0010
0000
0100
0000
,
1001
0000
0000
0000
;

//--------------- dance-single - TiKAL ----------------
#NOTES:
     dance-single:
     TiKAL:
     Medium:
     6:
     0,0,0,0,0:
0000
0000
0000
0000
,
0001
0010
0100
1000
,
0001
1000
0001
1000
0010
0100
0010
0100
,
0001
0100
0010
1000
,
0001
0100
0001
0100
0010
1000
0010
1000
,
0001
1000
0100
0010
,
0001
1000
0001
1000
0100
0010
0100
0010
,
0001
1000
0010
0100
,
0220
0000
0000
0000
0330
0000
0100
0001
,
2002
0000
0000
0000
3003
0000
1000
0100
,
0220
0000
0000
0000
0330
0000
0010
0001
,
1001
0000
1000
0010
1010
0000
0100
0001
,
0202
0003
0310
1000
,
1001
1000
0100
0010
,
0001
0000
0100
0000
0010
0000
1000
0010
,
1000
0001
0100
0010
,
2000
0000
3200
0000
0320
0000
0031
0010
,
0001
0100
0010
1000
,
0100
0000
0010
0000
0001
0000
1000
0010
,
1000
0100
0010
0001
,
0200
0000
0320
0000
2030
0000
3001
1000
,
0001
0000
0100
0000
0010
1000
0010
0000
,
1000
0000
0100
0000
0010
0001
0010
0000
,
0001
1000
0010
0100
,
0002
0000
0023
0000
0230
0000
1300
0001
,
1000
0000
0001
0000
0100
0010
0100
0000
,
0001
0000
0010
0000
0100
1000
0100
0000
,
1000
0000
0010
0000
0100
0001
0100
0000
,
1001
0000
0000
1001
,
0100
0000
0110
0000
0001
1000
0100
0000
,
0010
0000
0110
0000
1000
0001
0100
0000
,
0010
0000
0101
0000
1000
0010
0100
0000
,
1001
0000
1100
0000
0010
0001
0100
0001
,
1000
0001
0010
0100
,
1000
0001
1000
0001
0010
0100
0010
0100
,
1000
0001
0100
0010
,
0220
0000
0000
0000
0330
0000
0010
1000
,
0001
0010
0100
1000
,
2002
0000
0000
3003
;

//--------------- dance-single - TiKAL ----------------
#NOTES:
     dance-single:
     TiKAL:
     Hard:
     9:
     0,0,0,0,0:
0000
0000
0000
0000
,
2000
3020
0230
0302
,
1003
0100
1000
0100
0010
0100
0010
0100
0010
0001
0010
0001
1000
0010
0100
0001
,
2000
3002
0203
0320
,
0130
0001
0100
0001
1000
0010
1000
0010
1000
0100
1000
0010
0100
0001
1000
0100
,
0020
0032
2003
3020
,
0130
0010
0100
0010
0100
0001
0100
0001
1000
0001
1000
0001
1000
0100
0010
0001
,
0200
0000
0000
0000
0302
0000
0000
0000
2003
0000
0000
0000
3200
0000
0000
0300
,
0220
0000
0000
0000
0330
0010
0001
1000
,
0010
0000
0110
0000
0100
0001
0101
0110
,
1010
0000
1001
0000
1000
0100
1100
0110
,
0011
0000
1000
1010
0101
0000
0001
0011
,
1100
0000
0000
0000
1001
0000
0000
0001
0100
0000
0000
0100
0010
0000
0000
0010
,
1000
0000
0000
0000
0100
0000
0000
0010
0001
0000
1000
0000
1001
0000
0000
0000
,
0001
0000
0000
0000
0010
0000
0000
0100
1000
0000
0010
0000
0110
0000
0001
0000
,
0001
0000
0000
0000
0010
0000
0000
0100
1000
0000
0001
0000
1001
0000
0000
0000
,
1000
0000
0000
0000
0100
0000
0000
0010
0001
0000
0100
0000
0110
0000
1000
0001
,
1000
0000
0000
0000
0100
0000
0000
0010
0001
0000
0100
0000
0101
0000
0000
0000
,
0001
0000
0000
0000
0010
0000
0000
0100
1000
0000
0010
0000
1010
0000
0001
0000
,
0001
0000
0000
0000
0010
0000
0000
0100
1000
0000
0010
0000
1010
0000
0000
0000
,
1000
0000
0000
0000
0100
0000
0000
0010
0001
0000
0100
0000
0101
0000
1000
0001
,
1000
0000
0000
0000
1010
0000
0000
0001
0100
0000
0010
0000
0110
0000
0000
0010
,
1000
0000
0000
0000
1100
0000
0000
0001
0010
0000
0100
0000
0110
0000
0100
1000
,
0001
0000
0000
0000
0101
0000
0000
1000
0010
0000
0100
0000
0110
0000
0000
0100
,
0001
0000
0000
0000
0011
0000
0000
1000
0100
0000
0010
0000
0110
0000
0010
0001
,
1000
0010
0000
0000
0110
0000
0000
0100
0001
0000
1000
0000
1001
0000
0000
1000
,
0001
0010
0000
0000
0110
0000
0000
0100
1000
0000
0001
0000
1001
0000
0001
0000
,
0001
0100
0000
0000
0110
0000
0000
0010
1000
0000
0001
0000
1001
0000
0000
0000
,
0220
0000
0000
0000
0000
0330
1001
0000
,
1010
0000
0000
0000
0101
0000
0100
0001
1000
0100
0000
0000
0110
0000
0010
0100
,
0010
0000
0000
0000
0011
0000
0001
0010
0100
1000
0000
0000
1001
0000
0000
0000
,
0100
0000
0000
0000
1010
0000
0010
1000
0001
0010
0000
0000
0110
0000
0100
0010
,
0100
0000
0000
0000
1100
0000
1000
0100
0010
0001
0000
0000
1001
0000
1000
0001
,
2000
3020
0230
0302
,
1003
0100
1000
0100
0010
0100
0010
0100
0020
0000
0000
0000
0031
0000
0100
0001
,
2000
0000
3002
0000
0203
0000
0320
0030
,
0220
0000
0000
0000
0330
0100
0001
1000
,
0010
0100
0001
1000
,
2002
0000
0000
3003
;

//--------------- dance-single - TiKAL ----------------
#NOTES:
     dance-single:
     TiKAL:
     Challenge:
     11:
     0,0,0,0,0:
0000
0000
0000
0000
,
1010
0000
0000
0000
0101
0000
0001
0010
0100
1000
0001
0000
0110
0000
0010
1000
,
0001
0100
0010
1000
0001
0010
0100
1000
0001
0100
0010
1000
0001
1000
0100
0010
,
0100
0000
0000
0000
0110
0000
0010
0001
1000
0010
0100
0000
0110
0000
0010
1000
,
0001
0010
0100
1000
0001
0100
0010
1000
0001
0010
0100
0010
0001
1000
0100
0010
,
0001
0000
0000
0000
1010
0000
1000
0100
0010
0001
1000
0000
0110
0000
0100
0001
,
1000
0010
0100
0001
1000
0100
0010
0001
1000
0010
0100
0001
1000
0001
0010
0100
,
0010
0000
0000
0000
0110
0000
0100
1000
0001
0100
0010
0000
0110
0000
0100
0001
,
1000
0000
0100
0000
0110
0000
0010
0001
1000
0010
0100
0000
0101
0000
0001
1000
,
0100
0000
1000
0000
1100
0000
0100
0010
0001
0100
0010
0000
0101
0000
1010
0000
,
1001
0000
0001
0000
0101
0000
0001
0010
0100
1000
0010
0000
0110
0000
0101
0000
,
1001
1000
1100
0110
0011
0001
0101
0110
,
1010
0000
0000
0000
1001
0000
0001
1000
0001
0100
0010
1000
0100
0000
0010
0001
,
1000
0000
0010
0000
0101
0000
0001
0010
0100
1000
0010
0000
0110
0000
0100
0001
,
1000
0000
0100
0000
0011
0000
0100
1000
0010
0100
0001
0010
0100
0000
1000
0001
,
1000
0000
0001
0000
0101
0000
0001
0010
0100
0010
0001
0000
1001
0000
1000
0100
,
1000
0000
0001
0000
0011
0000
0010
0100
1000
0010
0100
0000
1001
0000
0001
1000
,
0001
0000
0100
0000
1010
0000
1000
0100
0010
0001
0100
0000
0110
0000
0010
1000
,
0001
0000
0010
0000
1100
0000
0010
0001
0100
0010
1000
0000
0110
0000
0001
1000
,
0001
0000
1000
0000
1010
0000
1000
0100
0010
0100
1000
0000
1001
0000
0001
0010
,
0001
0000
1000
0000
1100
0000
0100
0010
0001
0100
0010
0000
1001
0000
1000
0001
,
1000
0000
0001
0000
0110
0000
1000
0001
0100
0010
1000
0000
0110
0000
0001
1000
,
0001
0010
0100
0000
0110
0000
1000
0100
0010
0100
1000
0000
1001
0000
0001
0100
,
0001
0000
1000
0000
0110
0000
0001
1000
0010
0100
0001
0000
0110
0000
1000
0001
,
1000
0100
0010
0000
0110
0000
0001
0010
0100
0010
0001
0000
1001
0000
1000
0010
,
1000
0100
0010
0000
0011
0000
0001
0010
0100
1000
0001
0000
1001
0000
1000
0100
,
1000
0010
0100
0000
0101
0000
0001
0010
0100
1000
0001
0000
1001
0000
1000
1000
,
0001
0010
0100
0000
1100
0000
1000
0100
0010
0001
1000
0000
1001
0000
0001
0010
,
0200
0000
0300
1001
,
1100
0000
1000
0000
1010
0000
0001
0010
0100
1000
0001
0000
1001
0000
1000
0100
,
1000
0010
0100
0000
0101
0000
0001
0010
0100
1000
0001
0000
1001
0000
1000
0001
,
0101
0000
0001
0000
0011
0000
1000
0010
0100
0001
1000
0000
1001
0000
0001
0100
,
0001
0010
0100
0000
1100
0000
1000
0010
0100
0001
1000
0000
1001
0000
0001
1000
,
1010
0000
0001
0000
0101
0000
0100
0010
1000
0100
0010
0000
0011
0000
0001
0100
,
0101
0000
1000
0000
1010
0000
0010
0100
0001
0010
0100
0000
1100
0000
1000
0010
,
0100
0000
0000
0000
0110
0000
0010
1000
0001
0010
0100
0000
0110
0000
0010
0001
,
1000
0000
0010
0000
0110
0000
0100
0001
1000
0100
0010
0000
0011
0000
0001
1000
,
0010
0100
0001
1000
,
2002
0000
0000
3003
;
