#TITLE:One & One;
#SUBTITLE:;
#ARTIST:Robert Miles;
#TITLETRANSLIT:;
#SUBTITLETRANSLIT:;
#ARTISTTRANSLIT:;
#GENRE:;
#CREDIT:;
#MUSIC:One & One.ogg;
#BANNER:One & One.png;
#BACKGROUND:One & One-bg.png;
#CDTITLE:;
#SAMPLESTART:64.345;
#SAMPLELENGTH:15.000;
#SELECTABLE:YES;
#OFFSET:-0.210;
#BPMS:0.000=120.066;
#STOPS:;
#BGCHANGES:0.000=One & One-bg.png=1.000=0=0=1,
16.000=wheel4.avi=1.200=1=0=1===CrossFade==,
32.000=unicorn1.avi=1.000=0=0=1,
48.000=snow3.avi=1.200=0=0=1,
64.000=tunnel2.avi=0.700=0=0=1,
96.000=wheel1.avi=1.200=0=0=1,
112.000=snow4.avi=1.000=0=0=1,
120.000=text8.avi=1.000=0=0=1,
128.000=wheel1.avi=1.000=0=0=1,
144.000=unicorn1.avi=1.000=0=0=1,
160.000=text5.avi=1.000=0=0=1,
168.000=unicorn1.avi=1.000=0=0=1,
184.000=wheel4.avi=1.000=0=0=1,
198.000=One & One-bg.png=1.400=1=0=1===CrossFade==,
99999.000=-nosongbg-=1.000=0=0=0=StretchNoLoop====
;
#FGCHANGES:;

//--------------- dance-single - ----------------
#NOTES:
     dance-single:
     :
     Beginner:
     1:
     0.09,0.15,0.07,0,0:
0000
0000
0000
0000
,
0000
0000
0000
0000
,
0000
0000
0000
0000
,
0000
0000
0000
0000
,
1000
0000
0000
0000
,
1000
0000
0000
0000
,
0001
0000
0000
0000
,
0001
0000
0000
0000
,
1001
0000
0000
0000
,
0001
0000
0000
0000
,
0100
0000
0000
0000
,
0100
0000
0000
0000
,
0001
0000
0000
0000
,
0001
0000
0000
0000
,
0001
0000
0000
0000
,
0001
0000
0001
0000
,
1001
0000
0000
0000
,
0000
0000
0000
0000
,
0100
0000
0000
0000
,
0000
0000
0000
0000
,
0001
0000
0000
0000
,
0001
0000
0000
0000
,
0001
0000
0001
0000
,
0001
0000
0000
0000
,
1001
0000
0000
0000
,
1000
0000
0000
0000
,
1000
0000
0000
0000
,
0100
0000
0000
0000
,
0100
0000
0000
0000
,
0100
0000
0000
0000
,
1000
0000
0000
0000
,
1000
0000
0001
0000
,
1001
0000
0000
0000
,
0100
0000
0100
0000
,
0100
0000
0000
0000
,
0010
0000
0010
0000
,
0010
0000
0000
0000
,
1000
0000
1000
0000
,
1000
0000
0000
0000
,
0001
0000
0000
0000
,
0001
0000
1000
0000
,
1000
0000
0001
0000
,
1001
0000
0000
0000
,
0100
0000
0000
0000
,
0110
0000
0000
0000
,
0001
0000
0001
0000
,
0001
0000
0000
0000
,
1000
0000
1000
0000
,
1000
0000
0000
0000
,
0100
0000
0100
0000
,
0110
0000
0000
0000
;

//--------------- dance-single - ----------------
#NOTES:
     dance-single:
     :
     Easy:
     5:
     0.204,0.349,0.13,0.259,0:
0000
0000
0000
0000
,
0000
0000
0000
0000
,
0000
0000
0000
0000
,
0000
0000
0000
0000
,
1000
0000
1000
0000
,
1000
0000
1000
0000
,
0001
0000
0001
0000
,
0001
0000
0001
0000
,
1001
0000
1000
0000
,
1000
0000
1000
0000
,
0110
0000
0100
0000
,
0100
0000
0100
0000
,
1001
0000
1000
0000
,
0001
0000
1000
0000
,
1001
0000
0001
0000
,
1000
0000
0001
0001
,
2002
0000
0000
3003
,
0200
0000
0000
0300
,
0020
0000
0000
0030
,
2000
0000
3002
0000
,
2003
0000
0000
3000
,
0002
0000
0000
0003
,
2000
0000
3002
0000
,
2003
0000
3020
0000
,
0130
0000
0100
0000
,
0100
0000
0100
0000
,
0010
0000
0010
0000
,
0010
0000
0010
0000
,
1000
0000
1000
0000
,
0001
0000
0001
0000
,
1000
1000
1000
0000
,
0001
0001
0001
0000
,
1001
0000
0000
0000
,
1000
1000
1000
0001
,
1001
0000
0000
0000
,
0001
0001
0001
1000
,
1001
0000
0000
0000
,
1000
1000
1000
0001
,
1001
0000
0000
0000
,
0002
0000
2003
0000
,
3002
1000
2003
0001
,
3200
1000
2300
3010
,
2002
0000
3003
0100
,
0020
0030
0200
0300
,
0220
0330
0100
0010
,
1000
0000
1000
0001
,
2002
3003
0001
0001
,
1000
1000
0000
0001
,
1000
1000
0001
1000
,
0001
0100
0000
1000
,
1001
0000
0000
0000
;

//--------------- dance-single - ----------------
#NOTES:
     dance-single:
     :
     Medium:
     9:
     0.386,0.449,0.239,0.1,0.035:
0000
0000
0000
0000
,
0000
0000
0000
0000
,
0000
0000
0000
0000
,
0000
0000
0000
0000
,
1000
0000
0001
0000
1000
0001
1000
0000
,
0100
0000
0100
0000
0100
0010
0100
0000
,
1001
0000
0001
0000
1000
0001
1000
0000
,
0100
0000
0100
0000
0001
1000
0001
0000
,
1001
0000
1000
0000
1000
0001
1000
0000
,
0100
0000
0100
0000
0100
0010
0100
0000
,
1001
0000
0001
0000
1000
0001
1000
0000
,
0100
0000
0100
0000
0001
1000
0001
0000
,
1001
0000
1000
0000
0001
1000
0001
0000
,
0100
0000
0100
0000
0010
0100
0010
0000
,
1001
0000
0001
0000
1000
0001
1000
0000
,
1001
0000
0001
0000
1000
0001
1000
0001
,
2000
0000
0001
0000
0001
0000
3001
0200
,
0000
0010
0000
0010
0000
0000
0300
0001
,
0002
0000
1000
0000
1000
0000
1003
0200
,
0000
0010
0000
0010
0000
0000
0300
1000
,
2000
0000
3001
0000
0001
1000
0001
1000
,
0000
0001
0000
1000
0000
0100
0000
1000
,
0001
0000
0001
0000
1000
0001
1000
0000
,
0001
0101
1000
1100
,
1001
0000
1000
0000
0001
1000
0001
1000
,
0000
1100
0000
0001
0000
0101
0000
1000
,
1000
0000
0001
0000
1000
0001
1000
0001
,
0000
0101
0000
0101
0000
1000
0000
1000
,
1000
0000
1001
0000
1000
0001
1000
0001
,
0000
1000
0000
0001
0000
1000
0000
0001
,
1000
0000
0000
1000
0000
0000
1000
0000
0001
0000
0000
0001
0000
0000
0001
0000
,
1000
0000
0000
1000
0000
0000
1000
0000
0000
0000
1000
0000
0001
0000
1000
0000
,
1001
0000
1000
0000
1000
0001
1000
0000
,
0001
1000
0001
0000
0100
0000
0100
0000
,
1001
0000
0001
0000
1000
0001
1000
0000
,
0001
1000
0001
0000
1000
0001
1000
0000
,
1001
0000
0001
0000
1000
0001
1000
0000
,
0001
1000
0001
0000
1000
0001
1000
0000
,
1001
0000
1000
0000
0001
1000
0001
0000
,
1000
0001
1000
0000
1000
0001
1000
0001
,
2000
0000
0000
0001
0000
0000
3001
0000
0002
0000
0000
1000
0000
0000
1003
0000
,
2000
0000
0000
0001
0000
0000
3001
0000
0002
0000
0000
1000
0000
0000
1003
0000
,
1001
0000
1000
0000
1000
0001
0100
0000
,
1001
0000
0001
0000
1000
0001
0100
0001
,
1001
0000
1000
0000
1000
0001
0001
1000
,
0002
0100
0100
0103
,
1001
0000
1000
0000
0100
0000
1000
0100
,
0100
1000
1000
0000
0001
0000
0001
0100
,
0100
0001
0001
0000
0001
0000
1000
0001
,
1000
1001
0001
1000
,
1001
0000
0000
0000
;

//--------------- dance-single - ----------------
#NOTES:
     dance-single:
     :
     Hard:
     11:
     0.458,0.449,0.329,0.09,0.13:
0000
0000
0000
0000
,
0000
0000
0000
0000
,
0000
0000
0000
0000
,
0000
0000
0000
0000
,
1001
0000
1001
0000
1000
0001
1000
0001
,
0100
0000
0100
0000
0001
1000
0001
1000
,
0100
0000
0100
0000
1000
0001
1000
0001
,
0100
0000
0100
0001
1000
0001
1000
0010
,
1001
0000
1001
0000
1000
0001
1000
0100
,
0100
0000
0100
0000
0001
1000
0001
0100
,
0100
0000
0100
0000
1000
0001
1000
0100
,
1000
0000
0001
1000
0001
0100
0001
1000
,
1010
0000
1010
0000
1000
0001
1000
0100
,
0100
0000
0100
0000
0010
1000
0010
1000
,
0001
0000
0001
0000
1000
0001
1000
0100
,
1000
0000
0001
1000
0001
1000
1000
0001
,
2001
0000
0000
0000
0001
0000
0000
0001
0000
0000
3001
0000
0000
0000
0001
0000
,
0002
0000
0000
0000
1000
0000
0000
1000
0000
0000
1003
0000
0000
0000
0001
0000
,
2000
0000
0000
0000
0001
0000
0000
0001
0000
0000
3001
0000
0000
0000
1000
0000
,
0002
0000
0000
0000
1000
0000
0000
1000
0000
0000
1003
0000
0000
0000
1000
0000
,
0002
0000
0000
0000
1000
0000
0000
1000
0000
0000
1003
0000
0000
0000
0001
0000
,
2000
0000
0000
0000
0001
0000
0000
0001
0000
0000
3001
0000
0000
0000
1000
0000
,
0002
0000
0000
0000
1000
0000
0000
1000
0000
0000
1003
0000
0000
0000
1000
0000
,
1000
0001
1000
0002
0000
2000
0003
3001
,
1001
0000
1000
0001
1000
0001
0100
0101
,
0000
0011
0000
0101
0000
0011
0000
1000
,
1001
0000
1000
0001
1000
0100
1000
1010
,
0000
1100
0000
1010
0000
1100
0000
1000
,
1001
0000
0001
1000
0001
0100
0001
1100
,
0000
0000
1010
0000
0000
0000
1001
0000
0000
0000
1100
0000
0000
0000
1000
0001
,
1000
0000
0000
0100
0000
0000
0001
0000
0001
0000
0000
0100
0000
0000
1000
0000
,
1000
0000
0000
0001
0000
0000
1000
0000
0000
0000
1000
0000
0001
0000
1000
0000
,
1001
0000
1000
0000
1000
0001
1000
0001
,
0100
0001
1000
0010
1000
0001
1000
0001
,
1001
0000
1000
0000
1000
0001
1000
0100
,
1000
0001
1000
0010
1000
0001
0100
0001
,
1001
0000
1000
0000
1000
0001
1000
0100
,
1000
0010
1000
0001
0100
0001
1000
0001
,
1001
0000
1000
0000
1000
0001
1000
0100
,
1000
0000
0001
0000
1000
0000
0000
0000
0001
0000
1000
0000
0001
0000
1000
0100
,
1000
0000
0000
0001
0000
0000
1000
0000
0100
0000
0000
1000
0000
0000
0010
0000
,
1000
0000
0000
0001
0000
0000
1000
0000
0001
0000
0000
0100
0000
0000
0001
0000
,
1001
0000
1000
0000
1000
0001
1000
0000
,
1010
0000
1000
0100
1100
0000
1000
0001
,
1001
0000
0000
0000
1000
0000
0000
0000
1000
0001
0000
1000
0000
0001
0000
1000
,
0000
0000
0001
0000
0001
0001
0100
0000
,
1001
0000
0000
0000
1000
0000
0000
0000
0001
0000
1000
0000
0001
0000
1000
0100
,
1000
0000
1000
0001
0000
0000
0000
0000
0001
0000
1000
0000
0001
0000
1000
0100
,
1000
0100
0000
1000
0000
0000
0000
0000
0001
0000
0000
1000
0000
0000
1000
0000
,
0001
0000
1001
0000
1000
0001
0001
0000
,
1001
0000
0000
0000
;

//--------------- dance-single - ----------------
#NOTES:
     dance-single:
     :
     Challenge:
     13:
     0.527,0.524,0.639,0.11,0.219:
0000
0000
0000
0000
,
0000
0000
0000
0000
,
0000
0000
0000
0000
,
0000
0000
0000
0000
,
1001
0000
1001
0000
1000
0010
1000
0010
,
1010
0000
1010
0000
1000
0001
0100
0001
,
0101
0000
0101
0000
1000
0100
1000
0010
,
1000
0000
1000
0001
1000
0001
1000
0100
,
1001
0000
1001
0000
1000
0001
0100
0001
,
0101
0000
0101
0000
1000
0001
1000
0100
,
1100
0000
1100
0000
1000
0001
1000
0100
,
1000
0000
0001
1000
0001
1000
0100
1000
,
1001
0000
1001
0000
1000
0100
0001
0100
,
1100
0000
1100
0000
1000
0010
1000
0100
,
1010
0000
1010
0000
1000
0001
1000
0001
,
1001
0000
1000
0001
0100
0001
0100
0010
,
1001
0000
0000
0000
1010
0000
0000
1010
0000
0000
1010
0000
0000
0000
0001
0000
,
0100
0000
0000
0000
0101
0000
0000
0101
0000
0000
0101
0000
0000
0000
0001
0000
,
1000
0000
0000
0000
1100
0000
0000
1100
0000
0000
1100
0000
0000
0000
1000
0000
,
0001
0000
0000
0000
1001
0000
0000
1001
0000
0000
1001
0000
0000
0000
1000
0000
,
0100
0000
0000
0000
1010
0000
0000
1010
0000
0000
1010
0000
0000
0000
1000
0000
,
0001
0000
0000
0000
1100
0000
0000
1100
0000
0000
1100
0000
0000
0000
1000
0000
,
0001
0000
0000
0000
0110
0000
0000
0110
0000
0000
0110
0000
0000
0000
1000
0000
,
0001
1000
0001
0100
1000
0001
1000
0100
,
1001
0000
1001
0000
1000
0001
1000
0100
,
1000
0001
0010
1000
0100
1000
0001
1000
,
1001
0000
1001
0000
1000
0001
0100
0001
,
1000
0100
1000
0001
0100
0001
1000
0010
,
1001
0000
1001
0000
1000
0001
0100
0001
,
1000
0000
0100
0000
1000
0000
0001
0000
1000
0000
0001
0000
1000
0000
1000
0001
,
1000
0000
0000
1000
0000
0000
0001
0000
0100
0000
0000
0001
0000
0000
0010
0000
,
0001
0000
0000
0100
0000
0000
0001
0000
0000
1000
0001
0000
1000
0000
0001
1000
,
0001
0000
0001
0000
0000
0000
1000
0000
0001
0000
0000
1000
0000
0000
0000
0001
,
0000
1000
0000
0000
0001
0000
1000
0000
0001
0000
1000
0000
0001
0000
0000
0000
,
1010
0000
0010
0000
0000
1010
0000
0000
0202
0000
0000
0000
0303
0000
0000
1000
,
0000
0001
0000
0000
0001
0000
0100
0000
0001
0000
0010
0000
0100
0000
1000
0000
,
1001
0000
2000
0000
0000
3002
0000
0000
0203
0000
0000
0000
0300
0000
0001
1000
,
0000
1000
0000
0000
0100
0000
1000
0000
0100
0000
0100
1000
0100
0000
1000
0100
,
1000
0000
1100
0000
0000
1001
0000
0000
2020
0000
0000
0000
3030
0000
1001
0000
,
0000
0000
0101
0000
0000
0000
1001
0000
0000
0000
1000
0000
0100
0000
1000
0100
,
1000
0000
0000
0001
0000
0000
1000
0000
0100
0000
0000
1000
0000
0000
0001
0000
,
0100
0000
0000
0001
0000
0000
1000
0000
0100
0000
0000
1000
0000
0000
0001
0000
,
1001
0000
0000
0000
1001
0000
0000
0001
1000
0000
0001
0000
0100
0000
0001
0000
,
2010
0000
3010
1000
1020
0000
1030
0001
,
1002
0000
0000
0000
1003
0000
1000
0100
1000
0100
0000
1000
0000
0100
0000
1000
,
0000
1000
1000
0000
1000
0001
1000
0000
,
1002
0000
0000
0000
1003
0000
0000
0000
1000
0000
0001
0000
1000
0000
0001
0100
,
0001
0000
1000
0001
0000
0000
1000
0000
0001
0000
0100
0000
0001
0000
1000
0001
,
1000
0001
0000
1000
0000
0000
0000
0000
1000
0000
0000
0001
0000
1000
0001
0000
,
0001
0000
0000
0000
1001
0000
0000
1000
0001
0000
0001
0000
1000
0000
0100
0000
,
1000
0000
0000
0000
;
