#TITLE:Never Let You Go;
#SUBTITLE:;
#ARTIST:Jakaranda;
#TITLETRANSLIT:;
#SUBTITLETRANSLIT:;
#ARTISTTRANSLIT:;
#GENRE:;
#CREDIT:;
#MUSIC:Never Let You Go.ogg;
#BANNER:Never Let You Go.png;
#BACKGROUND:Never Let You Go-bg.png;
#CDTITLE:;
#SAMPLESTART:48.013;
#SAMPLELENGTH:17.820;
#SELECTABLE:YES;
#OFFSET:-0.738;
#BPMS:0.000=128.320;
#STOPS:;
#DISPLAYBPM:128.000;
#BGCHANGES:19.000=kaliedoscope4.avi=1.000=1=0=1===CrossFade==,
35.000=emi5.avi=1.200=0=1=1=StretchRewind====,
43.000=emi6.avi=1.200=0=0=1,
51.000=amoeba1.avi=1.000=0=0=1,
59.000=seaweed1.avi=1.200=0=0=1,
67.000=text17.avi=1.000=0=0=1,
83.000=bracelet1.avi=1.200=0=1=1=StretchRewind====,
91.000=bubble2.avi=1.000=0=0=1,
99.000=wind1.avi=1.000=0=0=1,
103.000=wheel1.avi=0.500=0=0=0=StretchNoLoop====,
107.000=dance10.avi=1.000=0=0=1,
115.000=piston1.avi=1.000=0=0=1,
123.000=sun1a.avi=0.700=0=1=1=StretchRewind====,
127.000=sun1b.avi=0.700=0=1=1=StretchRewind====,
130.750=sun1a.avi=0.700=0=1=1=StretchRewind====,
139.000=wheel4.avi=1.000=0=0=1,
147.000=ribbon1.avi=1.000=0=0=1,
155.000=dance10.avi=1.000=0=0=1,
163.000=space2.avi=0.800=0=0=1,
171.000=emi5.avi=1.000=0=1=1=StretchRewind====,
175.000=emi6.avi=1.000=0=1=1=StretchRewind====,
179.000=emi5.avi=1.000=0=1=1=StretchRewind====,
183.000=emi6.avi=1.000=0=1=1=StretchRewind====,
187.000=kaliedoscope4.avi=1.200=0=0=1,
193.000=Never Let You Go-jacket.png=0.800=1=0=1===CrossFade==,
99999.000=-nosongbg-=1.000=0=0=0=StretchNoLoop====
;
#FGCHANGES:;

//--------------- dance-single - ----------------
#NOTES:
     dance-single:
     :
     Beginner:
     2:
     0.103,0.145,0.074,0,0:
0000
0000
0000
0000
,
0000
0000
0000
0000
,
0000
0000
0000
0000
,
0000
0000
0000
0000
,
0000
0000
1000
0000
,
0000
0000
0001
0000
,
0000
0000
1000
0000
,
0000
0000
0100
0000
,
0010
0000
1001
0000
,
0000
0000
1000
0000
,
0001
0000
1001
0000
,
0000
0000
1000
0000
,
0001
0000
1001
0000
,
0000
0000
1000
0000
,
0001
0000
1001
0000
,
0000
0000
1000
0000
,
0100
0000
1000
0000
,
0000
0000
0001
0000
,
0000
0000
1000
0000
,
0001
0000
1000
0000
,
0001
0000
1000
0000
,
0000
0000
0001
0000
,
0000
0000
1000
0000
,
0000
0000
0001
0000
,
0000
0000
0100
0000
,
0010
0000
0110
0000
,
0000
0000
1001
0000
,
0001
0000
1000
1000
,
0001
0000
1000
0000
,
0001
0000
0100
0100
,
0100
0000
1000
0000
,
0000
0000
0100
0000
,
0000
0000
0001
0000
,
0000
0000
0010
0000
,
0000
0000
1000
0000
,
0000
0000
0001
0000
,
0001
0000
0001
0000
,
0000
0000
1000
0000
,
1000
0000
1000
0000
,
0000
0000
0001
0000
,
0001
0000
0001
0000
,
0000
0000
1000
0000
,
1000
0000
1000
0000
,
0000
0000
0001
0000
,
1000
0000
0001
0000
,
0000
0000
1001
0000
;

//--------------- dance-single - ----------------
#NOTES:
     dance-single:
     :
     Easy:
     4:
     0.125,0.096,0,0,0:
0000
0000
0000
0000
,
0000
0000
0000
0000
,
0000
0000
0000
0000
,
0000
0000
0000
0000
,
1000
0000
0001
0000
,
1000
0000
0010
0000
,
0100
0000
0001
0000
,
0010
0000
0100
0000
,
1000
0000
0001
0000
,
0100
0000
0010
0000
,
1000
0000
0001
0000
,
1000
0000
0001
0000
,
0100
0000
0010
0000
,
1000
0000
0001
0000
,
0100
0000
0010
0000
,
1000
0000
0001
0000
,
0100
0000
0010
0000
,
1000
0000
0100
0000
,
0010
0000
0001
0000
,
0100
0000
0010
0000
,
1000
0000
0001
0000
,
0100
0000
0010
0000
,
1000
0000
0100
0000
,
0010
0000
0001
0000
,
0100
0000
0010
0000
,
1000
0000
0001
0000
,
0100
0000
0010
0000
,
1000
0000
0001
0000
,
0100
0000
0010
0000
,
1000
0000
0100
0000
,
0010
0000
0001
0000
,
0100
0000
0010
0000
,
1000
0000
0001
0000
,
0100
0000
0010
0000
,
1000
0000
0100
0000
,
0010
0000
0001
0000
,
0100
0000
0010
0000
,
1000
0000
0001
0000
,
0100
0000
0010
0000
,
1000
0000
0001
0000
,
0100
0000
0010
0000
,
1000
0000
0001
0000
,
0100
0000
0010
0000
,
1000
0000
0100
0000
,
0010
0000
0001
0000
,
0001
0000
0000
0000
;

//--------------- dance-single - Blank ----------------
#NOTES:
     dance-single:
     Blank:
     Medium:
     7:
     0.272,0.277,0.211,0,0.021:
0000
0000
0000
0000
,
0000
0000
0000
0000
,
0000
0000
0000
0000
,
0000
0000
0000
0000
,
0000
0000
0000
0000
0000
0000
0000
0000
0010
0000
0000
0010
0000
0000
0010
0000
,
0000
0000
0000
0000
0000
0000
0000
0000
0100
0000
0000
0100
0000
0000
0100
0000
,
0000
0000
0000
0000
0000
0000
0000
0000
0001
0000
0000
0001
0000
0000
0001
0000
,
0000
0000
0000
0000
0000
0000
0000
0000
1000
0000
0000
1000
0000
0000
1000
0000
,
0000
0000
0000
0000
1001
0000
0000
0010
,
0000
0010
0000
0010
0000
0000
0000
0000
,
1000
0000
0001
0000
0101
0000
0000
0010
,
0000
0010
0000
0010
0000
0000
0000
0000
,
1000
0000
0001
0000
0101
0000
0000
0001
,
0000
1000
0000
0001
0000
0000
0000
0000
,
0100
0000
0010
0000
1010
0000
0000
0100
,
0000
0100
0000
0100
0000
0000
0000
0000
,
0001
1000
0010
0100
,
0001
0000
0010
0001
0010
0000
0001
0100
,
0000
0010
0000
0000
1001
0000
0010
0100
,
0010
0000
1000
0000
0001
0000
0100
0010
,
0000
1000
0000
0001
0000
0000
0101
0000
,
0010
0000
1010
0000
0001
0000
0100
0100
,
0000
0010
1000
0001
0100
0000
0010
0000
,
0000
0000
1001
0010
,
0100
0000
0001
1000
1001
0000
0000
0000
,
0000
0000
0000
0001
1001
0000
0010
0010
,
0000
0010
0000
0000
1001
0000
0010
0000
,
0100
0001
0010
0100
,
1000
0001
1001
0010
,
0100
0010
1000
0001
,
0010
0100
1001
0010
,
0100
0000
0001
0000
0010
0000
0100
1000
,
0000
0100
0000
0000
0010
0001
0000
0001
,
0000
0100
0000
0010
0000
0000
1000
0001
,
1000
0001
1000
0000
0010
0000
0000
0000
,
1010
0000
0101
0000
,
1001
0000
0011
0000
,
1100
0000
1001
0010
,
1000
0000
0000
0000
0001
1000
0001
1000
,
0001
0000
0100
0000
0010
0000
1000
0010
,
0000
0100
0000
0000
0001
1000
0001
0000
,
0100
0010
1000
0001
,
0010
0100
1000
0001
,
0100
0010
1000
0001
,
0100
0010
1000
1000
,
0001
0001
0100
0100
,
0010
0010
1000
1000
,
0001
0001
1001
0000
;

//--------------- dance-single - ----------------
#NOTES:
     dance-single:
     :
     Hard:
     10:
     0.434,0.489,0.158,0.042,0.227:
0000
0000
0000
0000
,
0000
0000
0000
0000
,
0000
0000
0000
0000
,
0000
0000
0000
0000
,
0000
0000
0000
0000
0000
0000
0000
0000
1000
0000
0000
0001
0000
0000
1000
0000
,
0000
0000
0100
0000
0000
0000
0010
0000
1000
0000
0000
0001
0000
0000
1000
0000
,
0000
0000
0100
0000
0000
0000
0010
0000
1000
0000
0000
0001
0000
0000
0010
0000
,
0000
0000
0100
0000
0000
0000
1000
0000
0001
0000
0000
1000
0000
0000
0001
0000
,
1001
0000
0000
1001
0000
0000
1001
0000
1001
0000
0000
0100
1000
0000
0001
0000
,
0010
0000
0000
1000
0100
0000
1000
0000
0100
0000
0000
0010
0001
0000
1000
0000
,
0100
0000
0001
0000
0100
0000
0000
0000
1001
0000
0000
1000
0100
0000
0010
0000
,
0100
0000
0000
1000
0010
0000
1000
0000
0100
0000
0000
0010
0001
0000
1000
0000
,
0100
0000
0010
0000
0001
0000
0000
0000
1001
0000
0000
0100
0010
0000
1000
0000
,
0100
0000
0000
0010
0100
0000
0010
0000
0001
0000
0000
0010
0100
0000
1000
0000
,
0100
0000
0010
0000
1000
0000
0000
0000
1001
0000
0000
1000
0100
0000
0010
0000
,
0100
0000
0000
0010
0001
0000
1000
0000
0100
0000
0000
1000
0100
0000
1000
0000
,
0001
0100
0010
0100
0001
1000
0001
0000
,
1000
0100
1000
0000
0010
0001
0010
0001
,
0010
0001
0100
0000
1000
0001
1000
0000
,
1000
0100
1000
0000
1000
0010
1000
0010
,
1000
0010
0100
0000
0001
0000
1000
0000
,
0100
0010
0001
1000
,
0100
0000
0000
0000
0010
0000
0000
0000
0001
0000
0000
1000
0000
0000
0001
0000
,
0000
0000
0001
0000
0000
0000
0001
0000
1000
0000
0000
1000
0000
0000
0010
0000
,
1000
0001
1000
0000
0100
0000
0001
0000
,
0100
0010
2002
0000
,
0000
0000
0000
0000
3003
0000
0000
0000
1001
0000
0000
1000
0100
0000
0000
0100
,
0010
0000
0000
0010
0100
0000
0000
0010
0001
0000
0000
1000
0100
0000
0001
0000
,
0100
0000
1000
0000
0001
0000
0000
0000
1001
0000
0000
1000
0100
0000
0000
0100
,
1000
0000
0000
0100
0010
0000
0000
0010
0001
0000
0000
0001
1000
0000
0010
0000
,
0100
0001
1000
0000
1000
0001
0100
0002
,
0000
0000
1003
0100
0010
1000
0100
0020
,
0000
0000
1030
0000
0001
1000
0000
1100
,
0000
0101
0000
1001
0000
1000
0001
0000
,
1000
0000
0000
0000
1000
0000
0000
0000
0010
0000
0000
0010
0000
0000
0010
0000
,
1000
0000
0000
1000
0000
0000
1000
0000
0100
0000
0000
0100
0000
0000
0100
0000
,
0001
0000
0000
0001
0000
0000
0001
0000
1000
0000
0000
0100
0000
0000
0001
0000
,
0001
0000
0000
0100
0000
0000
1000
0000
1000
0000
0000
0100
0000
0000
0001
0000
,
0001
0000
0000
0100
0000
0000
1000
0000
1000
0000
0100
0000
1000
0000
0100
0000
,
1000
0010
0010
0000
1001
0000
0000
0001
,
0000
1000
0000
0100
0100
0001
0100
0001
,
0100
0000
0010
0000
0010
0000
0000
0000
1000
0000
0000
0001
0000
0000
1000
0000
,
0100
0000
0000
0010
0000
0000
0100
0000
0100
0000
1000
0000
0001
0000
1000
0000
,
0001
0000
1000
0000
1000
0000
0000
0000
0001
0000
0000
1000
0000
0000
0001
0000
,
0100
0000
0000
0010
0000
0000
1000
0000
1000
0000
0100
0000
0010
0000
0100
0000
,
0010
0000
0100
0000
0100
0000
0000
0000
0001
0000
0000
1000
0000
0000
0001
0000
,
0100
0000
0000
0010
0000
0000
1000
0000
0001
0000
0001
0000
0100
0000
0010
0000
,
0100
0001
0001
0000
1001
0000
1000
0100
,
0000
0100
0000
0001
1000
0000
0000
0000
;

//--------------- dance-single - ----------------
#NOTES:
     dance-single:
     :
     Challenge:
     12:
     0.546,0.515,0.137,0.063,0.285:
0000
0000
0000
0000
,
0000
0000
0000
0000
,
0000
0000
0000
0000
,
0000
0000
0000
0000
,
0000
0000
0000
0000
0000
0000
0000
0000
1000
0000
0100
0001
0000
0000
1000
0000
,
0000
0000
0100
0000
0000
0000
0010
0000
0001
0000
1000
0100
0000
0000
0010
0000
,
0000
0000
1000
0000
0000
0000
0001
0000
0100
0000
0010
1000
0000
0000
0001
0000
,
0000
0000
0100
0000
0000
0000
0010
0000
1000
0000
0001
0100
0000
0100
0001
0000
,
1001
0000
1000
0100
0000
0100
1000
0000
1001
0000
0100
0000
0010
0000
1000
0000
,
0100
0001
0100
0001
0100
0010
0100
0010
,
0100
1000
1000
0000
1001
0100
0001
0100
,
0010
0100
0010
1000
0001
0100
0001
0100
,
0001
1000
1000
0000
1001
0100
0001
0100
,
0010
1000
0100
1000
0100
0010
0100
0001
,
0010
1000
1000
0000
1001
0100
0001
0010
,
0001
0010
0100
1000
0100
0010
1000
0100
,
0010
0001
0100
1000
1001
0001
1000
0100
,
1000
0100
0010
0001
1000
0100
0010
0100
,
1000
1001
1001
0000
0001
1000
0100
0010
,
1000
0100
0010
1000
0001
1000
0100
1000
,
0001
0000
0011
0000
0011
0000
0000
0000
0001
0000
1000
0001
0000
1000
0001
0000
,
0000
1000
0001
0000
0000
0000
0100
0000
1000
0000
0001
1000
0000
0001
1000
0000
,
0000
0001
1000
0000
1000
0000
0010
0000
0100
0000
0100
0010
0000
0100
0010
0000
,
0000
0100
0010
0000
0001
0000
1000
0000
0100
0000
1000
0100
0000
1000
0100
0000
,
0010
0000
0010
0001
0000
0010
0001
0000
1000
0000
0001
0000
1000
0000
0001
0000
,
0100
0001
0100
0020
0200
0000
0000
0000
,
0000
0000
0330
0100
1001
0100
1000
0100
,
0010
0100
0010
0100
0001
0100
0010
0100
,
1000
0001
1000
0000
1001
0100
1000
0100
,
1000
0100
1000
0001
1000
0001
1000
0001
,
0100
0001
0100
0000
0010
1000
0010
2000
,
0000
0001
0001
3001
0100
0010
1000
0200
,
0000
1000
1000
1300
0001
1000
0001
1000
,
0100
0001
0100
1000
0000
1000
0001
1000
,
0001
0000
1000
0000
0001
0000
0000
0000
1000
0000
0000
1000
0000
0000
0100
0000
,
1000
0000
0000
1000
0000
0000
0100
0000
1000
0000
0000
1000
0000
0000
0100
0000
,
1000
0000
0000
1000
0000
0000
0100
0000
1000
0000
0100
1000
0000
1000
0100
0000
,
1000
0000
0001
0100
0000
0100
0001
0000
0010
0000
0010
1000
0000
1000
0010
0000
,
1000
0000
0010
0000
0001
0000
0000
0000
1000
0100
1000
0100
1000
0100
1000
0100
,
1000
0001
1000
0001
0200
0000
0010
0010
,
0000
0000
0001
0000
0000
0000
0301
0000
0010
0001
0010
0001
0010
0001
0010
0001
,
0010
0000
1000
0000
0001
0000
1000
0000
1001
0000
0000
0100
0000
0000
0100
0000
,
0010
0000
0000
1000
0000
0000
0001
0000
1000
0010
1000
0010
1000
0010
1000
0010
,
1000
0000
0100
0000
1000
0000
0001
0000
1000
0000
0000
1000
0000
0000
1000
0000
,
0001
0000
0000
0001
0000
0000
0001
0000
0100
0010
0100
0010
0100
0010
0100
0010
,
0100
1000
0001
1000
0001
0100
0001
0100
,
0010
0000
0100
0000
0010
0000
0000
0000
1000
0100
1000
0100
1000
0100
1000
0100
,
1000
0001
1000
0001
0200
0000
0010
0010
,
0000
0010
0000
0010
0310
0000
0000
0000
;
