#TITLE:Mysterious Times;
#SUBTITLE:;
#ARTIST:Sash! feat. Tina Cousins;
#TITLETRANSLIT:;
#SUBTITLETRANSLIT:;
#ARTISTTRANSLIT:;
#GENRE:;
#CREDIT:;
#MUSIC:Mysterious Times.ogg;
#BANNER:bn.png;
#BACKGROUND:Mysterious Times-bg.png;
#CDTITLE:;
#SAMPLESTART:84.533;
#SAMPLELENGTH:15.680;
#SELECTABLE:YES;
#OFFSET:-0.353;
#BPMS:0.000=134.281
,252.000=141.176
,253.000=134.281
;
#STOPS:;
#DISPLAYBPM:134.000;
#BGCHANGES:17.000=ring2.avi=1.400=1=0=1===CrossFade==,
25.000=ring2r.avi=1.000=0=0=1,
33.000=ring12.avi=0.800=0=0=1,
41.000=wheel1.avi=1.200=0=0=1,
49.000=wheel4.avi=1.000=0=0=1,
57.000=rain2.avi=1.000=0=0=1,
65.000=tunnel10.avi=1.000=0=0=1,
73.000=tunnel10r.avi=1.000=0=0=1,
81.000=tunnel2.avi=0.800=0=0=1,
97.000=snow3.avi=1.200=0=0=1,
113.000=wheel4.avi=1.000=0=0=1,
121.000=blackhole1.avi=1.000=0=0=1,
129.000=ring3.avi=1.000=0=0=1,
137.000=rain2.avi=1.000=0=0=1,
145.000=blackhole1.avi=1.000=0=1=1=StretchRewind====,
153.000=ring12.avi=0.800=0=0=1,
161.000=tunnel10.avi=1.000=0=0=1,
169.000=thunder1.avi=1.000=0=0=1,
177.000=tunnel10r.avi=1.000=0=0=1,
193.000=face2.avi=0.900=0=0=1,
201.000=face1.avi=1.200=0=0=1,
209.000=letters1.avi=1.000=0=0=1,
217.000=light5.avi=1.200=0=0=1,
225.000=text5.avi=1.000=0=0=1,
233.000=tunnel10.avi=1.000=0=0=1,
241.000=wheel1.avi=1.400=0=0=1,
249.000=tunnel10r.avi=1.000=0=0=1,
257.000=tunnel2.avi=0.900=0=0=1,
272.000=Mysterious Times-jacket.png=1.400=0=0=1,
99999.000=-nosongbg-=1.000=0=0=0=StretchNoLoop====
;
#FGCHANGES:;

//--------------- dance-single - ----------------
#NOTES:
     dance-single:
     :
     Beginner:
     2:
     0.145,0.165,0.113,0,0:
0000
0000
0000
0000
,
0000
0000
0000
0000
,
0000
1000
0000
0000
,
0001
0000
0000
1000
,
0000
1000
0000
0000
,
0000
0001
0000
0100
,
0000
1000
0000
0000
,
0000
1000
0000
0000
,
1000
1000
0000
0000
,
0000
1000
0000
1001
,
0000
0001
0000
0000
,
0000
0001
0000
1000
,
1000
0000
0010
0000
,
0000
0000
0010
0000
,
0110
0000
1000
0000
,
0000
0000
0001
0000
,
0100
0100
0000
0001
,
0000
0000
0000
0001
,
0000
1000
1000
0000
,
0000
0000
0100
0000
,
0000
0000
1001
0000
,
0000
0000
1001
0000
,
0000
0000
1001
0000
,
0010
0000
0100
0000
,
1000
1000
0000
0000
,
0000
1001
0000
0001
,
0001
0000
0000
0100
,
0000
0110
0000
1000
,
0000
0000
0001
0001
,
0000
0000
1000
0000
,
0001
0000
1000
0000
,
1001
0000
0100
0000
,
0000
0000
0010
0000
,
0000
0000
1000
0000
,
0000
0000
1000
0000
,
1001
0000
0000
0000
,
0000
1000
0000
0000
,
0000
0010
0000
0000
,
0100
0000
0100
0000
,
0001
0000
0000
0000
,
0001
0001
0000
1000
,
0000
0001
0000
1001
,
0000
0001
0000
1000
,
0000
0001
0000
1001
,
0000
1000
0000
0001
,
0000
0100
0000
0110
,
0000
0100
0000
0010
,
0000
0110
0000
1000
,
1000
1000
0000
0000
,
0000
0001
0000
1000
,
1000
0000
0000
0100
,
0000
0000
0001
0001
,
0001
0000
0000
0100
,
0000
1000
0000
0100
,
0100
0000
0000
0001
,
0000
0000
1000
1000
,
1000
0000
0100
0000
,
0000
0001
0000
0000
,
1000
1000
0000
0001
,
0000
1000
0000
0001
,
0001
0000
0000
0000
,
1000
0000
0000
0100
,
0100
0100
0000
0010
,
0000
1000
0000
0110
,
0000
1000
0000
0000
,
0000
0001
0000
0000
,
0000
1000
0000
0000
,
0000
0001
0000
0000
,
0001
0001
0000
0000
;

//--------------- dance-single - ----------------
#NOTES:
     dance-single:
     :
     Easy:
     5:
     0.242,0.293,0.04,0,0:
0000
0000
0000
0000
,
0000
0000
0000
0000
,
0000
0000
0000
0000
,
0000
1000
0000
0000
,
0000
0001
0000
0100
,
0000
0010
1000
0001
,
0000
0100
0010
0010
,
0000
0010
0000
1000
,
0000
0001
0000
0001
,
0000
1000
0000
0010
,
0000
1000
0001
0100
,
0010
1000
0100
0010
,
0001
1001
0010
0100
,
0010
1000
0100
0010
,
0001
0100
0010
1000
,
0010
0100
0001
0010
,
0100
1001
0010
0100
,
0001
0010
0100
1000
,
0001
0100
0010
1000
,
0001
0100
0010
1000
,
0001
1000
1000
1000
,
1000
0001
0001
0001
,
0001
0100
0100
0100
,
0100
0010
0010
0010
,
0010
1000
1000
1000
,
0001
0100
0010
0010
,
1000
0001
0100
0010
,
1000
0100
0010
0100
,
0010
0100
0100
1000
,
1000
0001
0001
0100
,
0100
0010
1000
0001
,
0100
0010
1000
0100
,
0001
1001
0010
1000
,
0010
0100
0001
0010
,
0010
0100
1000
0001
,
0100
0010
1000
0100
,
0010
0110
0001
1000
,
0010
1001
0010
0100
,
0010
1000
0001
0100
,
0100
0010
1000
0001
,
0100
1000
0010
1000
,
1000
0000
1000
1000
,
0000
0001
1000
0001
,
0100
0010
1000
0100
,
0010
0001
0000
1000
,
0001
0100
0000
0010
,
1000
0010
0000
0100
,
0000
0001
0000
1000
,
0000
0000
0000
0000
,
0000
1000
1000
1000
,
0000
0010
0010
0010
,
0000
0100
0100
0100
,
0000
0001
0001
0001
,
0000
1000
1000
1000
,
0000
0010
0010
0010
,
0000
0100
0100
0100
,
0000
0010
0010
0010
,
0000
1000
1000
1000
,
0000
0001
0001
0001
,
0000
0100
0100
0100
,
0000
0010
0010
0010
,
0000
1000
1000
1000
,
0000
0001
0000
0001
,
0000
1000
0000
1000
,
0000
0001
0000
0000
,
0000
1000
0000
0000
,
0000
0001
0000
0000
;

//--------------- dance-single - ----------------
#NOTES:
     dance-single:
     :
     Medium:
     7:
     0.291,0.435,0.089,0.226,0.016:
0000
0000
0000
0000
,
0000
0000
1000
0000
,
0001
0000
0100
0000
,
0010
0000
1000
0000
,
0001
0000
0100
0000
,
0010
0000
1000
0000
,
0001
0000
0100
0000
,
0010
0000
1000
0000
,
0001
0000
1000
0000
,
0001
0000
1000
0000
,
0001
0100
0010
1000
,
0100
0010
0001
0100
,
0010
1000
0001
0100
,
0010
1000
0011
0001
,
1001
0100
0110
1000
,
1001
0010
0110
1000
,
0100
0020
0032
0203
,
0320
2030
3002
0023
,
0230
2300
3002
0203
,
0320
1030
0001
0100
,
0010
2000
0000
0000
,
0000
3002
0000
0000
,
0000
0203
0000
0000
,
0000
0320
0000
0000
,
0000
0000
1030
0000
0001
0000
0100
0010
,
0100
0000
0001
0000
0010
0000
0100
1000
,
0100
0000
0010
0000
0001
0000
0100
0010
,
0100
0000
0001
0000
0010
0000
0100
1000
,
0100
0010
0000
0001
,
0000
0100
0010
1000
,
0001
0010
0010
0100
,
1000
0001
0100
0010
,
1000
1001
0010
0100
,
0001
0000
0000
0000
0010
0000
0000
0000
0100
0000
1000
0000
0100
0000
0000
0010
,
0000
0100
0000
0110
0000
0000
1000
0000
,
0001
0100
0010
1000
,
0100
0000
0000
0000
0010
0000
0000
0010
0000
0000
0010
0000
0001
0000
0000
0000
,
0000
0000
0000
0000
0100
0000
0000
0100
0000
0000
0100
0000
0010
0000
0000
0000
,
1000
0001
0000
0001
,
0100
0010
1000
0001
,
0010
0012
0000
1003
,
0010
0202
0000
0303
,
0000
1000
0000
0010
,
0000
0100
0001
0010
,
0100
2000
0000
3002
,
0000
0203
0000
0320
,
0000
1030
0001
0100
,
0010
2000
0000
0000
,
0000
3001
0100
0010
,
1000
0100
0010
0001
,
0100
0010
1000
0001
,
0100
0010
1000
0100
,
0010
1000
0010
0100
,
0001
1000
0010
0100
,
0000
0010
1000
0001
,
0000
0000
0000
0000
0001
0000
0000
0000
1000
0000
0000
0000
0010
0000
0000
0010
,
0000
0010
1001
0000
0010
0000
0100
0000
,
0001
0010
0100
1000
,
0100
0010
0100
1000
,
0001
0100
0010
1000
,
0001
1000
0010
0100
,
0001
0010
0100
1000
,
0100
0010
0001
1000
,
0010
0100
0001
1000
,
0001
2002
0000
0000
,
0000
3003
2000
0000
,
0000
0000
3002
0000
,
0000
0000
0003
0000
;

//--------------- dance-single - ----------------
#NOTES:
     dance-single:
     :
     Hard:
     10:
     0.503,0.494,0.298,0.048,0.153:
0000
0000
0000
0000
,
0000
0000
0000
0000
,
0000
0000
0000
0000
,
0000
0000
0000
0000
,
0000
0100
0001
0100
,
1000
0000
0100
0000
0001
0000
0100
0100
,
1000
0001
0010
0000
0001
0000
0010
0000
,
1000
0000
0010
0000
0001
0000
0001
1000
,
0100
0010
0001
0100
1000
0000
1000
0100
,
0010
0000
0001
0010
1000
1000
1000
0100
,
0110
0000
0001
0100
0010
0000
1000
1000
,
0001
0000
0010
0100
1000
0001
0001
0100
,
0010
0100
0010
0100
0010
0000
0010
0001
,
1000
0000
1000
0010
0100
0010
0001
1000
,
0110
0000
0010
1000
0100
0000
0100
0010
,
1000
0000
1000
0100
0010
0010
0001
0100
,
0010
1000
0100
0011
0000
0011
0000
1100
,
0000
1100
0000
1010
0000
1010
0000
0001
,
1000
0001
1000
0101
0000
0101
0000
0011
,
0000
0011
0000
1001
0000
1001
0000
0110
,
0010
0100
0020
0000
1000
0000
0000
0000
,
1000
0000
1000
0000
,
1030
0000
0001
0100
0000
0000
0100
0000
0002
0000
0000
0000
0000
0000
0000
0000
,
1000
0000
0000
0000
0000
0000
0000
0000
1000
0000
0000
0000
1003
0010
0100
0000
,
1000
0000
1000
0010
0100
0000
0001
0000
0010
0000
0000
0000
1000
0000
0100
0000
,
1000
0000
0000
0000
0010
0000
0000
1001
0000
0000
0100
0000
1001
0000
0000
1001
,
0000
0000
0001
0100
0001
0000
1000
0100
,
1000
0000
0000
0000
0100
0000
0000
1001
0000
0000
0100
0000
1001
0000
0000
1001
,
0000
0000
1000
0000
0001
0000
0000
0100
0000
0000
1000
0000
0002
0000
0100
0000
,
0103
0000
0000
0000
0001
0000
0000
1000
0000
0000
0100
0000
0010
0000
0000
0001
,
0000
0100
0010
1000
0100
0000
0010
0001
,
0100
0000
0000
0000
0100
0000
0010
0000
1000
0000
0100
0000
0010
0000
0000
0010
,
0000
0100
0001
0100
0001
0000
1000
0100
,
1000
0000
0000
0000
0100
0000
0000
1001
0000
0000
0100
0000
1001
0000
0000
1001
,
0000
0000
0100
0010
0001
0000
0010
0100
,
1000
0000
0000
0000
0100
0000
0000
1001
0000
0000
0100
0000
1001
0000
0000
1001
,
0000
0000
0010
0000
0100
0000
0000
0100
0000
0000
0001
0000
0100
0000
0000
0100
,
0000
0000
1000
0000
0100
0000
0000
0010
0000
0000
0010
0000
0100
0000
0000
1000
,
0000
0100
0001
0100
0001
0000
1000
0100
,
1000
0000
0000
0000
0100
0000
0010
0000
0100
0000
1000
0000
1001
0000
0000
1001
,
0000
1001
0100
0010
0001
0000
0010
0100
,
1000
0000
1000
0100
0001
0100
1000
1000
,
1000
0000
0000
0000
0001
0000
0000
0100
0000
0000
1000
0000
1000
0000
0000
0100
,
0000
0001
0010
0100
1000
0100
0001
0001
,
0001
0000
0000
0000
1000
0000
0000
0100
0000
0000
0001
0000
0100
0000
0000
0010
,
0000
0000
1000
0000
0100
0000
0000
0100
0000
0000
1000
0000
0001
0000
0000
0100
,
0000
1000
0100
1000
0100
0000
0001
0100
,
0001
0000
0000
0000
1001
0000
0000
1001
0000
0000
0100
0000
1001
0000
0000
1001
,
0000
0100
0010
1000
0001
0100
1000
0100
,
0001
0010
0100
0010
1000
0100
1000
0100
,
0010
0001
0010
0100
0010
0100
0010
0100
,
1000
0000
0100
0000
1000
0000
0100
0000
0010
0000
0001
0000
1001
0000
0000
1001
,
0000
1000
0100
0010
0001
0010
0100
1000
,
0001
0100
1000
0100
0001
0100
0010
0100
,
1000
0100
0001
0100
0010
0001
1000
0100
,
1000
0000
0010
0000
0100
0000
0010
0000
0001
0000
1000
0000
1000
0001
0000
1000
,
0000
0001
0100
1000
0100
0010
0001
0010
,
1000
0100
1000
0001
1000
0100
1000
0001
,
1000
0000
0001
0000
1000
0000
0000
1000
0000
0000
1000
0000
0100
0000
0000
0100
,
0000
0000
0100
0000
0001
0000
0000
0001
0000
0000
0001
0000
0010
0000
0000
0010
,
0000
0010
1000
0001
0010
0100
1000
0100
,
0001
0100
0010
1000
0100
0001
1000
0001
,
1000
0001
0010
0100
0010
0000
2002
0000
,
3003
0000
0000
0000
1000
0000
0000
0001
0000
0000
0100
0000
0100
0000
0000
1000
,
0000
0100
0000
0002
0000
0000
0000
0000
,
0100
0010
0100
0010
,
0103
0000
0001
1000
0001
0000
0001
0100
,
0001
0000
0001
0010
0001
0000
0001
1000
,
0001
0000
1000
0100
0000
0000
0000
0000
0000
0000
0000
0000
0000
0000
0000
0000
;

//--------------- dance-single - ----------------
#NOTES:
     dance-single:
     :
     Challenge:
     13:
     0.655,0.632,0.177,0.105,0.628:
0000
0000
0000
0000
,
0000
0000
0000
0000
,
0000
0000
0000
0000
,
0000
0000
0000
0000
,
0000
0000
1000
0100
0001
0000
0001
0010
,
1000
0000
0000
0000
1000
0000
0100
0000
1000
0000
0100
0000
0001
0100
0001
0000
,
0100
0000
0010
1000
0010
0000
1000
0000
0010
0000
0000
0000
0001
0000
0010
0000
,
0001
0000
0000
0000
0001
0000
1000
0000
0001
0000
1000
0000
1000
0100
1000
0000
,
0100
0000
0001
0100
0001
0000
0100
0000
0001
0000
0100
0000
1000
0000
0100
0000
,
0001
0000
0100
0000
1000
0000
0100
0000
0001
0000
0100
0000
1000
0010
1000
0000
,
0100
0000
0001
0010
0001
0000
0100
0000
1000
0000
0100
0000
0001
0000
0100
0000
,
1000
0000
0100
0000
0001
0000
0100
0000
1000
0000
0100
0000
0001
0100
1000
0000
,
1000
0000
0001
0010
0001
0000
0001
0000
1000
0000
0100
0000
0001
0000
0010
0000
,
1000
0000
0001
0000
1000
0000
0100
0000
0001
0000
0010
0000
1000
0100
0001
0000
,
0100
0000
1000
0100
1000
0000
0100
0000
0001
0000
1000
0000
0100
0000
0010
0000
,
1000
0000
0001
0000
0100
0000
0010
0000
1000
0000
0001
0000
1000
0100
1000
0000
,
0010
0000
0001
0010
0001
0000
1000
0000
0100
0000
0001
0000
0100
0000
1000
0000
,
0100
0000
0001
0000
0100
0000
1000
0000
0100
0000
0001
0000
0100
0010
1000
0000
,
0001
0000
0001
0100
0001
0000
0010
0000
1000
0000
0010
0000
0001
0000
0010
0000
,
1000
0010
0001
0010
1000
0010
0001
0010
,
1000
0000
0010
0000
0001
0100
0010
0000
2000
0000
0000
0000
3200
0000
0000
0000
,
2300
0000
0000
0000
3020
0000
0000
0000
0230
0000
0000
0000
0310
1000
0100
0000
,
0001
0000
1000
0010
0200
0000
0000
0000
0302
0000
0000
0000
0023
0000
0000
0000
,
0230
0000
0000
0000
1300
0100
1000
0000
0100
0010
0100
0000
0010
0001
0010
0000
,
1001
0000
1000
0100
0001
0000
0010
0000
0010
0000
0100
0000
1000
0000
0100
0000
,
1000
0000
0001
0000
1000
0000
0001
0000
0100
0000
0010
0000
1001
0000
0000
1001
,
0000
0100
0001
1000
0100
0010
1000
0001
,
1000
0000
0100
0000
1000
0000
0001
0000
0010
0000
0100
0000
1001
0000
0000
1001
,
0000
0000
1000
0000
0001
0100
0000
1000
0000
0000
0100
0000
0001
0000
0100
0000
,
0100
0000
0000
0000
1000
0001
0000
0001
0000
0001
0100
0000
0010
0100
0000
1000
,
0000
1000
0100
0000
1000
0000
0001
0000
0100
0000
1000
0000
0001
0000
0100
0000
,
0010
0000
0100
0000
1000
0000
0100
0000
1000
0000
1100
0000
1100
0000
0000
1001
,
0000
0011
1001
0001
0100
0010
1000
0001
,
0100
0000
0001
0000
0010
0000
0100
0000
1000
0000
0100
0000
1001
0000
0000
1001
,
0000
1000
0100
1000
0100
0001
0010
0100
,
0010
0000
0100
0000
1000
0000
0100
0000
0001
0000
0100
0000
1001
0000
0000
1001
,
0000
0000
1000
0000
0001
0100
0000
1000
0000
0000
1000
0000
1000
0100
0000
0001
,
0000
0000
0010
0000
0100
0010
0000
1000
0000
0100
1000
0000
1000
0001
0000
0001
,
0000
0001
1000
0000
0100
0000
0010
0000
0100
0000
0000
0000
1000
0000
0001
0000
,
1000
0000
0000
0000
0010
0000
0001
0000
1000
0000
1000
0001
2000
0000
0000
0001
,
0000
0001
3001
1000
0100
0010
1000
0001
,
1000
0001
1000
0100
1000
0001
0100
0010
,
0100
0000
0000
0000
1000
0100
0000
0100
0000
0010
0100
0000
0010
0001
0000
0001
,
0000
1000
0100
0000
1000
0000
0001
0000
0100
0000
0010
0000
0100
0000
0100
0000
,
0100
0000
0000
0000
1001
0000
0000
0100
0000
0000
0010
0000
1001
0000
0000
0100
,
0000
0000
0010
0000
1000
0100
0000
0010
0000
0001
0010
0000
0100
1000
0000
0100
,
0000
0010
0001
0000
1000
0000
0100
0000
1000
0000
0001
0000
0100
0000
0010
0000
,
1000
0000
1001
0000
1001
0000
0000
1001
0000
0000
1001
0000
1000
0001
1000
0000
,
0100
0000
1000
0001
0100
1000
0000
0100
0000
0100
0000
0001
0100
0001
0000
1000
,
0000
1000
0000
1000
0010
1000
0000
0010
0000
0010
0000
0001
0010
0001
0100
0000
,
0100
0000
0100
1000
0100
1000
0000
0001
0000
0001
0000
0010
0100
0010
0000
1000
,
0000
1000
0000
1000
0001
1000
0000
0001
0000
0001
1000
0000
0100
0010
0100
0000
,
0001
0000
0001
0010
1000
0100
0000
1000
0000
0100
0000
0010
0001
0010
0000
0100
,
0000
0100
0000
1000
0001
1000
0000
0100
0000
0010
0000
0010
0001
0010
0001
0000
,
0100
0000
1000
0100
1000
0100
0000
0001
0000
0001
0000
1000
0100
1000
0000
1000
,
0000
0100
0000
0010
0100
0010
0000
0001
0000
0001
1000
0000
1000
0001
1000
0000
,
1001
0000
1000
0001
1000
0001
0000
0100
0000
0100
0000
0010
1000
0001
0000
0010
,
0000
0010
0000
0100
0010
0100
0000
0001
0000
0001
0000
1000
0001
1000
0001
0000
,
0100
0000
0010
1000
0010
0000
0000
0001
0000
0000
0001
0000
0010
0100
0000
0010
,
0000
0000
1000
0000
0001
0100
0000
0010
0000
0000
0100
0000
0010
1000
0000
0100
,
0000
0000
0001
0000
0001
0000
1000
0000
0100
0000
0001
0000
1000
0100
0000
0001
,
0000
0100
0000
0010
1000
0000
0001
0000
1000
0000
0001
0000
1000
0010
0100
0000
,
0100
0000
0001
0000
1000
0000
0000
0100
0000
0000
0001
0000
1200
0000
0001
0000
,
1300
0000
0000
0000
1000
0001
0000
1000
0000
0000
1000
0000
0001
1000
0000
0001
,
0000
0200
0000
0020
0000
0000
0000
0000
,
0000
0000
0000
0000
,
0330
0000
0000
0000
1000
0010
1000
0000
0001
0100
0001
0000
0100
1000
0100
0000
,
0010
0001
0010
0000
1000
0100
1000
0000
0001
0010
0001
0000
0100
0010
0100
0000
,
1000
0000
0001
0100
0000
0000
0000
0000
0000
0000
0000
0000
0000
0000
0000
0000
;
