#TITLE:My Love Is The Shhh!;
#SUBTITLE:(Remix);
#ARTIST:Somethin' for the People;
#TITLETRANSLIT:;
#SUBTITLETRANSLIT:;
#ARTISTTRANSLIT:;
#GENRE:;
#CREDIT:;
#MUSIC:My Love Is The Shhh! (Remix).ogg;
#BANNER:bn.png;
#BACKGROUND:bg.png;
#CDTITLE:;
#SAMPLESTART:21.099;
#SAMPLELENGTH:18.000;
#SELECTABLE:YES;
#OFFSET:-0.480;
#BPMS:0.000=93.000;
#STOPS:;
#BGCHANGES:8.000=night1.avi=1.000=1=0=1===CrossFade==,
16.000=bracelet1.avi=1.000=0=0=1,
32.000=wheel7.avi=1.000=0=0=1,
40.000=jewelry1.avi=1.000=0=0=1,
48.000=wheel7.avi=1.000=0=0=1,
56.000=jewelry1.avi=1.000=0=0=1,
64.000=wheel4.avi=1.000=0=0=1,
72.000=kaliedoscope4.avi=1.000=0=0=1,
80.000=circle7.avi=0.900=0=0=1,
88.000=lady7.avi=0.900=0=0=1,
96.000=wheel7.avi=1.000=0=0=1,
104.000=night1.avi=1.000=0=0=1,
112.000=spiral2.avi=1.000=0=1=1=StretchRewind====,
120.000=wheel4.avi=1.000=0=0=1,
128.000=wheel7.avi=1.000=0=0=1,
136.000=jewelry1.avi=1.000=0=0=1,
144.000=wheel7.avi=1.000=0=0=1,
152.000=jewelry1.avi=1.000=0=0=1,
160.000=spiral2.avi=1.000=0=0=0=StretchNoLoop====,
168.000=space2.avi=0.700=0=0=1,
176.000=spiral2.avi=1.000=0=0=1,
184.000=circle7.avi=0.900=0=0=1,
192.000=My Love Is The Shhh! (Remix)-jacket.png=1.000=1=0=1===CrossFade==,
99999.000=-nosongbg-=1.000=0=0=0=StretchNoLoop====
;
#FGCHANGES:;

//--------------- dance-single - ----------------
#NOTES:
     dance-single:
     :
     Beginner:
     1:
     0.088,0.112,0.055,0,0:
0000
0000
0000
0000
,
0000
0000
0000
0000
,
1000
0000
0000
0000
,
1000
0000
0000
0000
,
1000
0000
0000
0000
,
0001
0000
0000
0000
,
0100
0000
0000
0000
,
0001
0000
0000
0000
,
1001
0000
0000
0000
,
1000
0000
1000
0000
,
1000
0000
0000
0000
,
0100
0000
0000
0000
,
0110
0000
0000
0000
,
1000
0000
0001
0000
,
1000
0000
0000
0000
,
0001
0000
0001
0000
,
1001
0000
0000
1000
,
1000
0000
1000
0000
,
0001
0000
0000
0000
,
1000
0000
1000
0000
,
1000
0000
0000
0000
,
0001
0000
1000
0000
,
0001
0000
0000
0000
,
0100
0000
0000
0100
,
0100
0000
0100
0000
,
0010
0000
0010
0000
,
1000
0000
0000
0000
,
0001
0000
0000
0000
,
1000
1000
1000
0000
,
0100
0000
0100
0000
,
0010
0000
0000
0000
,
1000
0000
0001
0000
,
1001
0000
0000
0000
,
1000
0000
1000
0000
,
1000
0000
0000
0000
,
0001
0000
0001
0000
,
1001
0000
0000
0000
,
0100
0000
0100
0000
,
0100
0000
0000
0000
,
0010
0000
0010
0000
,
0110
0000
0000
0000
,
1000
1000
1000
0000
,
0001
0000
0000
0000
,
0001
0001
0001
0000
,
0100
0000
0000
0000
,
0010
0010
0010
0000
,
1000
0000
0000
0000
,
0001
0000
1000
0000
,
1001
0000
0000
0000
;

//--------------- dance-single - ----------------
#NOTES:
     dance-single:
     :
     Easy:
     3:
     0.197,0.246,0.101,0.219,0:
0000
0000
0000
0000
,
0000
0000
0000
0000
,
1000
0000
1000
0000
,
0001
0000
0001
0000
,
0100
0100
0100
0000
,
0010
0010
0010
0000
,
0100
0010
0100
0000
,
1000
1000
0100
0100
,
1001
0000
1000
0000
,
2000
3002
2003
3200
,
1300
1000
1000
0000
,
0001
1000
0001
0000
,
1000
0001
1000
0000
,
0002
2003
3200
2300
,
3001
0000
1000
0001
,
1000
0000
0001
0000
,
1001
0000
0000
0110
0000
0000
1001
0000
,
1000
1000
1000
0000
,
0001
0000
0001
0000
,
1000
0100
1000
0000
,
1000
0000
0001
0000
,
1000
0010
1000
0000
,
1000
0000
0001
0000
,
0110
0000
0000
0110
0000
0000
1001
0000
,
1000
0001
1000
0000
,
0001
1000
0001
0000
,
1000
0100
1000
0000
,
1000
0010
0100
0000
,
0001
0001
1000
0000
,
1000
0100
1000
0100
,
2000
0000
0000
3001
0000
0000
1001
0000
,
0002
0000
0000
1003
0000
0000
1001
0000
,
1001
1000
1000
0000
,
2000
3002
0203
0302
,
1003
1000
1000
0000
,
0001
0001
0001
0000
,
1000
0001
0001
0000
,
2000
3002
0203
0302
,
1003
1000
1000
0000
,
0001
0001
0001
0000
,
1001
0000
1000
0000
,
0002
2003
3200
0320
,
0130
0000
0010
0000
,
1000
1000
0001
0000
,
1001
0000
1000
0000
,
0002
2003
3200
2300
,
3001
0000
1000
0000
,
0001
1000
0001
0000
,
2002
0000
3003
0000
;

//--------------- dance-single - ----------------
#NOTES:
     dance-single:
     :
     Medium:
     6:
     0.303,0.287,0.164,0.219,0:
0000
0000
0000
0000
,
0000
0000
0000
0000
,
1000
1000
0001
1000
,
0100
0000
0000
1100
0000
0000
1001
0000
,
0010
0000
0010
1000
0010
0000
1000
0000
,
0001
1000
0001
0000
0001
0000
0001
0000
,
1000
0100
1000
0000
1000
0000
0001
0000
,
1000
0010
1000
0000
0001
0000
0000
0000
,
1001
0000
0100
0000
0001
0100
0100
0000
,
0002
2003
3002
2003
,
3001
1000
0001
0000
1000
0001
0100
0001
,
1000
1000
0001
0100
,
1000
0000
0001
0000
1000
0001
1000
0000
,
2000
3002
2003
3200
,
1300
0100
1000
0000
1000
0001
1000
0000
,
0001
0000
1000
0000
1000
0001
1000
0000
,
1001
0000
0000
1001
0000
0000
1001
0000
,
1000
0001
1000
0000
0100
0000
0110
0000
,
1000
0001
1000
0000
0001
0100
0001
0000
,
1000
0001
0100
0101
,
1000
0001
1000
0000
1000
0000
1100
0000
,
1000
0010
1000
0100
1000
0000
1001
0000
,
0001
1000
0001
0000
1000
0100
1000
0000
,
1001
0000
0000
0110
0000
0000
1001
0000
,
1000
0001
1000
0000
0001
0100
0001
0000
,
2000
0000
3001
0000
1000
0001
1000
0000
,
1000
0001
0100
0001
,
1000
0010
1000
1001
,
1000
0001
1000
0001
1000
0000
0100
0000
,
1000
0010
1000
0000
2000
0000
3001
0000
,
0011
0000
1000
1100
0000
0000
1000
0000
,
1001
0000
0001
0101
0000
0000
1001
0000
,
1000
0001
1000
0000
0001
1000
0001
0000
,
2000
3200
2300
3002
,
1003
0000
1000
0000
0001
0000
0001
1000
,
0001
0000
1000
0100
1000
0000
1001
0000
,
1000
0001
1000
0000
0001
1000
0001
0000
,
2000
3002
0203
0302
,
1003
0000
1000
0000
0001
1000
0001
0000
,
1000
0001
0100
0001
,
1000
0001
1000
0000
0001
1000
0001
0000
,
2000
3002
0203
0302
,
1003
0000
1000
0000
0001
0000
0001
1000
,
0001
1000
1100
0100
,
1000
0001
1000
0000
0001
1000
0001
0000
,
2000
3002
0203
0302
,
1003
0000
0010
0000
1000
0001
1000
0001
,
1000
0000
0001
0000
0100
0001
0100
0002
,
2000
0000
0000
0000
,
3003
0000
0000
0000
;

//--------------- dance-single - ----------------
#NOTES:
     dance-single:
     :
     Hard:
     9:
     0.347,0.325,0.203,0.25,0:
0000
0000
0000
0000
,
0000
0000
0000
0000
,
1000
0001
1000
0001
1000
0000
0100
0000
,
1000
0010
1000
0010
1000
0000
0001
0000
,
1000
0001
1000
0001
2000
0000
3001
0000
,
0001
1000
0001
1000
0002
0000
0003
0000
,
1000
0001
1000
0000
0001
0100
0001
0000
,
1000
0001
1000
0100
0002
0000
1003
0000
,
1001
0000
1000
0000
0001
1000
0001
1000
,
0200
2300
3020
0230
,
0310
0010
0100
0000
0010
0100
0010
0000
,
1000
1000
0001
0100
0001
0000
1001
0000
,
0001
1000
0001
0000
0001
0100
0001
0000
,
0002
2003
3200
2300
,
3010
1000
0010
0000
1000
0001
1000
0000
,
0001
0000
1100
0000
1000
0001
1000
0000
,
1001
0000
0000
1001
0000
0000
1001
0000
,
1000
0001
1000
0100
1000
0000
0001
0000
,
1000
0001
1000
0100
1000
0000
1010
0000
,
0010
1000
0100
1000
0010
0000
1001
0000
,
0001
1000
0100
1000
0010
0000
1001
0000
,
1000
0001
1000
0100
1000
0000
1001
0000
,
1000
0010
1000
0000
1000
0001
1000
0000
,
1100
0000
0000
1010
0000
0000
1001
0000
,
1000
0001
1000
0100
1000
0001
0010
0001
,
2000
0000
3001
0100
0001
1000
0001
1000
,
0001
0000
1000
0000
0001
0100
0001
0000
,
1000
0000
0001
0101
0000
0000
1001
0000
,
1000
0001
0100
0100
0020
0000
1030
0000
,
1000
0001
1000
0000
0200
0000
0310
1000
,
0001
0000
1000
1100
0000
0000
1001
0000
,
1001
0000
0001
0101
0000
0000
1001
0000
,
1000
0001
1000
0100
1000
0001
1000
0000
,
0002
2003
3200
0320
,
1030
0001
1000
0000
0001
0100
0001
0000
,
1000
0001
1100
0101
,
1000
0001
1000
0001
1000
0001
1000
0000
,
0200
0320
2030
3002
,
1003
0100
1000
0000
1000
0001
1000
0000
,
1001
0000
1010
0000
1000
0001
1000
0000
,
0001
1000
0001
1000
0100
1000
0001
0000
,
2000
3002
0203
0302
,
1003
0100
1000
0000
1000
0010
1000
0000
,
0001
0000
0101
0000
1000
0001
1000
0000
,
1000
0001
1000
0100
1000
0001
1000
0000
,
0002
2003
3200
2300
,
3001
1000
0001
0000
1000
0100
1000
0000
,
1000
0000
1010
0000
1000
0001
1000
0200
,
0020
0000
0000
0000
,
0330
0000
0000
0000
;

//--------------- dance-single - ----------------
#NOTES:
     dance-single:
     :
     Challenge:
     12:
     0.467,0.44,0.141,0.234,0.386:
0000
0000
0000
0000
,
0000
0000
0000
0000
,
1000
0001
1000
0000
1000
0010
1000
0000
1000
0100
1000
0000
0001
0000
1000
0000
,
1001
0000
1000
1001
0000
0000
1001
0000
,
1000
0000
0000
0000
0000
0000
0001
0000
0000
0000
0000
0000
1000
0000
0000
0000
0100
0000
0000
0000
0000
0000
1000
0000
0000
0000
0000
0000
0000
0000
0000
0000
0000
1000
0000
0000
0010
0000
0000
0000
0000
0000
0000
0000
0000
0000
0000
0000
,
1000
0000
0000
0001
0000
0000
1000
0000
0100
0000
0000
1000
0000
0000
0000
0000
0000
0000
1010
0000
0000
0000
0000
0000
,
1000
0001
1000
0000
0001
0100
0001
0000
1000
0001
1000
0000
0010
0000
1000
0000
,
0010
0000
1000
0000
0001
0000
1000
0001
0000
0000
0000
0000
1001
0000
0000
0000
,
1001
0001
0100
0001
1000
0100
1000
0001
,
2000
3002
0203
0302
,
1003
0010
1000
0000
1000
0100
1000
0000
1000
0010
1000
0000
1000
0000
0001
0000
,
1000
0000
0001
0000
0100
0000
0001
1000
0000
0000
1000
0000
0000
0000
1000
0000
,
0001
0010
1000
0001
0100
0001
1000
0001
,
2000
3200
2300
3020
,
1030
0001
1000
0000
1000
0100
1000
0000
1000
0010
1000
0000
0010
0000
0100
0000
,
0010
1000
0010
1000
0001
0000
1000
0001
1000
0000
0001
0000
1000
0000
0000
0000
,
1001
0000
0110
0000
0000
0000
1001
0000
0000
0000
0000
0000
1000
0001
0000
0001
,
1000
0000
0100
1000
0100
1000
0000
1000
0000
0001
1000
0000
0001
1000
0000
0000
,
0001
0000
1000
0000
0001
1000
0000
0001
0000
0100
0001
0000
1000
0001
0000
0001
,
1000
0000
1000
0100
1000
0100
0000
1000
0000
1000
0010
0000
0010
1000
0000
0000
,
1000
0000
0001
0000
1000
0001
0000
0001
0000
0001
1000
0000
1000
0100
0000
0100
,
1000
0000
1000
0001
1000
0001
0000
1000
0000
0001
1000
0000
1000
0001
0000
0000
,
1000
0000
0001
0000
1000
0001
0000
0001
0000
1000
0100
1000
0100
1000
0000
0001
,
1000
0000
0000
1001
0000
0000
1001
0000
,
1000
0010
1000
0010
1000
0100
1000
0100
,
2000
0000
0000
0000
3001
0000
0100
0000
0010
0000
1000
0000
0100
0000
1000
0001
,
0000
0000
1000
0000
0100
1000
0000
1000
0000
1000
0100
0000
0100
1000
0000
1000
,
0001
0000
0001
0100
0001
0100
0000
0001
0000
0100
0001
0000
0001
0100
0000
0000
,
1000
0001
1000
0101
0102
0000
1003
0001
,
1000
0100
1000
0000
0002
0000
1003
0100
,
1000
0000
0001
0000
1000
0001
0000
0001
0000
0001
1000
0000
1000
0001
0000
0001
,
1000
0000
0001
1000
0002
0000
0000
0000
1003
0100
1000
0000
1001
0000
0000
0000
,
1001
1000
0001
0100
0001
1000
0010
1000
,
0002
2003
3200
2300
,
3001
0010
0001
0000
1000
0001
1000
0000
1000
0100
1000
0000
1000
0000
0001
0000
,
1000
0000
0100
0000
1000
0000
0001
1000
0000
0000
1001
0000
0000
0000
1000
0000
,
1001
0001
0100
0001
1000
0010
1000
0001
,
2000
3002
0203
0302
,
1003
0010
1000
0000
1000
0100
1000
0000
1000
0001
1000
0000
1000
0000
0001
0000
,
0100
0000
0001
0000
1000
0000
0001
1000
0001
0000
1000
0000
0100
0000
0000
0000
,
1001
0001
1000
0100
1000
0010
0100
0001
,
2000
3002
0203
0302
,
1003
0000
0010
0000
1000
0010
0000
0010
0000
1000
0100
0000
1000
0001
0000
1000
,
0001
0000
1000
0100
1000
0100
0000
1000
0000
1000
0001
0000
0001
1000
0000
0000
,
0001
1000
0001
0100
0001
1000
0010
1000
,
0002
2003
3200
2300
,
3001
0000
1000
0000
0001
0100
0000
0100
0000
0001
1000
0000
0001
1000
0000
1000
,
0001
0100
0001
0100
0001
0000
0001
0100
0001
0000
0001
0000
1000
0000
0002
0000
,
2000
0000
0000
0000
,
3003
0000
0000
0000
;
