#TITLE:My All;
#SUBTITLE:(Classic Club Mix);
#ARTIST:Mariah Carey;
#TITLETRANSLIT:;
#SUBTITLETRANSLIT:;
#ARTISTTRANSLIT:;
#GENRE:;
#CREDIT:;
#MUSIC:My All (Classic Club Mix).ogg;
#BANNER:bn.png;
#BACKGROUND:bg.png;
#CDTITLE:;
#SAMPLESTART:42.069;
#SAMPLELENGTH:12.000;
#SELECTABLE:YES;
#OFFSET:-1.152;
#BPMS:0.000=63.426
,19.000=126.852
;
#STOPS:19.000=1.419
,64.000=1.440
;
#BGCHANGES:9.000=fireworks1.avi=0.500=1=0=1===CrossFade==,
19.000=fireworks1.avi=0.000=0=0=1,
20.000=wheel1.avi=1.000=0=0=1,
36.000=bluey1.avi=1.400=0=0=1,
52.000=lady2.avi=1.000=0=1=1=StretchRewind====,
64.000=lady13.avi=0.500=0=0=0=StretchNoLoop====,
65.000=wheel1.avi=1.000=0=0=1,
73.000=bluey1.avi=1.400=0=0=1,
81.000=blackhole1.avi=1.000=0=0=1,
89.000=light4.avi=1.000=0=0=1,
97.000=snow3.avi=1.000=0=0=1,
104.000=bluey1.avi=1.400=0=0=1,
113.000=ring12.avi=1.000=0=0=1,
125.000=lady13.avi=0.600=0=0=0=StretchNoLoop====,
129.000=wheel1.avi=1.200=0=0=1,
145.000=fireworks1.avi=1.200=0=0=1,
161.000=lady2.avi=1.000=0=0=0=StretchNoLoop====,
173.000=lady13.avi=0.600=0=0=0=StretchNoLoop====,
177.000=wheel1.avi=1.200=0=0=0=StretchNoLoop====,
189.000=My All (Classic Club Mix)-jacket.png=0.500=1=0=1===CrossFade==,
99999.000=-nosongbg-=1.000=0=0=0=StretchNoLoop====
;
#FGCHANGES:;

//--------------- dance-single - ----------------
#NOTES:
     dance-single:
     :
     Beginner:
     2:
     0.126,0.157,0.047,0,0:
0000
0000
0000
0000
,
0000
0000
0000
0000
,
1000
1000
0000
0001
,
0001
0001
0000
1000
,
1000
1000
0000
1001
,
1000
0000
1000
0000
,
0001
0000
0001
0000
,
1000
0000
1000
0000
,
0001
0000
0001
0000
,
1000
0000
1000
0000
,
0001
0000
0001
0000
,
1000
0000
1000
0000
,
0001
0000
0001
0000
,
1000
0000
1000
0000
,
1000
0000
1000
0000
,
0001
0000
0001
0001
,
0001
1001
0000
0000
,
0000
0001
0000
0000
,
0000
0100
0000
0100
,
0000
0100
0000
0100
,
0000
0010
0000
0000
,
0000
1000
0000
0000
,
0000
1000
0000
1000
,
0000
0001
0000
0001
,
0000
1000
0000
0000
,
0000
0001
0000
0000
,
0000
1000
0000
1000
,
0000
0001
0000
0001
,
0000
0100
0000
0000
,
0000
1000
0000
0000
,
0000
0001
0001
0001
,
0000
1001
0000
0000
,
0000
1000
0000
1000
,
0000
0001
0000
0001
,
0000
1000
0000
1000
,
0000
0001
0000
0001
,
0001
0001
0000
1000
,
1000
1000
0000
0001
,
0000
1000
0000
1000
,
0000
1000
0000
0001
,
0001
0001
0000
1000
,
0000
0001
0000
1000
,
0000
0001
0000
1000
,
0000
1001
0000
0000
,
0000
1001
0000
0000
,
0000
1000
0000
0001
,
0000
1000
0000
0000
,
0000
0001
0000
0001
,
0000
1000
0000
0000
;

//--------------- dance-single - ----------------
#NOTES:
     dance-single:
     :
     Easy:
     6:
     0.209,0.225,0.075,0.093,0:
0000
0000
0000
0000
,
0000
0000
0000
0000
,
1000
1000
1000
0001
,
0100
0001
1000
0010
,
1000
2000
0000
3001
,
1001
0000
1000
0000
,
0001
0001
0001
0000
,
0100
0000
0100
0000
,
0001
0001
1000
1000
,
0001
0000
0100
0000
,
1000
1000
0010
0000
,
1000
0000
0001
0000
,
0100
0100
0001
0001
,
1000
0001
1000
0000
,
0001
1000
0001
0000
,
1000
0001
1000
0001
,
1001
2002
0000
0000
,
3003
1000
0001
1000
,
0001
1000
0000
0001
,
0000
1000
1000
0001
,
0001
2001
0000
3100
,
0000
1000
1000
0001
,
0100
0001
0000
1000
,
0000
1000
1000
0010
,
1000
0010
0000
0100
,
0000
0001
0001
1000
,
1000
0001
0000
0100
,
0000
0001
0001
1000
,
1000
0100
1000
0001
,
0000
1000
0001
1000
,
0000
0100
0100
0010
,
0010
0220
0000
0000
,
0330
2001
0000
3001
,
0000
1000
0001
1000
,
0100
1000
0000
0001
,
0000
1000
1000
0001
,
0100
0001
0000
1000
,
0000
1000
0100
1000
,
0010
1000
0000
0001
,
0000
0001
0001
0001
,
0100
0001
1000
0001
,
1000
0001
1000
0100
,
0000
1000
0100
1000
,
0001
2002
0000
0000
,
3003
2001
0000
3001
,
0000
1000
1000
0100
,
1000
0001
0000
0001
,
0000
1000
1000
0100
,
1000
0001
0000
0000
;

//--------------- dance-single - ----------------
#NOTES:
     dance-single:
     :
     Medium:
     9:
     0.334,0.32,0.14,0.168,0.028:
0000
0000
0000
0000
,
0000
0000
0000
0000
,
1000
1000
1000
0000
0001
0000
0100
0001
,
0100
0000
0001
0000
0001
0000
1000
0001
,
1000
0001
0200
0000
0000
0000
0310
0000
,
1001
1000
0001
0100
,
1000
0001
1000
0000
1000
0010
1000
0000
,
0010
0010
0100
0100
,
0001
1000
0001
0000
1000
0100
1000
0000
,
1000
1000
0001
0001
,
1000
0001
1000
0000
0001
0100
0001
0000
,
1000
1000
0100
0100
,
1000
0010
1000
0000
0010
0100
0010
0000
,
0100
0100
0001
0001
,
1000
1000
0010
0010
,
0100
0000
0100
0000
1000
0001
1000
0001
,
1001
0000
0000
0000
2001
0000
0000
0000
0001
0000
0000
0001
0000
0000
3001
0000
,
0000
0000
0000
0000
1002
0000
0000
0000
1000
0000
0000
1000
0000
0000
1003
0000
,
0000
0000
1000
0001
1000
0000
0001
1000
,
0001
0000
1000
0100
1000
0000
1000
0000
,
0001
0000
0000
0000
1002
0000
0000
0000
1000
0000
0000
1000
0000
0000
1003
0000
,
0000
0000
0000
0000
2001
0000
0000
0000
0001
0000
0000
0001
0000
0000
3001
0000
,
0000
0000
1000
0001
1000
0000
0001
1000
,
0001
0000
1000
0100
1000
0000
1000
0000
,
1001
2000
0001
0100
,
3001
0002
1000
0100
,
1003
0000
0001
0001
0000
1000
0000
0001
,
0000
1000
0000
1000
0100
1000
0100
0000
,
0100
0000
1000
0001
1000
0000
0001
0100
,
0001
1000
1000
0001
,
0001
0000
1000
0001
1000
0001
1000
0001
,
1000
0001
2002
0000
0000
0000
0000
0000
,
3003
1002
0100
1000
,
0103
0000
1000
0001
1000
0000
1000
0000
,
0010
0000
1000
0010
1000
0000
1000
0001
,
1000
0001
0001
1000
,
1000
1002
0100
1000
,
0103
2001
0100
0001
,
3100
0000
1000
0001
1000
0001
1000
0000
,
0100
0000
0010
0000
1000
0000
1000
1000
,
1000
0000
0001
1000
0001
0000
1000
0100
,
1000
0001
0001
1000
,
0100
1000
1000
0010
,
1000
2002
0000
0000
,
3003
0000
0000
0000
1002
0000
0000
0000
1000
0000
0000
1000
0000
0000
1003
0000
,
0000
0000
0000
0000
2001
0000
0000
0000
0001
0000
0000
0001
0000
0000
3001
0000
,
0000
0000
1000
0001
1000
0000
1000
0100
,
1000
0000
0001
1000
0001
0000
1000
0000
,
1000
2002
0000
0000
,
3003
0000
0000
0000
;

//--------------- dance-single - ----------------
#NOTES:
     dance-single:
     :
     Hard:
     11:
     0.451,0.411,0.419,0.103,0.116:
0000
0000
0000
0000
,
0000
0000
0000
0000
,
1000
0001
1000
0001
1000
0000
0000
0000
1000
0000
0000
0000
1000
0000
0001
0000
,
1000
0000
0100
0000
1000
0100
1000
0000
1000
0000
0001
0000
1000
0000
0100
0000
,
1000
0100
0200
0000
0000
0300
1001
0000
,
1001
0000
0000
0000
1001
0000
0000
1000
0100
0000
1000
0000
0001
0000
0000
0000
,
1000
0000
0001
0000
1000
0000
0000
0010
1000
0000
0010
0000
1000
0000
0000
0000
,
1001
0000
0000
0000
1001
0000
0000
0001
0100
0000
0100
0000
0001
0000
0000
0000
,
1000
0000
0001
0000
1000
0000
0000
0010
1000
0000
0100
0000
1000
0000
0000
0000
,
1001
0000
0000
0000
1001
0000
0000
0010
1000
0000
1000
0000
0010
0000
0000
0000
,
1000
0000
0001
0000
1000
0000
0000
0001
0100
0000
0100
0000
0010
0000
0000
0000
,
0110
0000
0000
0000
0110
0000
0000
0010
1000
0000
1000
0000
0010
0000
0000
0000
,
1000
0000
0001
0000
1000
0000
0000
1000
0100
0000
1000
0000
0100
0000
0000
0000
,
1000
0001
1000
0000
1000
0100
1000
0000
,
1000
0001
1000
0000
0001
0100
0001
0000
,
1000
0001
0100
0001
1000
0001
0100
0001
,
1001
0000
0000
0000
1001
0000
0000
0000
0101
0000
0000
0101
0000
0000
0101
0000
,
0000
0000
0001
0000
1000
0000
0000
0000
1100
0000
0000
1100
0000
0000
1100
0000
,
0000
1000
0001
1000
0001
0100
0001
1000
,
0100
1000
0001
1000
0001
0000
1000
0001
,
1000
0000
0000
0000
1001
0000
0000
0000
1100
0000
0000
1100
0000
0000
1100
0000
,
0000
0000
1000
0000
0001
0000
0000
0000
0101
0000
0000
0101
0000
0000
0101
0000
,
0000
1000
0001
1000
0001
0002
0000
1003
,
0001
1000
0000
1000
0001
0002
0000
1003
,
0100
0000
1000
0000
0100
0000
1000
0000
0100
0000
0000
1000
0100
0000
0100
0000
,
1000
0000
0000
0000
1000
0000
0010
0000
1000
0000
0000
1000
0001
0000
1000
0000
,
0001
0000
1000
0001
1000
2000
0000
3200
,
0000
1300
0000
0100
1000
0001
1000
0001
,
1000
0000
0001
0000
0000
0000
0001
1000
0001
0000
1000
0100
0000
0000
1000
0000
,
0000
0000
0001
0000
1000
0000
0001
0000
1000
0000
0100
1000
0000
0000
0010
0000
,
0000
0010
1000
0010
1000
0001
1000
0001
,
1000
0001
2002
0000
3000
1000
0000
1000
,
0000
1003
1000
0100
0000
1010
0000
1010
,
0000
1010
0001
1000
0000
1100
0000
1100
,
0000
1100
0001
0000
0100
0001
0200
0000
,
0310
0000
1000
0001
0000
0011
0000
0011
,
0000
1000
0001
1000
0000
1100
0000
1100
,
0000
1000
0001
1000
0000
0101
0000
0101
,
0000
1000
0100
0000
1000
0001
1000
0000
,
0001
0000
0000
0000
1000
0000
0000
0000
0001
0000
0000
1000
0100
1000
0100
1000
,
0100
0000
1000
0001
1000
0100
1000
0001
,
1000
0001
1000
0100
1000
0000
0001
1000
,
0001
0000
1000
0001
1000
0001
1000
0001
,
1000
0001
2001
0000
0000
0001
0000
0001
,
3000
0000
0000
0000
1001
0000
0000
0000
1100
0000
0000
1100
0000
0000
1100
0000
,
0000
0000
0001
0000
1000
0000
0000
0000
0101
0000
0000
0101
0000
0000
0101
0000
,
0000
0001
0001
1000
0100
0000
1000
0001
,
0100
1000
0001
1000
,
2000
0002
0000
0000
,
3003
0000
0000
0000
;

//--------------- dance-single - ----------------
#NOTES:
     dance-single:
     :
     Challenge:
     13:
     0.515,0.548,0.345,0.075,0.266:
0000
0000
0000
0000
,
0000
0000
0000
0000
,
0001
0100
0001
0100
0001
0000
1000
0100
0000
1000
0000
0001
0000
1000
0000
1000
,
0000
1000
0001
0000
1000
0100
1000
0010
0000
1000
0000
0001
1000
0010
1000
0010
,
1000
0010
2000
0000
0002
0000
0000
0000
0000
0000
3003
0000
1001
0000
0000
0000
,
1001
0000
0000
0000
1001
0000
0000
1000
0001
0000
1000
0000
0100
0000
1000
0001
,
1000
0000
0001
0000
0100
0000
0000
0001
0100
0000
0010
0000
0010
0000
0000
0000
,
1001
0000
0000
0000
0101
0000
0000
0010
1000
0000
1000
0000
0001
0000
1000
0100
,
1000
0000
0001
0000
1000
0000
0000
0001
1000
0000
0100
0000
0100
0000
0000
0000
,
1001
0000
0000
0000
1001
0000
0000
1000
0001
0000
0001
0000
0100
0000
0001
0010
,
0100
0000
1000
0000
0001
0000
1000
0001
0100
0000
0100
0000
0100
0000
0000
0000
,
1001
0000
0000
0000
1001
0000
0000
1000
0100
0000
1000
0000
0001
0000
0100
0001
,
0100
0000
0010
0000
0100
0000
0010
0100
0010
0000
1000
0000
1000
0000
0000
0000
,
1000
0001
1000
0100
1000
0010
1000
0000
,
0001
1000
0001
1000
0001
0100
0010
0000
,
1100
0000
1100
0000
1100
0000
1000
0100
1000
0000
0110
0000
0110
0000
0110
0000
,
1001
0000
0000
0000
1001
0000
0001
0000
1000
0000
1000
0001
0000
0001
1000
0000
,
0000
0000
1000
0000
1000
0000
0100
0000
1000
0000
1000
0010
0000
0010
1000
0000
,
0000
1000
1000
0001
0100
0001
1000
0010
,
1000
0001
1000
1000
0001
0001
0100
0010
,
1000
0000
0000
0000
0001
0000
1000
0000
0001
0000
0100
0001
0000
0001
0100
0000
,
0000
0000
1000
0000
1000
0000
0001
0000
0100
0000
0010
0100
0000
0100
0010
0000
,
0000
1000
1000
0001
1000
0100
1000
0001
,
1000
0010
1000
0001
1000
0100
1000
0001
,
1000
0000
0000
0000
1000
0000
0001
0000
0100
0000
0010
1000
0000
1000
0010
0000
,
1000
0000
0000
0000
1000
0000
0001
0000
1000
0000
0001
0100
0000
0100
0001
0000
,
0001
0000
1000
0001
1000
0100
1000
0001
,
1000
0001
0000
1000
0100
1000
0001
1000
,
0001
0000
1000
0000
0000
0000
0001
1000
0001
1000
0001
1000
0000
0000
0100
0000
,
0000
0000
0100
0000
0100
0000
0001
0000
1000
0000
1000
0010
0000
0000
0010
0000
,
0000
0000
1000
0000
0011
0000
0011
0000
0011
0000
1000
0001
1000
0000
1100
0000
,
1100
1100
2010
0001
0000
0001
0000
0001
,
0000
3001
1001
1000
0000
1010
0000
1100
,
0000
1000
1001
0001
0000
0011
0000
0101
,
0000
0000
0011
0000
1000
0000
0001
0000
1000
0000
0100
1000
0100
0000
1000
0000
,
0001
0000
0000
0000
1000
0000
0001
0000
1000
0000
0100
1000
0000
1000
0001
0000
,
1000
0000
1000
0001
1000
1100
0000
1010
,
0000
1000
1000
0001
0100
0101
0000
0011
,
0000
0000
0001
0000
1000
0000
0000
0000
1000
0000
0001
1000
0002
0000
0000
0000
,
1003
0000
0000
0000
1000
0000
0000
0000
0100
0000
0000
1000
0010
1000
0010
1000
,
0100
0000
1000
0001
0100
0001
1000
0100
,
1000
0000
0001
0000
0010
0000
1000
0000
1000
0000
0000
0001
0000
0000
0001
0000
,
0000
1000
1000
0001
0100
0001
1000
0001
,
1000
0001
1002
0000
0000
1000
0000
2000
,
0000
0000
3003
0000
1001
0000
1000
0000
0001
0000
0100
0001
0000
0001
0100
0000
,
0000
0000
1000
0000
1000
0000
0100
0000
1000
0000
0010
1000
0000
1000
0010
0000
,
0000
1000
1000
0001
1000
0000
0100
0001
,
0100
0000
1000
0001
1000
0010
0000
2000
,
0000
0001
0002
0000
0000
0000
0000
0000
,
3003
0000
0000
0000
;
