#TITLE:Mind Body Soul;
#SUBTITLE:;
#ARTIST:Square One;
#TITLETRANSLIT:;
#SUBTITLETRANSLIT:;
#ARTISTTRANSLIT:;
#GENRE:;
#CREDIT:;
#MUSIC:Mind Body Soul.ogg;
#BANNER:bn.png;
#BACKGROUND:bg.png;
#CDTITLE:;
#SAMPLESTART:75.280;
#SAMPLELENGTH:10.024;
#SELECTABLE:YES;
#OFFSET:0.032;
#BPMS:0.000=95.399
,8.000=94.874
,10.000=95.682
,11.000=73.094
,11.500=95.835
,12.000=95.766
;
#STOPS:;
#DISPLAYBPM:96.000;
#BGCHANGES:8.000=girl2a.avi=1.000=1=0=1===CrossFade==,
16.000=night1.avi=1.000=0=0=1,
24.000=silhouette1.avi=1.000=0=0=1,
27.000=wheel7.avi=1.000=0=0=1,
27.250=wheel7r.avi=1.000=0=0=1,
27.500=wheel7.avi=1.000=0=0=1,
27.750=wheel7r.avi=1.000=0=0=1,
28.000=singer1.avi=1.000=0=0=1,
32.000=dance10.avi=0.900=0=0=1,
36.000=wheel7.avi=1.000=0=0=1,
36.250=wheel7r.avi=1.000=0=0=1,
36.500=wheel7.avi=1.000=0=0=1,
36.750=wheel7r.avi=1.000=0=0=1,
37.000=wheel7.avi=1.000=0=0=1,
40.000=dog2.avi=0.700=0=0=1,
48.000=dance10.avi=0.900=0=0=1,
56.000=car4.avi=1.000=0=0=1,
64.000=ring6.avi=0.800=0=0=1,
72.000=text17.avi=1.000=0=0=1,
80.000=silhouette1.avi=1.000=0=0=1,
88.000=ring4.avi=0.700=0=0=1,
96.000=singer1.avi=1.000=0=0=1,
104.000=night1.avi=1.000=0=0=1,
112.000=vortex1r.avi=1.000=0=0=1,
120.000=silhouette2.avi=1.200=0=0=1,
128.000=text15.avi=1.000=0=0=1,
136.000=ring12.avi=0.800=0=0=1,
144.000=ring10.avi=0.900=0=0=1,
152.000=dance10.avi=0.900=0=0=1,
160.000=silhouette1.avi=1.000=0=0=1,
168.000=vortex1r.avi=0.800=0=0=1,
176.000=text17.avi=0.900=0=0=1,
183.000=Mind Body Soul-jacket.png=0.600=1=0=1===CrossFade==,
99999.000=-nosongbg-=1.000=0=0=0=StretchNoLoop====
;
#FGCHANGES:;

//--------------- dance-single - ----------------
#NOTES:
     dance-single:
     :
     Beginner:
     1:
     0.093,0.138,0.051,0,0:
0000
0000
0000
0000
,
0000
0000
0000
0000
,
1000
0000
0000
0000
,
1000
0000
0001
0000
,
1001
0000
0000
0000
,
1000
0000
1000
0000
,
1001
0000
0000
0000
,
1000
0000
0001
0000
,
1001
0000
0000
0000
,
1000
0000
1000
0000
,
1000
0000
0000
0001
,
0001
0000
1000
0000
,
1001
0000
0000
0100
,
0100
0000
0100
0000
,
0110
0000
0000
0000
,
1000
0000
0001
0000
,
1000
0000
0000
0000
,
0100
0000
0010
0000
,
0100
0000
0000
0000
,
0001
0000
0001
0000
,
1000
0000
0000
0000
,
1000
0000
0100
0000
,
0100
0000
0000
0000
,
0001
0000
0001
0000
,
0001
0000
0000
0000
,
1000
0000
1000
0000
,
1000
0000
0000
0000
,
0001
0000
0100
0000
,
0001
0000
0000
0000
,
1000
0000
1000
0000
,
1001
0000
0000
0000
,
1000
0000
0000
1000
,
1000
0000
0000
0000
,
0001
0000
0000
0001
,
0001
0000
0000
0000
,
1000
0000
0000
1000
,
1000
0000
0000
0000
,
1000
0000
0000
0001
,
0001
0000
0000
0000
,
0001
0000
0000
0001
,
0001
0000
0000
0000
,
1000
0000
0000
1000
,
1000
0000
0000
0000
,
0001
0000
0000
1000
,
1000
0000
0000
0000
,
0001
0000
1000
1000
,
1000
0000
0000
0000
;

//--------------- dance-single - ----------------
#NOTES:
     dance-single:
     :
     Easy:
     4:
     0.19,0.177,0.18,0,0:
0000
0000
0000
0000
,
0000
0000
0000
0000
,
1000
0000
1000
1000
,
1000
0000
0001
0001
,
1001
0000
1000
0001
,
1000
0000
1000
0001
,
1001
0000
1000
0001
,
1000
0000
0100
0100
,
0110
0000
0001
0001
,
1000
0000
1000
0001
,
1001
0000
0001
0001
,
0001
0000
1000
0100
,
1001
0000
1000
0100
,
0001
0000
0001
0100
,
1001
0000
1000
0001
,
1000
0000
1000
0001
,
0110
0000
1000
0100
,
0100
0000
1000
0001
,
1001
0000
0001
0001
,
0001
0000
1000
1000
,
0110
0000
0001
0001
,
1000
0000
1000
0100
,
0110
0000
0001
1000
,
0100
0000
1000
0100
,
0110
0000
0001
0001
,
0001
0000
1000
0100
,
1001
0000
1000
0001
,
0001
0000
1000
0100
,
1000
0001
1000
0001
,
1000
0000
0100
0100
,
0110
0000
0000
1000
0000
0000
0001
0000
,
1000
0000
0100
0100
,
0110
0000
0000
0001
0000
0000
1000
0000
,
0100
0000
1000
0001
,
1001
0000
0000
1000
0000
0000
0100
0000
,
1000
0000
0001
0001
,
1001
0000
0000
1000
0000
0000
0100
0000
,
1000
0000
0001
0001
,
1001
0000
0000
1000
0000
0000
0001
0000
,
1000
0000
0001
1000
,
1001
0000
0000
0001
0000
0000
1000
0000
,
0100
0000
1000
0100
,
0110
0000
0000
0001
0000
0000
1000
0000
,
1000
0000
0001
1000
,
1001
0000
0000
0100
0000
0000
1000
0000
,
1000
0000
0001
1000
,
1001
0000
0000
0000
;

//--------------- dance-single - ----------------
#NOTES:
     dance-single:
     :
     Medium:
     6:
     0.285,0.296,0.171,0,0.009:
0000
0000
0000
0000
,
0000
0000
0000
0000
,
1000
0000
1000
0000
0001
0000
1000
1000
,
0001
0000
0100
0001
,
0110
0000
0100
0010
0000
0000
0010
0100
,
0010
0000
0000
1000
0001
0000
1000
0000
,
1001
0000
0001
0001
0000
0000
1000
0001
,
1000
0000
1000
0000
0001
1000
0001
0000
,
1001
0000
0001
1000
0000
0000
1000
0100
,
1000
0000
0001
0000
1000
0001
1000
0000
,
1001
0000
1000
0001
0000
0000
1000
0001
,
0001
0000
0000
0100
1000
0000
0100
0000
,
1001
0000
1000
1000
0000
0000
0100
0001
,
0100
1000
0001
1000
,
1001
0000
0001
0001
0000
0000
0100
0000
,
0010
0000
0000
1000
1000
0000
0001
0000
,
1001
0000
1000
0100
0000
0000
1000
0010
,
1000
0001
1000
0001
,
1001
0000
1000
1000
0000
0000
0001
1000
,
0001
1000
1000
1000
,
1001
0000
0001
1000
0000
0000
1000
0001
,
1000
1000
0001
0100
,
0101
0000
1000
1000
0000
0000
1000
0100
,
1000
0001
1000
0100
,
0110
0000
0010
0010
0000
0000
1000
1000
,
0001
1000
0001
0100
,
0101
0000
0100
0001
0000
0000
0010
1000
,
0010
0000
1000
0000
0001
0100
0001
0000
,
1000
0001
1000
0000
0001
1000
0001
0000
,
1000
0000
0000
0000
1000
0001
1000
0000
,
1001
0000
1000
0001
0000
0001
1000
0001
,
1000
0100
1000
0001
,
1001
0000
1000
0001
0000
1000
0100
1000
,
0100
1000
0001
0100
,
0101
0000
0010
0010
0000
1000
0010
1000
,
0010
1000
0001
0100
,
0110
0000
0010
1000
0000
1000
0001
0100
,
0100
0000
0000
1000
1000
0100
0100
0000
,
1001
0000
1000
0001
0000
0001
1000
0001
,
1000
0100
1000
0001
,
1001
0000
1000
0100
0000
1000
1000
0001
,
1000
0001
1000
0001
,
1000
0001
1000
0000
1000
0001
1000
0100
,
0100
1000
0001
1000
,
1001
0000
1000
0010
0000
0010
1000
1000
,
0100
0000
0000
0000
0000
0000
0001
1000
0000
0001
1000
0000
0001
0000
0000
0000
,
1001
0000
0000
0000
;

//--------------- dance-single - ----------------
#NOTES:
     dance-single:
     :
     Hard:
     10:
     0.377,0.335,0.146,0,0.107:
0000
0000
0000
0000
,
0000
0000
0000
0000
,
1000
0000
0001
0000
1000
0001
1000
0100
,
0100
0000
0001
1000
0001
1000
0100
0000
,
1001
0000
1000
0001
0000
1000
0001
1000
,
0100
0000
1000
0001
1000
0001
0100
0000
,
0110
0000
0000
0000
1000
0000
0001
0000
0000
0000
0001
0000
1000
0001
1000
0001
,
1000
0000
1000
0001
0100
0000
0010
0000
,
1000
0001
1000
0001
0000
1000
0001
1000
,
0001
1000
0001
1000
0001
0000
0000
0000
1000
0000
0001
0000
0100
0000
0000
0000
,
1000
0001
1000
0100
0000
1000
0001
1000
,
1000
0000
0000
0000
0001
0000
1000
0100
0000
0000
1000
0000
1000
0000
0001
0000
,
1001
0000
0001
1000
0000
1000
0100
1000
,
0100
0000
0000
0000
0001
0000
1000
0001
0000
0000
0001
0000
1000
0000
0001
0000
,
1001
0000
1000
0100
0000
1000
0100
1000
,
1000
0000
0000
0000
0001
0000
1000
0001
0000
0000
1000
0000
0001
0000
0100
0000
,
0101
0000
0010
0010
0000
1000
0001
1000
,
1000
0000
0000
0000
1000
0000
0001
1000
0000
0000
1000
0000
0010
0000
0100
0000
,
0110
0000
0010
0010
0000
1000
0001
1000
,
1000
0000
0000
0000
0001
0000
1000
0010
0000
0000
0100
0000
0010
0000
0100
0000
,
0110
0000
1000
1000
0000
0001
1000
0100
,
0100
0000
0000
0000
0010
0000
1000
0010
0000
0000
1000
0000
0001
0000
0100
0000
,
0110
0000
0001
0001
0000
1000
0100
1000
,
0100
0000
0000
0000
1000
0000
0001
1000
0000
0000
1000
0000
0100
0000
1000
0000
,
1100
0000
0010
0100
0000
1000
0001
1000
,
1000
0000
0000
0000
0001
0000
1000
0100
0000
0000
1000
0000
0100
0000
1000
0000
,
1010
0000
0010
1000
0000
1000
0001
0001
,
1000
0000
0000
0000
0001
0000
0001
0010
0000
0000
0001
0000
0010
0000
0010
0000
,
0001
1000
0001
1000
0100
1000
0001
1000
,
0001
0000
0000
0000
0000
0000
1000
0001
0000
0001
1000
0000
0001
0000
1000
0000
,
1001
0000
0001
1000
0000
1000
0001
1000
,
1000
0000
0000
0000
1000
0000
0001
1000
0000
0000
0001
0000
1000
0000
0001
0000
,
0101
0000
1000
0001
0000
1000
0010
1000
,
1000
0000
0000
0000
1000
0000
0100
1000
0000
0000
0010
0000
1000
0000
0001
0000
,
1001
0000
0001
1000
0000
1000
0010
1000
,
0010
0000
0000
0000
1000
0000
0001
0100
0000
0000
0001
0000
0010
0000
0010
0000
,
0110
0000
0010
0010
0000
1000
1000
0001
,
0100
0000
0000
0000
0000
0000
0001
1000
0000
1000
0001
0000
0100
0000
0100
0000
,
0110
0000
1000
0001
0000
1000
0001
0100
,
0100
0000
0000
0000
0001
0000
1000
0001
0000
0000
1000
0000
1000
0000
0000
0000
,
1001
0000
0100
1000
0000
1000
1000
0001
,
0001
0000
0000
0000
1000
0000
0001
1000
0000
0000
1000
0000
0001
0000
0000
0000
,
1000
0001
1000
0001
0100
0001
1000
0001
,
1000
0000
0000
0000
1000
0000
0001
1000
0000
0000
0100
0000
0100
0000
0000
0000
,
1000
0001
1000
0001
1000
0100
1000
0001
,
1000
0000
0000
0000
0000
0000
0001
1000
0000
1000
0001
0000
1000
0000
0001
0000
,
1001
0000
0000
0000
;

//--------------- dance-single - ----------------
#NOTES:
     dance-single:
     :
     Challenge:
     13:
     0.476,0.433,0.471,0,0.266:
0000
0000
0000
0000
,
0000
0000
0000
0000
,
1000
0001
1000
0001
0000
1000
0001
1000
,
1000
0000
0000
0000
0001
0000
1000
0001
0000
0001
1000
0000
0010
0000
1000
0000
,
1010
0000
0010
1000
0000
1000
0001
1100
,
1100
0000
0000
0000
1000
0000
0001
1000
0000
1000
0001
0000
1000
0000
0001
0000
,
1001
0000
0000
0000
1000
0000
0100
0000
0000
0000
1000
0000
0001
1000
0001
1000
,
0001
1000
0000
0000
1000
0000
0001
1000
0000
1000
0001
0000
0001
0000
0100
0000
,
0101
0000
0010
0010
0000
1000
0001
1000
,
0001
1000
0001
1000
0001
0000
1000
0000
0100
0000
0000
0000
0100
0000
1000
0000
0000
0000
1000
0000
0100
0000
0000
0000
1000
0000
0000
0000
0001
0000
0000
0000
,
1001
0000
1000
0001
0000
1000
0100
1100
,
1100
0000
0000
0000
1000
0000
0001
0010
0000
0010
0001
0000
1000
0000
1000
0000
,
1001
0000
1000
0001
0000
0001
0100
0101
,
0101
0000
0000
0000
1000
0000
0010
1000
0000
1000
0100
0000
1000
0000
0001
0000
,
1001
0000
1000
0001
0000
1000
0100
1010
,
1010
0000
0000
0000
1000
0000
0001
1000
0000
1000
0100
0000
1000
0000
0001
0000
,
1001
0000
0001
0001
0000
1000
0100
1100
,
1100
0000
0000
0000
1000
0000
0001
1000
0000
1000
0100
0000
0010
0000
0100
0000
,
1100
0000
0001
1000
0000
1000
0001
0101
,
0101
0000
0000
0000
1000
0000
0010
1000
0000
1000
0010
0000
1000
0000
1000
0000
,
1001
0000
1000
0001
0000
1000
0010
0110
,
0110
0000
0000
0000
1000
0000
0001
1000
0000
1000
0001
0000
1000
0000
0001
0000
,
1001
0000
0001
1000
0000
1000
0010
1010
,
1010
0000
0000
0000
1000
0000
0001
1000
0000
1000
0100
0000
0001
0000
1000
0000
,
1001
0000
1000
0010
0000
1000
0001
0101
,
0101
0000
0000
0000
0010
0000
0100
0001
0000
0001
0100
0000
0001
0000
1000
0000
,
1001
0000
1000
0001
0000
1000
0010
1100
,
1100
0000
0000
0000
0001
0000
1000
0100
0000
0100
1000
0000
1000
0000
0001
0000
,
1000
0001
0100
0001
0010
0100
1000
0001
,
0001
0000
0000
0000
1000
0000
0001
0100
0000
0100
0001
0000
1000
0000
0001
0000
,
1001
0000
0000
0000
1000
0000
0001
1000
0001
0000
0001
0100
0000
0000
1001
0000
,
1001
0000
0000
0000
1000
0000
0001
1000
0000
1000
0001
0000
0010
0000
0010
0000
,
0110
0000
0000
0000
1000
0000
0001
0000
1000
0001
1000
0001
0000
0000
1100
0000
,
1100
0000
0000
0000
1000
0000
0001
0000
0100
0010
0100
0010
0000
0000
1000
0000
,
1001
0000
0000
0000
1000
0000
0001
0000
1000
0000
1000
0100
0000
0100
1000
0000
,
1000
0001
1000
0000
0001
0000
0001
1000
0001
1000
0001
1000
0000
0000
1000
0000
,
1001
0000
0000
0000
0001
0000
1000
0000
0010
1000
0010
1000
0000
0000
0110
0000
,
1001
0000
0000
0000
0000
0000
0001
1000
0001
1000
0001
0100
0000
0000
0100
0000
,
1001
0000
1000
1001
0000
1000
0100
1100
,
1100
0000
0000
0000
1000
0000
0001
1000
0000
1000
0001
0000
1000
0000
0100
0000
,
1100
0000
1000
1001
0000
0001
0100
0101
,
0101
0000
0000
0000
1000
0000
1000
0100
0000
0100
1000
0000
1000
0000
0010
0000
,
1000
0001
1000
0001
1000
0001
0100
0101
,
0101
0000
0000
0000
1000
0000
0001
1000
0000
1000
0001
0000
1000
0000
0100
0000
,
1000
0100
1000
0100
0001
1000
0001
1001
,
1001
0000
0000
0000
0000
0000
1000
0001
0000
0001
1000
0000
0001
0000
0100
0000
,
0101
0000
0000
0000
;
