#TITLE:Love Me or Leave Me;
#SUBTITLE:;
#ARTIST:Collage;
#TITLETRANSLIT:;
#SUBTITLETRANSLIT:;
#ARTISTTRANSLIT:;
#CREDIT:;
#BANNER:Love Me or Leave Me.png;
#BACKGROUND:Love Me or Leave Me-bg.png;
#LYRICSPATH:;
#CDTITLE:;
#MUSIC:Love Me or Leave Me.ogg;
#OFFSET:-0.082;
#SAMPLESTART:64.522;
#SAMPLELENGTH:15.000;
#SELECTABLE:YES;
#DISPLAYBPM:97.000:138.000;
#BPMS:0.000=137.645,184.000=96.865,216.000=102.925,217.000=103.687,218.000=105.225,219.000=108.208,220.000=110.089,221.000=112.233,222.000=115.159,223.000=117.773,224.000=118.729,225.000=121.454,226.000=123.179,227.000=126.265,228.000=128.850,229.000=130.899,230.000=132.016,231.000=135.007,232.000=137.006,233.000=137.647,247.000=137.712,252.000=138.830,255.000=133.805,256.000=137.576,260.000=138.740,263.000=134.362,264.000=139.719,265.000=138.585,266.000=142.174,267.000=131.865;
#STOPS:;
#BGCHANGES:16.000=web1.avi=1.000=1=0=1,
32.000=square1.avi=1.000=0=0=1,
48.000=rotation5.avi=1.200=0=0=1,
64.000=tunnel10.avi=1.200=0=0=1,
80.000=heart1.avi=1.000=0=0=1,
96.000=kaliedoscope8.avi=1.000=0=0=1,
112.000=rotation5.avi=1.200=0=0=1,
128.000=web1.avi=1.000=0=0=1,
144.000=wheel1.avi=0.500=0=0=1,
146.375=wheel1.avi=2.000=0=0=1,
148.000=heart1.avi=1.200=0=0=1,
156.000=kaliedoscope8.avi=1.000=0=0=1,
164.000=heart1.avi=1.200=0=0=1,
172.000=kaliedoscope8.avi=1.000=0=0=1,
180.000=wheel1.avi=0.500=0=0=1,
184.000=spiral2.avi=1.000=0=0=1,
192.000=rotation5.avi=1.000=0=0=1,
200.000=spiral2.avi=1.000=0=0=1,
208.000=heart1.avi=1.000=0=0=1,
216.000=pills1.avi=1.000=0=0=1,
220.000=pills2.avi=1.000=0=0=1,
224.000=pills1.avi=1.200=0=0=1,
228.000=pills2.avi=1.200=0=0=1,
232.000=pills1.avi=1.400=0=0=1,
236.000=pills2.avi=1.400=0=0=1,
240.000=pills1.avi=1.600=0=0=1,
244.000=pills2.avi=1.600=0=0=1,
247.500=wheel1.avi=0.500=0=0=1,
250.500=wheel1.avi=2.000=0=0=1,
252.000=heart1.avi=1.000=0=0=1,
260.000=kaliedoscope8.avi=1.000=0=0=1,
268.000=Love Me or Leave Me-bg.png=1.000=0=0=1,
99999=-nosongbg-=1.000=0=0=0 // don't automatically add -songbackground-
;

//---------------dance-single - ----------------
#NOTES:
     dance-single:
     :
     Beginner:
     3:
     0.173,0.212,0.166,0.000,0.000: // measure 1
0000
0000
0000
0000
,  // measure 2
0000
0000
0000
0000
,  // measure 3
0000
0000
0000
0000
,  // measure 4
0000
0000
0000
0000
,  // measure 5
1000
0000
1000
0000
,  // measure 6
0001
0000
0100
0000
,  // measure 7
0001
0000
0000
0000
,  // measure 8
1000
0000
0100
0000
,  // measure 9
1000
0000
0001
0000
,  // measure 10
1000
0000
0001
0000
,  // measure 11
0100
0000
0000
0000
,  // measure 12
0100
0000
0001
0000
,  // measure 13
1000
0000
0001
0000
,  // measure 14
0100
0000
0100
0000
,  // measure 15
0001
0000
0000
0000
,  // measure 16
1000
0000
0001
0000
,  // measure 17
1001
0000
0000
0000
,  // measure 18
1001
0000
0000
0000
,  // measure 19
0110
0000
0000
0000
,  // measure 20
0110
0000
0000
0000
,  // measure 21
1001
0000
1000
0000
,  // measure 22
0001
0000
0100
0000
,  // measure 23
0001
0001
0000
1000
,  // measure 24
1000
0000
0001
0000
,  // measure 25
0100
0000
1000
0000
,  // measure 26
0100
0000
1000
0000
,  // measure 27
0010
0010
0000
0001
,  // measure 28
0001
0000
0100
0000
,  // measure 29
1001
0000
0001
0000
,  // measure 30
0100
0000
0001
0000
,  // measure 31
1000
1000
0000
0001
,  // measure 32
0001
0000
0100
0000
,  // measure 33
0001
0000
0010
0000
,  // measure 34
0001
0000
1000
0000
,  // measure 35
0100
0100
0000
0100
,  // measure 36
0100
0000
1000
0000
,  // measure 37
1001
0000
0000
0000
,  // measure 38
1001
0000
0100
0000
,  // measure 39
0001
0001
0001
0000
,  // measure 40
0110
0000
0010
0000
,  // measure 41
1000
1000
0001
0000
,  // measure 42
1001
0000
0100
0000
,  // measure 43
1000
1000
0010
0000
,  // measure 44
1001
0000
0100
0000
,  // measure 45
0001
0001
0001
0000
,  // measure 46
1001
0000
0000
0000
,  // measure 47
1000
1000
1000
0000
,  // measure 48
0001
0100
0001
0000
,  // measure 49
1001
0000
0100
0000
,  // measure 50
1001
0000
0100
0000
,  // measure 51
0001
0001
0001
0000
,  // measure 52
1000
0000
0100
0000
,  // measure 53
1000
1000
1000
0000
,  // measure 54
0010
0000
0100
0000
,  // measure 55
1001
0000
0001
0000
,  // measure 56
1001
0000
1000
0000
,  // measure 57
1001
0000
0001
0000
,  // measure 58
1001
0000
1000
0000
,  // measure 59
0100
0000
0001
0000
,  // measure 60
0100
0000
1000
0000
,  // measure 61
0010
0000
1000
0000
,  // measure 62
0001
0000
1000
1000
,  // measure 63
1000
0000
0000
0000
,  // measure 64
1001
0000
0001
0000
,  // measure 65
0100
0100
0100
0000
,  // measure 66
1001
0000
0010
0000
,  // measure 67
1000
1000
0001
0000
,  // measure 68
1001
0000
0000
0000
;

//---------------dance-single - ----------------
#NOTES:
     dance-single:
     :
     Easy:
     7:
     0.242,0.323,0.135,0.095,0.000: // measure 1
0000
0000
0000
0000
,  // measure 2
0000
0000
0000
0000
,  // measure 3
0000
0000
0000
0000
,  // measure 4
0000
0000
0000
0000
,  // measure 5
1000
0001
0100
0000
,  // measure 6
1000
0010
1000
0000
,  // measure 7
0110
0000
0100
0000
,  // measure 8
0001
0100
0001
0000
,  // measure 9
1001
0000
0010
0000
,  // measure 10
1000
0001
0100
0000
,  // measure 11
1001
0000
1000
0000
,  // measure 12
0010
1000
0010
0000
,  // measure 13
1001
0000
0100
0000
,  // measure 14
0001
1000
0010
0000
,  // measure 15
1010
0000
1000
0000
,  // measure 16
0001
0100
0010
0100
,  // measure 17
0002
0000
0003
0000
,  // measure 18
2000
0000
3000
0000
,  // measure 19
0020
0000
0030
0000
,  // measure 20
0200
0000
0300
0000
,  // measure 21
0001
1000
0001
0000
,  // measure 22
1000
0010
1000
0000
,  // measure 23
0100
1000
0100
1000
,  // measure 24
0010
0000
0010
0000
,  // measure 25
0001
1000
0100
0000
,  // measure 26
1000
0001
0010
0000
,  // measure 27
1000
0010
1000
0001
,  // measure 28
0100
0000
0100
0000
,  // measure 29
0001
1000
0010
0000
,  // measure 30
1000
0100
0001
0000
,  // measure 31
0010
0010
0000
0001
,  // measure 32
0001
0000
1000
0000
,  // measure 33
0001
0100
0001
0000
,  // measure 34
1000
0100
0001
0000
,  // measure 35
0010
1000
0100
1000
,  // measure 36
0001
1000
0001
0000
,  // measure 37
2002
0000
0000
3003
,  // measure 38
1000
0001
0100
0001
,  // measure 39
1000
0010
1000
0000
,  // measure 40
0001
0100
0001
0000
,  // measure 41
1000
0001
1000
0000
,  // measure 42
1001
1000
0010
1000
,  // measure 43
0001
0100
0001
0000
,  // measure 44
1000
0100
1000
0000
,  // measure 45
0010
0010
0100
0100
,  // measure 46
0220
0000
0330
0000
,  // measure 47
1001
0001
0100
0001
,  // measure 48
1000
0010
1000
0001
,  // measure 49
1000
0000
0001
0000
,  // measure 50
0100
0000
0001
0000
,  // measure 51
1000
0010
1000
0100
,  // measure 52
1000
0001
1000
0000
,  // measure 53
1001
0000
0100
0000
,  // measure 54
0001
0000
0001
0000
,  // measure 55
1001
0100
0100
0100
,  // measure 56
1001
0010
0010
0010
,  // measure 57
1001
0100
0100
0100
,  // measure 58
1001
0010
0010
0010
,  // measure 59
1000
0001
1000
0100
,  // measure 60
1000
0001
1000
0001
,  // measure 61
1000
0100
1000
0001
,  // measure 62
0100
0001
1000
0001
,  // measure 63
2002
0000
3003
0000
,  // measure 64
1001
0100
1000
0010
,  // measure 65
1000
0001
0100
0000
,  // measure 66
0001
1000
0010
1000
,  // measure 67
0001
0001
1000
1000
,  // measure 68
2002
0000
0000
0000
,  // measure 69
3003
0000
0000
0000
;

//---------------dance-single - ----------------
#NOTES:
     dance-single:
     :
     Medium:
     11:
     0.389,0.458,0.435,0.206,0.000: // measure 1
0000
0000
0000
0000
,  // measure 2
0000
0000
0000
0000
,  // measure 3
0000
0000
0000
0000
,  // measure 4
0000
0000
0000
0000
,  // measure 5
1000
0000
0001
0000
0100
0000
0001
1000
,  // measure 6
0000
1000
0000
1000
0010
0000
1000
0000
,  // measure 7
2002
0003
0001
3001
,  // measure 8
1000
0010
1000
0000
0001
0000
0100
0000
,  // measure 9
1001
0000
1000
0000
0010
0000
1000
0001
,  // measure 10
0000
0001
0000
0001
0100
0000
0010
0000
,  // measure 11
0120
0000
0100
0130
,  // measure 12
1000
0001
1000
0000
1000
0000
0100
0000
,  // measure 13
1001
0000
0001
0000
0100
0000
0001
0010
,  // measure 14
0000
0010
0000
0010
0100
0000
1000
0000
,  // measure 15
2001
0000
0100
3100
,  // measure 16
0001
1000
0010
0000
1000
0000
1100
0000
,  // measure 17
1002
0100
0010
0103
,  // measure 18
2010
0001
0100
3001
,  // measure 19
1002
0100
1000
0013
,  // measure 20
1000
0001
0100
0001
0010
0000
0110
0000
,  // measure 21
1000
0000
0010
1000
0000
1000
0000
0000
,  // measure 22
1001
0000
0001
0100
0000
0100
0000
0000
,  // measure 23
1000
1001
1001
1000
,  // measure 24
1100
1010
1100
0000
,  // measure 25
1001
0000
1000
0010
0000
0010
0000
0000
,  // measure 26
1001
0000
0001
0100
0000
0100
0000
0000
,  // measure 27
1001
1001
0001
0101
,  // measure 28
0101
0011
0101
0000
,  // measure 29
1001
0000
1000
0010
0000
0000
0010
1000
,  // measure 30
0000
0000
1000
0001
0000
0000
1000
0000
,  // measure 31
1001
1001
1000
1100
,  // measure 32
1100
1010
1100
0000
,  // measure 33
1001
0000
1000
0010
0000
0000
1000
0010
,  // measure 34
0000
0000
0001
0100
0000
0000
1000
0000
,  // measure 35
1001
0000
1001
0000
0001
0100
0001
0000
,  // measure 36
0011
0101
1001
1100
,  // measure 37
2002
0000
0000
3003
,  // measure 38
1001
0000
1000
0000
1000
0000
0001
0100
,  // measure 39
0000
0100
0000
0001
1000
0000
1001
0000
,  // measure 40
1000
0000
0001
0000
0100
0000
0001
1000
,  // measure 41
0002
2003
3020
2030
,  // measure 42
3001
0000
1000
0000
0001
0000
1000
0010
,  // measure 43
0000
0010
0000
1000
0001
0000
0110
0000
,  // measure 44
1000
0000
0001
0000
0100
0000
0001
1000
,  // measure 45
0020
2030
3200
1300
,  // measure 46
2002
0000
0000
3003
,  // measure 47
1001
0000
1000
0000
0001
0000
0100
0001
,  // measure 48
0000
1000
0000
0010
0000
1000
0000
0001
,  // measure 49
1001
0000
1000
0000
0100
0000
1000
0002
,  // measure 50
0000
0003
1000
0200
0300
1000
0100
0000
,  // measure 51
1001
0000
1000
0000
1000
0000
1000
0010
,  // measure 52
0000
1000
0000
0001
0000
0100
0000
0001
,  // measure 53
1001
1000
0010
1000
,  // measure 54
0001
0100
0001
1000
0010
1000
0100
0000
,  // measure 55
1001
0001
0100
0001
,  // measure 56
1010
1000
0100
0010
,  // measure 57
1001
0100
0001
0010
,  // measure 58
0110
0001
1000
0100
,  // measure 59
1010
1000
0001
0100
,  // measure 60
0001
0000
1000
0000
0010
0000
1000
0010
,  // measure 61
0000
1000
0100
0000
1000
0001
0000
0001
,  // measure 62
0100
0000
0001
1000
0001
1000
0000
2002
,  // measure 63
0000
0000
0000
3003
,  // measure 64
1001
0000
1000
0000
0001
0000
0100
0001
,  // measure 65
0000
0001
0100
0000
1000
0000
1001
0000
,  // measure 66
1000
0000
0010
0000
1000
0000
0001
0100
,  // measure 67
0002
0000
2003
0000
3020
0000
1030
0001
,  // measure 68
2000
0000
0000
0000
,  // measure 69
3000
0000
0000
0000
;

//---------------dance-single - ----------------
#NOTES:
     dance-single:
     :
     Hard:
     13:
     0.477,0.485,0.412,0.111,0.075: // measure 1
0000
0000
0000
0000
,  // measure 2
0000
0000
0000
0000
,  // measure 3
0000
0000
0000
0000
,  // measure 4
0000
0000
0000
0000
,  // measure 5
1000
0010
0001
0100
0001
0000
1000
1010
,  // measure 6
0000
1010
0000
1000
1001
0000
1001
0000
,  // measure 7
0001
0010
1000
0100
1000
0000
0101
0000
,  // measure 8
1000
0010
1000
0100
1000
0000
0011
0000
,  // measure 9
1000
0010
0001
1000
0100
0000
1000
1001
,  // measure 10
0000
1001
0000
0001
0101
0000
1100
0000
,  // measure 11
0010
1000
0001
0100
0001
0000
1010
0000
,  // measure 12
0010
1000
0001
0100
1000
0000
0110
0000
,  // measure 13
1000
0010
1000
0100
0001
0000
1000
1001
,  // measure 14
0000
1001
0000
1000
1010
0000
1100
0000
,  // measure 15
1000
0001
0100
0010
1000
0000
0101
0000
,  // measure 16
1000
0100
1000
0001
0010
0000
0011
0000
,  // measure 17
0110
0000
0000
0000
1000
0000
0010
1000
0000
0000
1000
0000
0000
0000
0000
0000
,  // measure 18
1001
0000
0000
0000
0001
0000
0100
0001
0000
0000
0001
0000
0000
0000
1000
0000
,  // measure 19
0001
0000
0000
0000
1000
0000
0010
1000
0000
0000
1000
0000
0000
0000
0001
0000
,  // measure 20
1000
0000
0100
0000
1000
0000
0010
0000
1000
0000
0100
0000
0001
1000
0100
0000
,  // measure 21
1001
0000
1000
1010
0000
1100
0000
0001
,  // measure 22
0100
0001
0010
0011
0000
0011
0000
1000
,  // measure 23
0001
0100
0011
0000
0011
0000
0001
0100
,  // measure 24
1001
1001
1001
0100
,  // measure 25
1000
0010
1000
0011
0000
1000
0100
1000
,  // measure 26
0001
1000
0010
1001
0000
1000
0000
1000
,  // measure 27
0100
0000
1100
0000
1100
0000
1000
0010
,  // measure 28
1010
1100
1001
0100
,  // measure 29
0001
1000
0010
0200
0000
1300
0001
2000
,  // measure 30
0000
3010
0100
0020
0000
1030
0001
1000
,  // measure 31
0001
0000
0100
0000
0001
0000
1000
1000
,  // measure 32
1100
0101
0110
0010
,  // measure 33
1000
0010
1000
0200
0000
1300
0001
0002
,  // measure 34
0000
1003
0010
2000
0000
3001
0001
1000
,  // measure 35
0001
0000
0100
0000
0001
1000
0001
0000
,  // measure 36
1100
1100
0110
0110
,  // measure 37
2002
0000
0000
3003
,  // measure 38
1000
0001
1000
0100
0001
0010
1000
0001
,  // measure 39
1000
0100
0010
0010
1000
0001
1000
0000
,  // measure 40
0001
0100
0001
0000
1000
0010
1000
0000
,  // measure 41
1000
0001
0000
0000
1000
0001
0000
0000
0001
0010
0000
0000
0001
0010
0000
0000
,  // measure 42
1000
0001
0100
0001
1000
0100
0001
1000
,  // measure 43
0010
1000
0100
0100
0010
0001
1000
0000
,  // measure 44
1000
1000
0100
0000
0001
0001
0010
0000
,  // measure 45
1000
0001
0000
0000
0001
1000
0000
0000
1000
0010
0000
0000
0010
0100
0000
0000
,  // measure 46
0220
0000
0000
0330
,  // measure 47
1001
1000
0000
0010
0000
1000
0000
0001
,  // measure 48
0000
0100
0000
0001
0000
1000
0000
0001
,  // measure 49
1000
0100
0000
1000
0000
0010
0000
1000
,  // measure 50
0000
0001
0000
0100
0000
0001
0000
1000
,  // measure 51
0010
1000
0000
0100
0000
1000
0000
0001
,  // measure 52
0000
0100
0000
0001
0000
1000
0000
0010
,  // measure 53
0100
1000
0000
0100
0000
0001
0000
1000
,  // measure 54
0001
0000
0100
0000
1000
0000
0010
0000
0010
0100
0010
0100
0010
1000
0010
0000
,  // measure 55
1001
1000
0000
0100
0000
0001
0000
0010
,  // measure 56
1001
1000
0000
0100
0000
1000
0000
0001
,  // measure 57
0011
1000
0000
0001
0000
0001
0000
1000
,  // measure 58
1010
0010
0000
0100
0000
0010
0000
0001
,  // measure 59
1000
0100
0000
0001
0000
0100
0000
1000
,  // measure 60
0100
0010
0000
1000
0000
0001
0000
0100
,  // measure 61
1000
0100
0000
0010
0000
1000
0000
0010
,  // measure 62
0000
1000
0001
0100
0001
2000
0000
0002
,  // measure 63
0000
0000
0000
3003
,  // measure 64
1000
0001
1000
0010
1000
0001
0100
1000
,  // measure 65
0010
1000
0100
0100
1000
0001
1000
0000
,  // measure 66
1000
0010
1000
0000
0100
0001
0100
0000
,  // measure 67
1000
0001
0000
0000
1000
0001
0000
0000
0001
0010
0000
0000
0001
0010
0000
0000
,  // measure 68
2002
0000
0000
0000
,  // measure 69
3003
0000
0000
0000
;

//---------------dance-single - ----------------
#NOTES:
     dance-single:
     :
     Challenge:
     15:
     0.590,0.700,0.301,0.277,0.226: // measure 1
0000
0000
0000
0000
,  // measure 2
0000
0000
0000
0000
,  // measure 3
0000
0000
0000
0000
,  // measure 4
0000
0000
0000
0000
,  // measure 5
1000
0000
0010
0000
1000
0000
0001
0000
0100
0000
0001
0010
0000
0010
0100
0000
,  // measure 6
1000
0000
0001
0000
0010
0000
0100
0000
0010
0000
1000
0010
0000
0001
0100
0000
,  // measure 7
1000
0000
0001
0000
1000
0000
0010
0000
1000
0000
0100
1000
0000
1000
0001
0000
,  // measure 8
0001
0000
0010
0000
0100
0000
0001
0000
1000
0000
0010
1000
0000
1000
0010
0000
,  // measure 9
0001
0000
1000
0000
0100
0000
0001
0000
0010
0000
1000
0010
0000
0010
0100
0000
,  // measure 10
0001
0000
1000
0000
0010
0000
0100
0000
1000
0000
0001
1000
0000
0010
1000
0000
,  // measure 11
0001
0000
0100
0000
1000
0000
0100
0000
0001
0000
0010
0001
0000
0001
0010
0000
,  // measure 12
1000
0000
0010
0000
0001
0000
0010
0000
1000
0000
1000
0010
0000
0010
0100
0000
,  // measure 13
1000
0000
0001
0000
0100
0000
0001
0000
0010
0000
1000
0001
0000
0001
1000
0000
,  // measure 14
0010
0000
1000
0000
0100
0000
0001
0000
0010
0000
1000
0010
0000
1000
0010
0000
,  // measure 15
1000
0000
0001
0000
0100
0000
0001
0000
0010
0000
1000
0001
0000
0100
0010
0000
,  // measure 16
1000
0010
1000
0000
1000
0001
1000
0000
0001
0100
0001
0000
1000
0010
1000
0000
,  // measure 17
0002
0000
0000
0000
1003
0000
1000
0010
0000
0000
0010
0000
0000
0000
1000
0000
,  // measure 18
0002
0000
0000
0000
1003
0000
0010
0100
0000
0000
0001
0000
0000
0000
1000
0000
,  // measure 19
0020
0000
0000
0000
1030
0000
0010
1000
0000
0000
1000
0000
0000
0000
0100
0000
,  // measure 20
0010
0001
1000
0100
1000
0001
0010
1000
0100
1000
0010
0100
0001
1000
0001
0000
,  // measure 21
1001
1000
0010
2000
0000
3002
0000
1003
,  // measure 22
0010
1000
0001
0200
0000
0320
1000
1030
,  // measure 23
1000
0001
1001
0000
1001
0000
0010
1000
,  // measure 24
1010
1100
0101
0011
,  // measure 25
1000
0001
0010
0002
0000
1003
0010
1000
,  // measure 26
0001
0100
1000
0002
0000
1003
1000
0010
,  // measure 27
1000
0001
0101
0000
1100
0000
0010
1000
,  // measure 28
1010
0000
0000
0000
1100
0000
0000
0000
1000
0000
0001
0000
1000
0010
1000
0000
,  // measure 29
1001
0001
0010
2000
0000
3001
0100
0002
,  // measure 30
0000
0013
0100
0020
0000
1030
1000
0001
,  // measure 31
1000
0001
0011
0000
0011
0000
1000
0010
,  // measure 32
1100
0101
0011
0011
,  // measure 33
1001
0100
0001
0020
0000
1030
0001
2000
,  // measure 34
0000
3010
0100
0002
0000
1003
0010
1000
,  // measure 35
0002
0000
1003
0001
0100
0001
0020
0000
,  // measure 36
1030
0000
0001
0000
0010
0000
1000
0000
0001
0000
0100
0000
0001
0010
0001
0000
,  // measure 37
2002
0000
0000
3003
,  // measure 38
1000
0000
0001
0000
0010
0000
1000
0000
0100
0000
1000
0001
0000
0001
0010
0000
,  // measure 39
1000
0000
0100
0000
1000
0000
0001
0000
0010
0000
0001
0010
0000
0010
0100
0000
,  // measure 40
1001
0000
1000
0001
0010
0100
1000
0010
,  // measure 41
2000
0010
3010
0000
0012
0000
0103
0100
,  // measure 42
1001
0000
0001
0000
0010
0000
0100
0000
1000
0000
0010
1000
0000
0001
0100
0000
,  // measure 43
0001
0000
1000
0000
0010
0000
1000
0000
0001
0000
0100
0001
0000
0001
0100
0000
,  // measure 44
1001
0000
0001
0010
1000
0100
1000
0001
,  // measure 45
2000
0001
3001
0000
0102
0000
0013
0010
,  // measure 46
2002
0000
0000
3003
,  // measure 47
1001
0000
0110
0000
1000
0001
0100
0001
,  // measure 48
0000
0010
0001
1000
0000
0001
0000
0010
,  // measure 49
1001
0000
1000
0001
0200
0000
0301
2000
,  // measure 50
0000
3010
1000
0002
0000
1003
2000
3001
,  // measure 51
1001
0010
1000
0001
0000
0100
0001
0010
,  // measure 52
0000
1000
0100
1000
0000
1000
0010
1000
,  // measure 53
1001
0100
0001
1000
0010
1000
0001
1000
,  // measure 54
0010
0100
1000
0001
0100
0001
0010
1000
0001
0100
0001
1000
0001
0100
1000
0000
,  // measure 55
1001
0100
0001
0000
1000
0010
1000
0000
,  // measure 56
1001
1000
0010
0000
0001
0100
0001
0000
,  // measure 57
1001
0001
0010
0000
0001
0100
1000
0000
,  // measure 58
1001
1000
0100
0000
0001
1000
0001
0000
,  // measure 59
0100
0010
0001
0000
0001
1000
0100
0000
,  // measure 60
1000
0001
0100
0000
0001
0010
0100
1000
,  // measure 61
0000
0001
1000
0010
1000
0001
0000
1000
,  // measure 62
0000
0010
1000
0001
0100
0002
0000
2000
,  // measure 63
0000
0000
0000
3003
,  // measure 64
1000
0000
0001
0000
1000
0000
0100
0000
0001
0000
1000
0010
0000
0010
0100
0000
,  // measure 65
0001
0000
1000
0000
0100
0000
0001
0000
0100
0000
1000
0010
0000
0010
1000
0000
,  // measure 66
1001
0000
0001
0100
0010
0010
1000
0001
,  // measure 67
2000
0010
3010
0000
0102
0000
0013
0010
,  // measure 68
2002
0000
0000
0000
,  // measure 69
3003
0000
0000
0000
;
