#TITLE:Lay All Your Love On Me;
#SUBTITLE:;
#ARTIST:Abbacadabra;
#TITLETRANSLIT:;
#SUBTITLETRANSLIT:;
#ARTISTTRANSLIT:;
#GENRE:Eurohouse;
#CREDIT:TiKAL;
#MUSIC:Lay All Your Love On Me.ogg;
#BANNER:Lay All Your Love On Me.png;
#BACKGROUND:Lay All Your Love On Me-bg.png;
#CDTITLE:;
#SAMPLESTART:66.348;
#SAMPLELENGTH:28.657;
#SELECTABLE:YES;
#OFFSET:1.712;
#BPMS:0.000=134.003
,4.000=134.000
,152.000=67.000
,182.000=134.000
;
#STOPS:;
#DISPLAYBPM:134.000;
#BGCHANGES:;
#FGCHANGES:;

//--------------- dance-single - TiKAL ----------------
#NOTES:
     dance-single:
     TiKAL:
     Beginner:
     1:
     0,0,0,0,0:
0000
0000
0000
0000
,
0000
0000
0000
0000
,
0000
0000
0000
0000
,
0000
0000
0000
0000
,
0000
0000
0000
0000
,
0000
0000
0000
0000
,
0000
0000
0000
0000
,
0000
0000
0000
0000
,
0000
0000
0000
0000
,
1000
0000
0000
0000
,
0001
0000
0000
0000
,
1000
0000
0000
0000
,
0001
0000
0000
0000
,
1000
0000
0000
0000
,
0001
0000
0000
0000
,
1000
0000
0000
0000
,
0000
0000
0000
0000
,
0001
0000
0000
0000
,
0000
0000
0000
0000
,
0010
0000
0000
0000
,
0000
0000
0000
0000
,
0100
0000
0000
0000
,
0000
0000
0000
0000
,
1000
0000
0000
0000
,
0000
0000
0000
0000
,
0100
0000
0000
0000
,
0000
0000
0000
0000
,
0010
0000
0000
0000
,
0000
0000
0000
0000
,
0001
0000
0000
0000
,
0000
0000
0000
0000
,
0001
0000
0000
0000
,
0000
0000
0000
0000
,
1000
0000
0000
0000
,
0000
0000
0000
0000
,
1000
0000
0000
0000
,
0001
0000
0000
0000
,
0000
0000
0000
0000
,
1000
0000
0000
0000
,
0000
0000
0000
0000
,
0100
0000
0000
0000
,
0000
0000
0000
0000
,
0010
0000
0000
0000
,
0000
0000
0000
0000
,
0001
0000
0000
0000
,
0000
0000
0000
0000
,
0000
0000
1000
0000
,
0000
0000
0001
0000
,
0000
0000
1000
0000
,
0000
0000
0001
0000
,
0000
0000
1000
0000
,
0000
0000
0001
0000
,
0000
0000
1000
0000
,
0000
0000
0001
0000
,
0000
0000
1000
0000
;

//--------------- dance-single - TiKAL ----------------
#NOTES:
     dance-single:
     TiKAL:
     Easy:
     3:
     0,0,0,0,0:
0000
0000
0000
0000
,
0000
0000
0000
0000
,
0000
0000
0000
0000
,
0000
0000
0000
0000
,
0000
0000
0000
0000
,
0000
0000
0000
0000
,
0000
0000
0000
0000
,
0000
0000
0000
0000
,
0000
0000
0000
0000
,
1000
0000
1000
1000
,
1000
0000
1000
1000
,
0001
0000
0001
0001
,
0001
0000
0001
0001
,
0100
0000
0100
0100
,
0100
0000
0100
0100
,
0010
0000
0010
0010
,
1001
0000
0000
0000
,
1000
0000
1000
0000
,
0001
0001
0000
0000
,
0100
0000
0100
0000
,
0010
0000
0010
0000
,
1001
0000
0000
0000
,
0000
0000
0000
0000
,
0001
0000
0001
0000
,
1000
1000
0000
0000
,
0010
0000
0010
0000
,
0100
0000
0100
0000
,
1001
0000
0000
0000
,
0000
0000
0000
0000
,
1000
0000
1000
0000
,
0000
0000
0000
0000
,
0001
0000
0001
0000
,
0000
0000
0000
0000
,
0100
0000
0100
0000
,
0010
0000
0010
0000
,
0110
0000
0000
0000
,
1001
0000
0000
0000
,
0000
0000
0000
0000
,
1000
0000
0001
0001
,
1000
0000
0001
0000
,
0100
0000
0010
0000
,
0110
0000
0000
0000
,
0001
0000
1000
1000
,
0001
0000
1000
0000
,
0010
0000
0100
0000
,
0110
0000
0000
0000
,
0000
0000
1000
0000
,
1000
1000
1000
0000
,
1000
1000
0001
0000
,
0001
0001
0001
0000
,
0001
0001
0100
0000
,
0100
0100
0100
0000
,
0100
0100
0010
0000
,
0010
0010
1000
0000
,
0001
1000
1001
0000
;

//--------------- dance-single - TiKAL ----------------
#NOTES:
     dance-single:
     TiKAL:
     Medium:
     6:
     0,0,0,0,0:
0000
0000
0000
0000
,
0000
0000
0000
0000
,
0000
0000
0000
0000
,
0000
0000
0000
0000
,
0000
0000
0000
0000
,
0000
0000
0000
0000
,
0000
0000
0000
0000
,
0000
0000
0000
0000
,
0000
0000
0000
0000
,
0001
0100
0010
1000
,
0001
0010
0100
1000
,
0001
0100
0010
1000
,
0001
0000
0010
0000
0100
0000
1000
0001
,
1000
0010
0100
0001
,
1000
0100
0010
0001
,
1000
0010
0100
0001
,
2000
3002
2003
3002
,
1003
0100
0100
0010
,
0001
0001
0000
0000
,
1000
0010
0010
0100
,
0002
0003
2000
3000
,
0001
1001
0000
0000
,
0000
0000
0000
0000
,
0001
0010
0010
0100
,
1000
1000
0000
0000
,
0001
0100
0100
0010
,
2000
3000
0002
0003
,
1000
1001
0000
0000
,
0000
0000
0000
0000
,
2000
0000
0000
0002
0000
0000
0000
0000
,
3003
0000
0000
0000
,
0020
0000
0000
0200
0000
0000
0000
0000
,
0330
0000
0000
0000
,
2000
0000
0000
3200
0000
0000
0300
0000
,
0020
0000
0000
0032
0000
0000
0003
0000
,
1000
0000
0000
2000
0000
0000
0000
0000
,
0002
0000
0000
3003
,
0000
0001
1000
0001
,
1000
1000
0001
0001
,
0100
0000
0010
0000
,
1000
1000
0001
0001
,
1001
0000
0000
0000
,
0001
0001
1000
1000
,
0010
0000
0100
0000
,
0001
0001
1000
1000
,
1001
0000
0000
0000
,
0000
0000
1000
0010
,
0100
0001
1000
0100
,
0010
0001
1000
0010
,
0100
0001
1000
0100
,
0010
0000
0001
1000
0001
0000
0100
0000
,
0010
1000
0001
0010
,
0100
1000
0001
0100
,
0010
1000
0001
1000
,
0001
1000
1001
0000
;

//--------------- dance-single - TiKAL ----------------
#NOTES:
     dance-single:
     TiKAL:
     Hard:
     9:
     0,0,0,0,0:
0000
0000
0000
0000
,
0000
0000
0000
0000
,
0000
0000
0000
0000
,
0000
0000
0000
0000
,
0000
0000
0000
0000
,
0000
0000
0000
0000
,
0000
0000
0000
0000
,
0000
0000
0000
0000
,
0000
0000
0000
0000
,
1000
0000
0000
0001
0000
0000
1000
0000
0010
0000
0100
0000
0010
0000
0000
0000
,
0100
0000
0000
0001
0000
0000
0100
0000
0001
0000
1000
0000
0001
0000
0000
0000
,
1000
0000
0000
0001
0000
0000
1000
0000
0100
0000
0010
0000
0100
0000
0000
0000
,
0010
0000
0000
0001
0000
0000
0010
0000
0001
0000
1000
0000
0001
0000
1000
0000
,
0100
0000
0000
0010
0000
0000
0100
0000
1000
0000
0001
0000
1000
0000
0000
0000
,
0001
0000
0000
0010
0000
0000
0001
0000
0010
0000
0100
0000
0010
0000
0000
0000
,
0100
0000
0000
0010
0000
0000
0100
0000
1000
0000
0001
0000
1000
0000
0000
0000
,
0002
0203
0320
2030
,
3001
0000
1000
0100
0010
0000
0001
0000
,
0010
0100
1000
0000
0000
0000
0001
0000
,
1000
0000
0001
0010
0100
0000
1000
0100
,
0020
0032
2003
3020
,
0130
0010
0110
0000
0000
0000
0000
0000
,
0000
0000
0000
0000
,
1000
0000
0001
0010
0100
0000
1000
0000
,
0100
0010
0001
0000
0000
0000
1000
0000
,
0001
0000
1000
0100
0010
0000
0001
0010
,
0200
2300
3002
0203
,
0310
0100
0110
0000
0000
0000
0000
0000
,
0000
0000
0000
1000
,
0002
0000
0000
0200
0000
0000
0003
0000
,
0010
0000
0010
0300
,
2000
0000
0000
0020
0000
0000
3000
0000
,
0100
0000
0100
0030
,
0002
0000
0000
0203
0000
0000
1300
0000
,
2000
0000
0000
3020
0000
0000
0031
0000
,
2000
0000
0000
0020
0000
0000
3000
0000
,
0200
0000
0000
0330
,
0000
0000
0000
0000
0000
0000
0000
0000
0000
0000
0000
0000
0002
0000
0000
0000
0000
0000
0000
0000
0000
0000
0000
0003
2000
0000
0000
0000
0000
0000
0000
0000
0000
0000
0000
3000
0002
0000
0000
0000
0000
0000
0000
0000
0000
0000
0000
0003
,
1000
0100
0010
0001
,
2000
0000
0002
3003
,
0001
0100
0010
1000
,
2002
0000
3003
0000
,
0001
0010
0100
1000
,
0002
0000
2000
3003
,
1000
0010
0100
0001
,
2002
0000
3003
0000
,
0000
0000
0000
0000
0000
0000
0000
0000
1000
0000
0000
0001
0000
0000
1000
0000
,
0010
0000
0100
0000
0010
0000
0000
0000
0100
0000
0000
0001
0000
0000
0100
0000
,
0001
0000
1000
0000
0001
0000
0000
0000
1000
0000
0000
0001
0000
0000
1000
0000
,
0100
0000
0010
0000
0100
0000
0000
0000
0010
0000
0000
0001
0000
0000
0010
0000
,
0001
0000
1000
0000
0001
0000
1000
0000
0100
0000
0000
0010
0000
0000
0100
0000
,
1000
0000
0001
0000
1000
0000
0000
0000
0001
0000
0000
0010
0000
0000
0001
0000
,
0010
0000
0100
0000
0010
0000
0000
0000
0100
0000
0000
0010
0000
0000
0100
0000
,
1000
0001
1000
0000
0002
0003
0200
0300
,
0020
0030
1000
0001
1001
0000
0000
0000
;

//--------------- dance-single - TiKAL ----------------
#NOTES:
     dance-single:
     TiKAL:
     Challenge:
     13:
     0,0,0,0,0:
0000
0000
0000
0000
,
0000
0000
0000
0000
,
0000
0000
0000
0000
,
0000
0000
0000
0000
,
0000
0000
0000
0000
,
0000
0000
0000
0000
,
0000
0000
0000
0000
,
0000
0000
0000
0000
,
0000
0000
0000
0000
,
0001
0000
0010
0100
0000
0010
0100
0000
1000
0100
1000
0000
0001
0100
0001
0000
,
1000
0000
0100
0010
0000
0100
0010
0000
0001
0010
0001
0000
1000
0010
1000
0000
,
0001
0000
0100
0010
0000
0100
0010
0000
1000
0010
1000
0000
0001
0010
0001
0000
,
1000
0000
0010
0100
0000
0010
0100
0000
0001
0100
0001
0000
1000
0100
1000
0000
,
0010
0000
1000
0001
0000
0001
1000
0000
0100
1000
0100
0000
0010
0001
0010
0000
,
0100
0000
1000
0001
0000
0001
1000
0000
0010
1000
0010
0000
0100
0001
0100
0000
,
0001
0000
0010
0100
0000
0100
1000
0000
0001
0010
0100
0000
0010
0100
1000
0000
,
0002
0023
0230
2300
,
3001
0010
0100
1000
0010
0000
0010
1000
,
0100
0010
0001
0000
1000
1000
1000
0000
,
0001
0100
0010
1000
0001
0000
0001
1000
,
0020
0230
0302
2003
,
3100
0010
0110
0000
0000
0000
0000
0000
,
0001
0000
0001
0000
1000
0000
1000
0001
,
1000
0100
0010
0001
0100
0000
0100
0001
,
0010
0100
1000
0000
0001
0001
0001
0000
,
1000
0010
0100
0001
1000
0000
1000
0001
,
0200
0320
2030
3002
,
0013
0100
0110
0000
0000
0000
0000
0000
,
1000
0000
1000
0000
0001
0000
0001
1000
,
0002
0000
0000
0203
0000
0000
2000
0000
0000
0000
0000
0000
3000
0000
0000
0000
,
0010
0000
0010
0000
0001
0000
0301
1000
,
0001
0000
0001
0010
0000
0020
2000
0000
0000
0000
0000
0000
3000
0000
0000
0000
,
0100
0000
0100
0000
0001
0000
0031
1000
,
0200
0000
0301
0200
0000
0300
1000
0001
,
0200
0000
1300
0200
0000
0300
0001
1000
,
0020
0000
0230
0002
0000
0000
0300
0000
,
2000
0000
0000
3003
,
2000
0000
0000
0000
0000
0000
0000
0000
0000
0000
0000
0000
0000
0000
0000
0000
0000
0000
0000
0000
0000
0000
0000
0000
0000
0000
0000
0000
0000
0000
0000
0000
0000
0000
0000
0000
0000
0000
0000
0000
0000
0000
0000
0000
3000
0000
0000
0000
0002
0000
0000
0000
0000
0000
0000
0000
0000
0000
0000
0000
0000
0000
0000
0000
0000
0000
0000
0000
0000
0000
0000
0000
0000
0000
0000
0000
0000
0000
0000
0000
0000
0000
0000
0000
0000
0000
0000
0000
0000
0000
0000
0000
0003
0000
0200
0000
0000
0000
0000
0000
0000
0000
0000
0000
0000
0000
0000
0000
0000
0000
0000
0000
0000
0000
0000
0000
0000
0000
0000
0000
0000
0000
0000
0000
0000
0000
0000
0000
0000
0000
0000
0000
0000
0000
0000
0000
0000
0000
0000
0000
0000
0300
0020
0000
0000
0000
0000
0000
0000
0000
0000
0000
0000
0000
0000
0000
0000
0000
0000
0000
0000
0000
0000
0000
0000
0000
0000
0000
0000
0000
0000
0000
0000
0000
0000
0000
0000
0000
0000
0000
0000
0000
0000
0000
0000
0000
0000
0000
0030
0000
0000
0000
,
200M
0000
3200
0000
0320
0032
2003
3020
,
0230
0000
0000
0000
0002
0000
0000
0303
,
0002
0000
0023
0230
2300
0000
3020
0000
,
0200
0000
0330
1000
,
0002
0000
0023
0000
0230
2300
3002
0203
,
0320
0000
0000
0000
2000
0000
0000
3030
,
2000
0000
3200
0320
0032
0000
0203
0000
,
0020
0000
M330
0000
,
0000
0000
0000
0000
0000
0000
1000
0000
1001
0000
0001
1000
0000
0010
0100
0000
,
0001
0010
0001
0000
1000
0010
1000
0000
0001
0000
0010
0100
0000
0010
0100
0000
,
1000
0100
1000
0000
0001
0100
0001
0000
1000
0000
0010
0100
0000
0010
0100
0000
,
0001
0100
0001
0000
1000
0100
1000
0000
0001
0000
0100
0010
0000
0100
0010
0000
,
1000
0010
1000
0000
0001
0010
0001
0000
0100
0000
0001
1000
0000
1000
0001
0000
,
0010
0001
0010
0000
0100
1000
0100
0000
0010
0000
0001
1000
0000
1000
0001
0000
,
0100
0001
0100
0000
0010
1000
0010
0000
1000
0000
0100
0010
0000
0010
0001
0000
,
1000
0100
0010
0000
0100
0010
0001
0000
2000
0000
3000
0000
0002
0000
0003
0000
,
0200
0300
0010
0010
1001
0000
0000
0000
;
