#TITLE:Justified & Ancient;
#SUBTITLE:;
#ARTIST:The KLF;
#TITLETRANSLIT:;
#SUBTITLETRANSLIT:;
#ARTISTTRANSLIT:;
#CREDIT:;
#BANNER:Justified & Ancient.png;
#BACKGROUND:Justified & Ancient-bg.png;
#LYRICSPATH:;
#CDTITLE:;
#MUSIC:Justified & Ancient.ogg;
#OFFSET:-8.822;
#SAMPLESTART:60.518;
#SAMPLELENGTH:17.223;
#SELECTABLE:YES;
#DISPLAYBPM:111.000;
#BPMS:0.000=111.457,31.000=106.572,32.000=111.481;
#STOPS:;
#BGCHANGES:0.000=letters1.avi=1.200=1=0=1,
8.000=wave2.avi=1.200=0=0=1,
16.000=letters1.avi=1.200=0=0=1,
24.000=text17.avi=1.400=0=0=1,
32.000=rotation5.avi=1.200=0=0=1,
40.000=thunder1a.avi=1.200=0=0=1,
48.000=rotation5.avi=1.200=0=0=1,
56.000=thunder1a.avi=1.200=0=0=1,
64.000=tunnel10.avi=1.000=0=0=1,
80.000=snow4.avi=1.000=0=0=1,
96.000=letters1.avi=1.200=0=0=1,
104.000=wave2.avi=1.200=0=0=1,
112.000=letters1.avi=1.200=0=0=1,
120.000=wave2.avi=1.200=0=0=1,
128.000=tunnel10.avi=1.200=0=0=1,
136.000=text17.avi=1.400=0=0=1,
144.000=tunnel10.avi=1.000=0=0=1,
152.000=snow4.avi=1.000=0=0=1,
160.000=Justified & Ancient-bg.png=1.000=0=0=1,
99999=-nosongbg-=1.000=0=0=0 // don't automatically add -songbackground-
;

//---------------dance-single - ----------------
#NOTES:
     dance-single:
     :
     Beginner:
     2:
     0.124,0.146,0.086,0.000,0.000:
1000
0000
1000
0000
,
1000
0000
0000
0000
,
0100
0000
0100
0000
,
0100
0000
0000
0000
,
0001
0000
0001
0000
,
0001
0000
0000
0000
,
0010
0000
0010
0000
,
0010
0000
0010
0000
,
1000
1000
0000
0000
,
0001
0000
0001
0000
,
0100
0000
0010
0000
,
0100
0000
1000
0000
,
0001
0001
0000
0000
,
1000
0000
0100
0000
,
0010
0000
0100
0000
,
0001
0000
1000
0000
,
1001
0000
0000
0000
,
1001
0000
0000
0000
,
0110
0000
0000
0000
,
0110
0000
0000
0000
,
0001
0000
1000
0000
,
0001
0000
0000
0000
,
0010
0000
0100
0000
,
0010
0000
0010
0000
,
1001
0000
0100
0000
,
0001
0001
0001
0000
,
0100
0000
0010
0000
,
1000
1000
1000
0000
,
0100
0000
1000
0000
,
0010
0010
0010
0000
,
0001
0000
1000
0000
,
0001
0001
0001
0000
,
1000
0000
0100
0000
,
0001
0000
0100
0000
,
1000
0000
0010
0000
,
0001
0000
0010
0000
,
1001
0000
0000
0000
,
0110
0000
0000
0000
,
1000
0000
0001
0000
,
0100
0100
0100
0000
,
1001
0000
0000
0000
,
0110
0000
0000
0000
,
0001
0000
1000
0000
,
0100
0100
0100
0000
;

//---------------dance-single - ----------------
#NOTES:
     dance-single:
     :
     Easy:
     5:
     0.186,0.189,0.096,0.287,0.000:
1000
0001
1000
0000
,
0100
0000
0100
0000
,
0010
0000
0010
0000
,
0001
1000
0001
0000
,
1000
0010
1000
0000
,
0001
0000
0001
0000
,
0200
0000
0300
0000
,
0020
0000
0030
0000
,
1000
0001
1000
0000
,
0020
0030
2000
3000
,
0001
1000
0001
0000
,
0200
0300
0002
0003
,
1000
0001
0010
0000
,
0002
0003
2000
3000
,
0100
0100
0001
0000
,
0020
0030
2000
3000
,
0002
0000
2003
0000
,
3002
0000
0103
0000
,
2000
0000
3020
0000
,
2030
0000
3001
0000
,
1000
1000
0100
0000
,
0001
0000
1001
0000
,
0001
0001
0010
0000
,
0010
0000
0110
0000
,
1000
0001
0100
0000
,
0001
0000
1001
0000
,
1000
0010
0001
0000
,
0100
0000
0110
0000
,
1000
0001
1000
0000
,
0010
0000
0110
0000
,
1000
0001
1000
0000
,
0001
0000
1001
0000
,
2000
0000
3000
0000
,
0002
0000
0003
0000
,
0100
0000
0100
0000
,
0010
0010
0010
0000
,
2002
0000
3003
0000
,
0220
0000
0330
0000
,
2000
0000
3001
0000
,
0100
0100
0100
0000
,
2002
0000
3003
0000
,
0220
0000
0330
0000
,
2000
3000
0002
0003
,
0100
0100
0020
0000
,
0030
0000
0000
0000
;

//---------------dance-single - ----------------
#NOTES:
     dance-single:
     :
     Medium:
     8:
     0.361,0.316,0.239,0.478,0.000:
0010
1000
0010
0000
0002
0000
0013
0000
,
0001
0100
0001
0000
2000
0000
3100
0000
,
0002
2003
3002
0203
,
0302
1000
1000
1003
,
0010
1000
0010
0000
0200
0000
0310
0000
,
0001
1000
0001
0000
0002
0000
0013
0000
,
2000
0001
0001
3001
,
0020
1030
0200
0310
,
1000
0001
1000
0000
0010
0000
0101
0000
,
0010
1000
0001
0110
,
1000
1010
0001
0011
,
1100
0101
1100
1001
,
0001
0010
1000
0000
0001
0000
0101
0000
,
0010
1000
0001
0110
,
0001
0101
0010
1100
,
1010
1100
1001
0110
,
0002
0000
0100
0000
1003
0020
0000
0030
,
1000
0200
0000
0310
0000
0000
1001
0000
,
0001
0100
1000
0010
,
2000
3002
0203
0301
,
0001
0010
0001
0010
0000
0000
0110
0000
,
1000
0100
1000
0100
0000
0000
1001
0000
,
1000
0001
1000
0001
0000
0000
0110
0000
,
1000
0010
0000
0010
0000
0000
0110
0000
,
0001
1000
0001
0000
0020
0000
1030
0000
,
1000
0001
0010
0000
0002
0000
0103
0000
,
2000
3020
2030
3200
,
0302
1000
1000
1003
,
1000
0100
0001
0000
0002
0000
1003
0000
,
1000
0010
0001
0000
2000
0000
3001
0000
,
0020
2030
3002
2003
,
3020
0100
0100
0130
,
1000
0010
1000
0000
0101
0000
0011
0000
,
0001
1000
0100
0000
1001
0000
0110
0000
,
0002
1000
1000
1003
,
2000
3010
0002
1003
,
0001
0010
0000
0001
0020
0000
0031
0000
,
1000
0100
0000
1000
0200
0000
1300
0000
,
2000
3020
2030
3002
,
1003
1000
0000
0020
0000
0000
0030
0000
,
1000
1000
0000
2000
0000
0000
3000
0000
,
0001
0001
0000
0002
0000
0000
0003
0000
,
2000
3002
0203
0302
,
1003
0020
0000
0200
0000
0000
0000
0000
,
0330
0000
0000
0000
;

//---------------dance-single - ----------------
#NOTES:
     dance-single:
     :
     Hard:
     10:
     0.416,0.379,0.230,0.364,0.148: // measure 1
0010
0000
0000
0010
1000
0000
0000
1000
0001
0000
0000
0001
0100
0000
0001
0000
,  // measure 2
0010
0000
0000
0001
0010
0000
1000
0000
0001
0000
0000
0000
0110
0000
0000
0000
,  // measure 3
2000
3020
0230
0302
,  // measure 4
1003
0010
0000
0100
0010
0000
0110
0000
,  // measure 5
1000
0000
0000
0010
0001
0000
0000
0100
0001
0000
0000
0010
1000
0000
0001
0000
,  // measure 6
0100
0000
0000
0001
1000
0000
0001
0000
0100
0000
0000
0000
1001
0000
0000
0000
,  // measure 7
2000
3002
0203
0302
,  // measure 8
1003
0100
0000
0100
0010
0000
1000
0100
,  // measure 9
1000
0000
0001
0010
0000
0000
0001
0000
0100
0000
0000
0000
0010
0000
1000
0000
,  // measure 10
0001
0000
0000
0100
0000
0000
0010
0000
1000
0000
0000
0000
0010
0000
0100
0000
,  // measure 11
1000
0000
0001
0200
0000
0300
0100
0010
,  // measure 12
0001
0000
1000
0000
0100
0000
0000
0010
0100
0000
1000
0000
0101
0000
0000
0000
,  // measure 13
0001
0000
1000
0010
0000
0000
1000
0000
0100
0000
0000
0000
0100
0000
0100
0000
,  // measure 14
0001
0000
0000
0010
0000
0000
1000
0000
0100
0000
0000
0000
0100
0000
0010
0000
,  // measure 15
0100
1000
0000
0100
0001
0100
0000
0100
,  // measure 16
0001
0000
0000
0010
0001
0000
0000
0100
0001
0000
0000
0001
1000
0000
0000
0000
,  // measure 17
0200
0000
0310
0000
1000
0020
0000
0030
,  // measure 18
0100
0000
0020
0000
0000
0000
1030
0000
0000
0001
0000
0000
0001
0000
0100
0000
,  // measure 19
0001
1000
0000
0001
1000
0010
0100
2000
,  // measure 20
0000
3001
0000
0000
0000
1000
1000
0010
,  // measure 21
1000
0000
0001
0000
0100
0000
0002
0000
0000
0003
0000
0000
0010
0000
0010
0000
,  // measure 22
1000
0001
0100
0100
0000
0000
0110
0000
,  // measure 23
0001
1000
0100
0010
0000
1000
0001
1000
,  // measure 24
0100
0000
1000
0000
0000
0000
0001
0000
0000
0010
0000
0010
0001
0000
1001
0000
,  // measure 25
0001
0000
0000
0100
0001
0000
0000
0001
1000
0000
0000
1000
0010
0000
0100
0000
,  // measure 26
0010
0000
0000
1000
0001
0000
0100
0000
0001
0000
0000
0000
1001
0000
0000
0000
,  // measure 27
0002
2003
3020
2030
,  // measure 28
3001
0100
0000
0010
0100
0000
1001
0000
,  // measure 29
0001
0000
0000
1000
0010
0000
0000
0100
0010
0000
0000
0010
0001
0000
1000
0000
,  // measure 30
0001
0000
0000
1000
0100
0000
0010
0000
0001
0000
0000
0000
1001
0000
0000
0000
,  // measure 31
2000
3002
0203
0302
,  // measure 32
1003
0010
0000
0010
0100
0000
1001
0000
,  // measure 33
2000
0000
0000
0010
0000
0000
0010
0000
3010
0000
0000
0000
1001
0000
0000
0000
,  // measure 34
0002
0000
0000
0010
0000
0000
0010
0000
0013
0000
0000
0000
1001
0000
0000
0000
,  // measure 35
2000
3002
2003
3010
,  // measure 36
1000
0001
0000
0100
0010
0000
1001
0000
,  // measure 37
0002
0000
0000
0010
0000
0000
1000
0000
1000
0000
0000
0000
0103
0000
0000
0000
,  // measure 38
2000
0000
0000
0010
0000
0000
0001
0000
0001
0000
0000
0000
3100
0000
0000
0000
,  // measure 39
2000
3200
0320
0130
,  // measure 40
1000
0001
0000
0001
0010
0000
0110
0000
,  // measure 41
1000
1000
0000
2002
0000
0000
3003
0000
,  // measure 42
0100
0100
0000
0220
0000
0000
0330
0000
,  // measure 43
1001
0101
0011
1100
,  // measure 44
1010
1010
0000
1001
2002
0000
0000
0000
,  // measure 45
3003
0000
0000
0000
;

//---------------dance-single - ----------------
#NOTES:
     dance-single:
     :
     Challenge:
     14:
     0.655,0.610,0.459,0.565,0.536: // measure 1
1001
0000
0000
0100
0000
0010
1000
0000
0000
0100
0000
0010
0001
0000
0000
0100
0000
0000
0001
1000
0001
0010
0000
0000
,  // measure 2
1010
0000
0000
1000
0000
0010
0100
0000
0000
0101
0000
0000
0001
0000
0100
0000
0000
0000
1001
0000
0000
0000
0000
0000
,  // measure 3
1000
0000
0000
0100
0000
0010
0001
0000
0000
0100
0000
1000
0010
0000
0100
1000
0000
0000
1000
0000
0001
0010
0000
0000
,  // measure 4
1001
0000
0000
0000
0000
0000
0000
0000
0000
0000
0000
0000
0000
0000
0000
0000
0000
0000
0000
0000
0000
0000
0000
0000
1000
0000
0000
0000
0000
0000
0000
0000
0000
0000
0000
0000
0000
0000
0000
0000
0010
0000
0000
0000
0000
0000
0000
0000
1000
0000
0000
0000
0000
0000
0000
0000
0000
0000
0000
0000
0000
0000
0000
0000
0000
0000
0000
0000
0000
0000
0000
0000
0010
0000
0000
0000
0000
0000
0000
0000
0000
0000
0000
0000
0000
0000
0000
0000
0100
0000
0000
0000
0000
0000
0000
0000
0001
0000
0000
0000
0000
0000
0000
0000
0000
0000
0000
0000
0000
0000
0000
0000
0000
0000
0100
0000
0000
0000
0000
0000
1000
0000
0000
0000
0000
0000
0000
0000
0000
0000
0000
0000
0000
0000
0000
0000
0000
0000
0000
0000
0000
0000
0000
0000
0100
0000
0000
0000
0000
0000
0000
0000
0000
0000
0000
0000
0000
0000
0000
0000
0001
0000
0000
0000
0000
0000
0000
0000
1000
0000
0000
0000
0000
0000
0000
0000
0000
0000
0000
0000
0000
0000
0000
0000
0000
0000
0000
0000
0000
0000
0000
0000
,  // measure 5
1001
0000
0000
0100
0000
0001
1000
0000
0000
0100
0000
0010
1000
0000
0001
0100
0000
0000
0100
1000
0100
0010
0000
0000
,  // measure 6
1001
0000
0000
0100
0000
0010
1000
0000
0000
1001
0000
0000
0010
0000
0100
0000
0000
0000
0101
0000
0000
0000
0000
0000
,  // measure 7
1001
0000
0000
0100
0000
1000
0010
0000
0000
0001
0000
0100
0001
0000
0000
0100
0000
1000
0001
0000
0000
1000
0000
0001
,  // measure 8
1000
0000
0000
0100
0000
0001
0010
0000
0000
0100
0000
0010
1000
0000
0000
0100
0000
1000
0010
0000
0000
0001
0000
0000
,  // measure 9
1002
0000
0000
0000
0000
0000
0000
0000
0000
0000
0000
0000
0000
0000
0000
0000
0000
0000
0000
0000
0000
0000
0000
0000
0000
0000
0000
0000
0000
0000
0000
0000
0100
0000
0000
0000
0000
0000
0000
0000
0000
0000
0000
0000
0000
0000
0000
0000
0000
0000
0000
0000
0000
0000
0000
0000
0000
0000
0000
0000
0000
0000
0000
0000
0103
0000
0000
0000
0000
0000
0000
0000
0000
0000
0000
0000
0000
0000
0000
0000
0010
0000
0000
0000
0000
0000
0000
0000
1000
0000
0000
0000
0000
0000
0000
0000
0000
0000
0000
0000
0000
0000
0000
0000
0010
0000
0000
0000
0000
0000
0000
0000
1000
0000
0000
0000
0000
0000
0000
0000
0000
0000
0000
0000
0000
0000
0000
0000
0000
0000
0000
0000
0000
0000
0000
0000
0000
0000
2002
0000
0000
0000
0000
0000
0000
0000
0000
0000
0000
0000
0000
0000
0000
0000
0000
0000
0000
0000
0000
0000
0000
0000
0000
0000
0000
0000
0000
0000
3003
0000
0000
0000
0000
0000
0000
0000
0000
0000
0000
0000
0000
0000
0000
0000
0000
0000
0000
0000
0000
0000
0000
0000
,  // measure 10
2000
0000
0000
0000
0000
0000
0000
0000
0000
0000
0000
0000
0000
0000
0000
0000
0000
0000
0000
0000
0000
0000
0000
0000
0000
0000
0000
0000
0000
0000
0000
0000
0100
0000
0000
0000
0000
0000
0000
0000
0000
0000
0000
0000
0000
0000
0000
0000
0000
0000
0000
0000
0000
0000
0000
0000
0000
0000
0000
0000
0000
0000
0000
0000
3100
0000
0000
0000
0000
0000
0000
0000
0000
0000
0000
0000
0000
0000
0000
0000
0010
0000
0000
0000
0000
0000
0000
0000
0001
0000
0000
0000
0000
0000
0000
0000
0000
0000
0000
0000
0000
0000
0000
0000
0010
0000
0000
0000
0000
0000
0000
0000
0001
0000
0000
0000
0000
0000
0000
0000
0000
0000
0000
0000
0000
0000
0000
0000
0000
0000
0000
0000
0000
0000
0000
0000
0000
0000
2002
0000
0000
0000
0000
0000
0000
0000
0000
0000
0000
0000
0000
0000
0000
0000
0000
0000
0000
0000
0000
0000
0000
0000
0000
0000
0000
0000
0000
0000
3003
0000
0000
0000
0000
0000
0000
0000
0000
0000
0000
0000
0000
0000
0000
0000
0000
0000
0000
0000
0000
0000
0000
0000
,  // measure 11
2000
0010
3001
1001
0002
0010
1003
1001
,  // measure 12
1000
0000
0000
0100
0000
0000
0010
0000
0000
0100
0000
0010
1000
0000
0001
0100
0000
0000
2002
0000
0000
0000
3003
0000
,  // measure 13
1002
0000
0000
0000
0000
0000
0000
0000
0000
0000
0000
0000
0000
0000
0000
0000
0000
0000
0000
0000
0000
0000
0000
0000
0000
0000
0000
0000
0000
0000
0000
0000
0010
0000
0000
0000
0000
0000
0000
0000
0000
0000
0000
0000
0000
0000
0000
0000
0000
0000
0000
0000
0000
0000
0000
0000
0000
0000
0000
0000
0000
0000
0000
0000
0013
0000
0000
0000
0000
0000
0000
0000
0000
0000
0000
0000
0000
0000
0000
0000
1000
0000
0000
0000
0000
0000
0000
0000
0001
0000
0000
0000
0000
0000
0000
0000
0000
0000
0000
0000
0000
0000
0000
0000
0001
0000
0000
0000
0000
0000
0000
0000
0000
0000
0100
0000
0000
0000
0000
0000
0000
0000
0000
0000
0000
0000
0000
0000
0000
0000
0000
0000
0000
0000
0000
0000
0000
0000
0220
0000
0000
0000
0000
0000
0000
0000
0000
0000
0000
0000
0000
0000
0000
0000
0000
0000
0000
0000
0000
0000
0000
0000
0000
0000
0000
0000
0000
0000
0330
0000
0000
0000
0000
0000
0000
0000
0000
0000
0000
0000
0000
0000
0000
0000
0000
0000
0000
0000
0000
0000
0000
0000
,  // measure 14
2001
0000
0000
0000
0000
0000
0000
0000
0000
0000
0000
0000
0000
0000
0000
0000
0000
0000
0000
0000
0000
0000
0000
0000
0000
0000
0000
0000
0000
0000
0000
0000
0100
0000
0000
0000
0000
0000
0000
0000
0000
0000
0000
0000
0000
0000
0000
0000
0000
0000
0000
0000
0000
0000
0000
0000
0000
0000
0000
0000
0000
0000
0000
0000
3100
0000
0000
0000
0000
0000
0000
0000
0000
0000
0000
0000
0000
0000
0000
0000
0001
0000
0000
0000
0000
0000
0000
0000
1000
0000
0000
0000
0000
0000
0000
0000
0000
0000
0000
0000
0000
0000
0000
0000
1000
0000
0000
0000
0000
0000
0000
0000
0100
0000
0000
0000
0000
0000
0000
0000
0000
0000
0000
0000
0000
0000
0000
0000
0000
0000
0000
0000
0000
0000
0000
0000
0000
0000
0220
0000
0000
0000
0000
0000
0000
0000
0000
0000
0000
0000
0000
0000
0000
0000
0000
0000
0000
0000
0000
0000
0000
0000
0000
0000
0000
0000
0000
0000
0330
0000
0000
0000
0000
0000
0000
0000
0000
0000
0000
0000
0000
0000
0000
0000
0000
0000
0000
0000
0000
0000
0000
0000
,  // measure 15
2000
0100
3001
1001
0002
0100
1003
1001
,  // measure 16
0100
0000
0000
1000
0000
1000
0010
0000
0000
1000
0000
1000
0010
0000
0000
1000
0000
1000
0010
0000
0000
0110
0000
0000
,  // measure 17
2000
0000
3200
0000
0310
0020
0000
0031
,  // measure 18
0002
0000
0000
2000
0000
0000
0003
0000
0000
3010
0000
0000
0000
1010
0000
0000
0000
0000
1010
0000
0000
0000
0000
0000
,  // measure 19
0002
0010
0003
1000
2000
0010
3010
0200
,  // measure 20
0001
0000
0320
0000
0200
0000
0330
0000
0000
1001
0000
0000
1001
0000
1000
0000
,  // measure 21
0100
0001
1000
1020
0000
1000
1000
1030
,  // measure 22
0100
0000
0000
0010
0000
0000
1000
0000
0000
0102
0000
0000
0000
0000
0100
0000
0000
0000
0100
0000
0000
0103
0000
0000
,  // measure 23
1001
1000
0010
0210
0000
0010
0010
0310
,  // measure 24
0001
0000
1000
0000
0100
0000
1000
0000
0010
0001
0000
0010
1000
0000
0100
0000
,  // measure 25
1001
0000
0000
0100
0000
0001
1000
0000
0000
0100
0000
1000
0010
0000
1000
0001
0000
0000
1000
0010
0100
0001
0000
0000
,  // measure 26
1010
0000
0000
1000
0000
0001
0100
0000
0000
0102
0000
0000
0000
1000
0000
0000
0000
1000
0003
0000
0000
0000
0000
0000
,  // measure 27
0100
0000
0000
0001
0000
1000
0010
0000
0000
0100
0000
0001
1000
0000
1000
0100
0000
0000
0010
0100
0010
0100
0000
0000
,  // measure 28
1001
0000
0000
0100
0000
0001
1000
0000
0000
0010
0000
0010
0100
0000
0001
0100
0000
0000
0001
0100
0010
1000
0000
0000
,  // measure 29
1001
0000
0000
0100
0000
1000
0001
0000
0000
0100
0000
0001
0010
0000
1000
0100
0000
0000
0001
0100
0010
1000
0000
0000
,  // measure 30
0011
0000
0000
1000
0000
1000
0100
0000
0000
2100
0000
0000
0000
0001
0000
0000
0000
0001
3000
0000
0000
0000
0000
0000
,  // measure 31
0100
0000
0000
0001
0000
1000
0010
0000
0000
0100
0000
0001
0010
0000
0001
1000
0000
0000
0010
0100
0010
0100
0000
0000
,  // measure 32
1001
0000
0000
0100
0000
1000
0001
0000
0000
0100
0000
1000
0010
0000
0001
0100
0000
0000
1000
0100
0010
0001
0000
0000
,  // measure 33
2000
0000
0000
0000
0000
0000
3010
0000
0000
1000
0000
0010
1000
0000
0010
1000
0000
0000
2002
0000
0000
3003
0000
0000
,  // measure 34
0002
0000
0000
0000
0000
0000
0103
0000
0000
0001
0000
0100
0001
0000
0100
0001
0000
0000
2002
0000
0000
3003
0000
0000
,  // measure 35
1000
0000
0000
0100
0000
0001
1000
0000
0000
0100
0000
1000
0010
0000
1000
0010
0000
0000
0100
0000
0000
0100
0000
0000
,  // measure 36
1000
0000
0000
0010
0000
0001
0100
0000
0000
0001
0000
0010
1000
0000
1000
0100
0000
0000
1001
0000
0000
0000
0000
0000
,  // measure 37
2001
0010
0000
0010
0000
0010
3000
0100
,  // measure 38
1002
0100
0000
0100
0000
0100
0003
0100
,  // measure 39
0002
2003
3200
2300
,  // measure 40
3020
0100
0000
0100
0200
0000
0330
0000
,  // measure 41
1001
1001
0000
0200
0020
0000
0330
0000
,  // measure 42
0110
0110
0000
0002
2000
0000
3003
0000
,  // measure 43
2000
3200
0320
0032
,  // measure 44
2003
0200
3300
0002
0200
0000
0000
0000
,  // measure 45
0303
0000
0000
0000
;
