#TITLE:Japan Japan;
#SUBTITLE:;
#ARTIST:Alpha Town;
#TITLETRANSLIT:;
#SUBTITLETRANSLIT:;
#ARTISTTRANSLIT:;
#GENRE:Eurobeat;
#CREDIT:TiKAL;
#MUSIC:Japan Japan.ogg;
#BANNER:Japan Japan.png;
#BACKGROUND:Japan Japan-bg.png;
#CDTITLE:;
#SAMPLESTART:66.284;
#SAMPLELENGTH:14.531;
#SELECTABLE:YES;
#OFFSET:-0.894;
#BPMS:0.000=132.130;
#STOPS:;
#DISPLAYBPM:132.000;
#BGCHANGES:;
#FGCHANGES:;

//--------------- dance-single - TiKAL ----------------
#NOTES:
     dance-single:
     TiKAL:
     Beginner:
     1:
     0,0,0,0,0:
0000
0000
0000
0000
,
0000
0000
0000
0000
,
0000
0000
0000
0000
,
0000
0000
0000
0000
,
1000
0000
0000
0000
,
1000
0000
0000
0000
,
1000
0000
0000
0000
,
1000
0000
0000
0000
,
0001
0000
0000
0000
,
0000
0000
0000
0000
,
0001
0000
0000
0000
,
0000
0000
0000
0000
,
0001
0000
0000
0000
,
0000
0000
0000
0000
,
0001
0000
0000
0000
,
0000
0000
0000
0000
,
1000
0000
0000
0000
,
0000
0000
0000
0000
,
0001
0000
0000
0000
,
0000
0000
0000
0000
,
0100
0000
0000
0000
,
0000
0000
0000
0000
,
0010
0000
0000
0000
,
1001
0000
0000
0000
,
1000
0000
0000
0000
,
0000
0000
0000
0000
,
0001
0000
0000
0000
,
0000
0000
0000
0000
,
0100
0000
0000
0000
,
0000
0000
0000
0000
,
0010
0000
0000
0000
,
1001
0000
0000
0000
,
1000
0000
0000
0000
,
0100
0000
0000
0000
,
0010
0000
0000
0000
,
0001
0000
0000
0000
,
1000
0000
0000
0000
,
0000
0000
0000
0000
,
1000
0000
0000
0000
,
0000
0000
0000
0000
,
1000
0000
0000
0000
,
0000
0000
0000
0000
,
1000
0000
0000
0000
,
0000
0000
0000
0000
,
0001
0000
0000
0000
,
0001
0000
0000
0000
,
0001
0000
0000
0000
,
0001
0000
0000
0000
,
1000
0000
0000
0000
,
1000
0000
0000
0000
,
1000
0000
0000
0000
,
1000
0000
0000
0000
,
1001
0000
0000
0000
;

//--------------- dance-single - TiKAL ----------------
#NOTES:
     dance-single:
     TiKAL:
     Easy:
     3:
     0,0,0,0,0:
0000
0000
0000
0000
,
0000
0000
0000
0000
,
0000
0000
0000
0000
,
0000
0000
0000
0000
,
1000
0000
0000
1000
0000
0000
0000
0000
,
0001
0000
0000
0001
0000
0000
0000
0000
,
1000
0000
0000
1000
0000
0000
0000
0000
,
0001
0000
0000
0001
0000
0000
0000
0000
,
1000
0000
0000
0001
0000
0000
1001
0000
,
0000
0000
0000
0000
,
0001
0000
0000
1000
0000
0000
1001
0000
,
0000
0000
0000
0000
,
0100
0000
0000
0010
0000
0000
0110
0000
,
0000
0000
0000
0000
,
0010
0000
0000
0100
0000
0000
0110
0000
,
0000
0000
0000
0000
,
1000
0000
0000
0000
,
0001
0000
0001
0000
,
1000
0000
0000
0000
,
0010
0000
0010
0000
,
1000
0000
0000
0000
,
0100
0000
0100
0000
,
1000
0000
0001
0000
,
2002
0000
0000
3003
,
0001
0000
0000
0000
,
1000
0000
1000
0000
,
0001
0000
0000
0000
,
0100
0000
0100
0000
,
0001
0000
0000
0000
,
0010
0000
0010
0000
,
0001
0000
1000
0000
,
2002
0000
0000
3003
,
1000
0000
0000
0000
,
0100
0000
0000
0000
,
0010
0000
0000
0000
,
0001
0000
1000
0000
,
0001
0000
0000
1000
0000
0000
1001
0000
,
0000
0000
0000
0000
,
1000
0000
0000
0001
0000
0000
1001
0000
,
0000
0000
0000
0000
,
0010
0000
0000
0100
0000
0000
0110
0000
,
0000
0000
0000
0000
,
0100
0000
0000
0010
0000
0000
0110
0000
,
0000
0000
0000
0000
,
0001
0000
0000
0001
0000
0000
0000
0000
,
1000
0000
0000
1000
0000
0000
0000
0000
,
0001
0000
0000
0001
0000
0000
0000
0000
,
1000
0000
0000
1000
0000
0000
0000
0000
,
0010
0000
0000
0010
0000
0000
0000
0000
,
0100
0000
0000
0100
0000
0000
0000
0000
,
0010
0000
0000
0010
0000
0000
0000
0000
,
0100
0000
0000
0100
0000
0000
0000
0000
,
1001
0000
0000
0000
;

//--------------- dance-single - TiKAL ----------------
#NOTES:
     dance-single:
     TiKAL:
     Medium:
     8:
     0,0,0,0,0:
0000
0000
0000
0000
,
0000
0000
0000
0000
,
0000
0000
0000
0000
,
0000
0000
0000
0000
,
2000
0000
3000
0002
0000
0003
0100
0000
,
0020
0000
0030
0200
0000
0300
0000
0000
,
0002
0000
0003
2000
0000
3000
0010
0000
,
0200
0000
0300
0020
0000
0030
1001
0000
,
2000
0000
3000
0002
0000
0003
2002
0000
,
0000
3003
0001
1000
,
0020
0000
0030
0200
0000
0300
0220
0000
,
0000
0330
1000
0000
0100
0000
0010
0000
,
0002
0000
0003
2000
0000
3000
2002
0000
,
0000
3003
1000
0001
,
0200
0000
0300
0020
0000
0030
0220
0000
,
0000
0330
0001
0000
0010
0000
0100
0000
,
1000
0000
1000
0000
,
0001
0100
0001
1001
,
1000
0000
1000
0000
,
0001
0010
0110
1001
,
1000
0000
1000
0000
,
0100
1000
0001
1001
,
1000
0100
0010
0001
,
2000
0000
0000
3000
2002
0000
0000
3003
,
0001
0000
0001
0000
,
1000
0010
1000
1001
,
0001
0000
0001
0000
,
1000
0100
0110
1001
,
0001
0000
0001
0000
,
0010
0001
1000
1001
,
0001
0010
0100
1000
,
0002
0000
0000
0003
2002
0000
0000
3003
,
1000
0000
0010
0000
,
0100
0000
0001
0001
,
1000
0000
0100
0000
,
0010
0002
2000
3003
,
2000
0000
3000
0002
0000
0003
2002
0000
,
0000
3003
0001
1000
,
0020
0000
0030
0200
0000
0300
0220
0000
,
0000
0330
1000
0000
0100
0000
0010
0000
,
0002
0000
0003
2000
0000
3000
2002
0000
,
0000
3003
1000
0001
,
0200
0000
0300
0020
0000
0030
0220
0000
,
0000
0330
0001
0000
0010
0000
0100
0000
,
2000
0000
3000
0002
0000
0003
0100
0000
,
0020
0000
0030
0200
0000
0300
0000
0000
,
0002
0000
0003
2000
0000
3000
0010
0000
,
0200
0000
0300
0020
0000
0030
1001
0000
,
0002
0000
0003
2000
0000
3000
0010
0000
,
0200
0000
0300
0020
0000
0030
0000
0000
,
2000
0000
3000
0002
0000
0003
0100
0000
,
0020
0000
0030
0200
0000
0300
1001
0000
,
0110
0000
0000
0000
;

//--------------- dance-single - TiKAL ----------------
#NOTES:
     dance-single:
     TiKAL:
     Hard:
     11:
     0,0,0,0,0:
0000
0000
0000
0000
,
0000
0000
0000
0000
,
0000
0000
0000
0000
,
0000
0000
0000
0000
,
1000
0100
0000
0001
0100
0000
1000
1000
,
0001
0100
0000
1000
0100
0000
0001
0000
,
1000
0010
0000
0001
0010
0000
1000
1000
,
0001
0010
0000
1000
0110
0000
1001
0000
,
1000
0100
0000
0001
0100
0000
1000
0020
,
0000
0000
0130
0001
0100
0000
0000
0000
0101
0000
0000
0000
1010
0000
0000
0000
,
0001
0100
0000
1000
0100
0000
0001
0020
,
0000
0130
1000
0001
1001
0000
0110
0000
,
1000
0010
0000
0001
0010
0000
1000
0200
,
0000
0000
0310
0001
0010
0000
0000
0000
0011
0000
0000
0000
1100
0000
0000
0000
,
0001
0010
0000
1000
0010
0000
0001
0200
,
0000
0310
1000
0001
1001
0000
0110
0000
,
0001
0010
0100
1000
0000
0001
0001
0000
,
1000
0010
0100
0001
0100
0000
1010
0000
,
0001
0010
0100
1000
0000
0001
0100
0020
,
0000
1030
0001
0100
0101
0000
1010
0000
,
1000
0010
0100
0001
0000
1000
0001
0100
,
0001
0010
0100
1000
0010
0000
0101
0002
,
0000
1003
0010
0100
0001
1000
0100
0010
,
0002
0000
0000
0000
1003
0001
1001
0000
,
0001
0010
0001
0010
0000
0100
1000
0100
,
1000
0001
1000
0001
0010
0000
1100
0000
,
0001
0100
0010
1000
0000
0001
0010
0100
,
1000
0001
0100
0001
0011
0000
1100
0000
,
1000
0001
0100
0010
0000
1000
0100
0010
,
0001
0000
0000
0010
0000
0000
0001
0000
1000
0000
0000
0000
1010
0000
2000
0000
,
0000
3001
0010
0100
1000
0001
0100
0010
,
2000
0000
0000
0000
3001
1000
1001
0000
,
0110
0000
0100
0001
0100
0000
0010
0100
,
0001
0010
0100
2000
0000
0002
0000
3003
,
0110
0000
0010
1000
0010
0000
1000
0100
,
0010
0001
2000
0002
0000
0000
0000
3003
,
1000
0010
0000
0001
0010
0000
1000
0200
,
0000
0000
0310
0001
0010
0000
0000
0000
0011
0000
0000
0000
1100
0000
0000
0000
,
0001
0010
0000
1000
0010
0000
0001
0020
,
0000
0130
1000
0001
0101
0000
1010
0000
,
1000
0100
0000
0001
0100
0000
1000
0020
,
0000
0000
0130
0001
0100
0000
0000
0000
1010
0000
0000
0000
0101
0000
0000
0000
,
0001
0100
0000
1000
0100
0000
0001
0020
,
0000
0130
1000
0100
1100
0000
0011
0000
,
0001
0100
0000
1000
0100
0000
0001
0001
,
1000
0100
0000
0001
0100
0000
1000
0000
,
0001
0010
0000
1000
0010
0000
0001
0001
,
1000
0010
0000
0001
0110
0000
1001
0000
,
1000
0010
0000
0001
0010
0000
1000
1000
,
0001
0010
0000
1000
0010
0000
0001
0000
,
1000
0100
0000
0001
0100
0000
1000
1000
,
0001
0100
0000
1000
0110
0000
1001
0000
,
0110
0000
0000
0000
;

//--------------- dance-single - TiKAL ----------------
#NOTES:
     dance-single:
     TiKAL:
     Challenge:
     16:
     0,0,0,0,0:
0000
0000
0000
0000
,
0000
0000
0000
0000
,
0000
0000
0000
0000
,
0000
0000
0000
0000
,
1000
0010
0000
0100
0000
0001
0100
0000
0001
0000
0010
0000
0100
0000
1000
0000
,
0001
0100
0000
0010
0000
1000
0100
0000
1000
0000
1000
0000
0100
0000
0010
0000
,
0001
0010
0000
0100
0000
1000
0100
0000
1000
0000
0010
0000
0100
0000
0001
0000
,
1000
0100
0000
0010
0000
0001
0100
0000
0001
0100
0010
1000
0100
0010
0001
1000
,
0010
0220
0330
0100
0202
0303
0001
2002
,
3003
0000
0000
0000
1000
0000
0010
1000
0001
0000
0000
0000
0000
0000
0000
0000
0100
0000
0001
0000
0100
0000
0001
0000
1000
0000
0010
0000
1000
0000
0010
0000
,
1000
2200
3300
0100
0220
0330
0010
0022
,
0033
0000
0000
0000
0001
0000
1000
0000
0001
0000
1000
0000
0010
0000
0100
0000
0001
0000
0010
0100
1000
0000
0001
0000
0100
0000
0010
0000
0100
0000
0010
0000
,
1000
2002
3003
0001
0202
0303
0100
0220
,
0330
0000
0000
0100
0010
0000
1000
0000
0001
0000
0000
0000
0000
0000
0000
0000
1000
0000
0100
0000
1000
0000
0100
0000
0010
0000
0001
0000
0010
0000
0001
0000
,
0100
0220
0330
0010
2020
3030
1000
2002
,
3003
0000
0001
0000
0100
0000
0001
0000
1000
0000
0010
0000
1000
0000
0100
0000
0010
0000
0001
1000
0001
0000
0100
0000
0010
0000
1000
0000
0010
0000
0100
0000
,
0001
0000
1000
0000
0100
0000
1000
0000
0001
0000
0100
0001
0100
0000
0010
0000
,
1000
0000
0100
1000
0001
0000
0010
0000
0100
0000
1000
0100
0020
0000
0000
0000
,
0031
0000
0010
0000
0100
0000
2000
0000
0000
0000
3001
0100
0001
0000
1000
0000
,
0100
0000
0010
0001
0010
0000
0100
0000
1000
0100
1000
0000
0001
0020
0000
0000
,
0130
0000
1000
0000
0001
0000
0100
0000
0001
0000
1000
0010
0100
0000
0001
0000
,
1000
0000
0100
1000
0010
0000
0100
0000
0001
0100
0001
0100
0020
0000
0000
0000
,
1030
0100
0010
0001
1000
0010
0100
0001
,
2000
0000
0000
0000
0000
0000
0000
0000
3001
0010
0100
1000
0001
0100
0010
0000
,
1000
0000
0001
0000
0010
0000
0001
0000
1000
0000
0010
1000
0010
0000
0100
0000
,
0001
0000
0010
0001
1000
0000
0100
0000
0010
0000
0001
0010
0200
0000
0000
0000
,
1300
0000
0100
0000
0010
0000
0002
0000
0000
0000
1003
0010
1000
0000
0001
0000
,
0010
0000
0100
1000
0100
0000
0010
0000
0001
0010
0001
0000
1000
0200
0000
0000
,
0310
0000
0001
0000
1000
0000
0010
0000
1000
0000
0001
0100
0010
0000
1000
0000
,
0001
0000
0010
0001
0100
0000
0010
0000
1000
0010
1000
0010
0200
0000
0000
0000
,
0301
0010
0100
1000
0001
0100
0010
1000
,
0002
0000
0000
0000
0000
0000
0000
0000
1003
0100
0010
0001
1000
0010
0100
0000
,
0010
0000
0100
0010
0000
0100
0001
0100
0000
0010
1000
0000
0100
1000
0000
1000
,
0010
0000
0100
0010
0100
0000
0001
0010
0000
0100
1000
0001
0100
0010
0000
0010
,
1000
0000
0100
1000
0100
0000
1000
0010
0000
0100
0001
0000
1000
0100
0000
0100
,
1000
0001
1000
0001
0100
0010
0100
0010
1000
0100
1000
0001
0010
0001
1000
0010
,
0100
0220
0330
0010
2020
3030
1000
2002
,
3003
0000
0000
0000
0001
0000
0100
0001
1000
0000
0000
0000
0000
0000
0000
0000
0010
0000
1000
0000
0010
0000
1000
0000
0001
0000
0100
0000
0001
0000
0100
0000
,
0001
0022
0033
0010
0220
0330
0100
2200
,
3300
0000
0000
0000
1000
0000
0001
0000
1000
0000
0001
0000
0100
0000
0010
0000
1000
0000
0100
0010
0001
0000
1000
0000
0010
0000
0100
0000
0010
0000
0100
0000
,
0001
2002
3003
1000
2020
3030
0010
0220
,
0330
0000
0000
0010
0100
0000
0001
0000
1000
0000
0000
0000
0000
0000
0000
0000
0001
0000
0010
0000
0001
0000
0010
0000
0100
0000
1000
0000
0100
0000
1000
0000
,
0010
0220
0330
0100
0202
0303
0001
2002
,
3003
0000
1000
0000
0010
0000
1000
0000
0001
0000
0100
0000
0001
0000
0010
0000
0100
0000
1000
0001
1000
0000
0010
0000
0100
0000
0001
0000
0100
0000
0010
0000
,
1000
0010
0000
0100
0000
0001
0100
0000
0001
0000
0010
0000
0100
0000
1000
0000
,
0001
0100
0000
0010
0000
1000
0100
0000
1000
0000
1000
0000
0100
0000
0010
0000
,
0001
0010
0000
0100
0000
1000
0100
0000
1000
0000
0010
0000
0100
0000
0001
0000
,
1000
0100
0000
0010
0000
0001
0100
0000
0001
0100
0010
1000
0100
0010
0001
1000
,
0001
0100
0000
0010
0000
1000
0010
0000
1000
0000
0100
0000
0010
0000
0001
0000
,
1000
0010
0000
0100
0000
0001
0010
0000
0001
0000
0001
0000
0010
0000
0100
0000
,
1000
0100
0000
0010
0000
0001
0010
0000
0001
0000
0100
0000
0010
0000
1000
0000
,
0001
0010
0000
0100
0000
1000
0010
0000
1000
0010
0100
0001
0010
0100
1000
0001
,
1000
0000
0000
0000
;
