#TITLE:I'll Be There For You;
#SUBTITLE:;
#ARTIST:Solid Harmonie;
#TITLETRANSLIT:;
#SUBTITLETRANSLIT:;
#ARTISTTRANSLIT:;
#GENRE:;
#CREDIT:;
#MUSIC:I'll Be There For You.ogg;
#BANNER:bn.png;
#BACKGROUND:bg.png;
#CDTITLE:;
#SAMPLESTART:41.838;
#SAMPLELENGTH:17.000;
#SELECTABLE:YES;
#OFFSET:-1.184;
#BPMS:0.000=114.889;
#STOPS:;
#DISPLAYBPM:115.000;
#BGCHANGES:20.000=fireworks2.avi=0.700=1=1=1=StretchRewind==CrossFade==,
36.000=cards3.avi=1.000=0=0=1,
52.000=text17.avi=1.000=0=0=1,
68.000=spark1.avi=1.000=0=0=1,
84.000=cards3.avi=1.000=0=0=1,
92.000=cards4.avi=1.200=0=0=1,
96.000=emi4.avi=0.800=0=0=1,
100.000=ribbon1.avi=1.400=0=0=1,
108.000=light5.avi=1.000=0=0=1,
116.000=kaliedoscope4.avi=1.200=0=0=1,
132.000=heart2.avi=1.000=0=0=1,
148.000=cards3.avi=1.000=0=0=1,
156.000=cards4.avi=1.000=0=0=1,
160.000=emi4.avi=0.800=0=0=1,
164.000=ribbon1.avi=1.200=0=0=1,
172.000=text17.avi=1.000=0=0=1,
180.000=I'll Be There For You-jacket.png=1.000=0=0=1,
99999.000=-nosongbg-=1.000=0=0=0=StretchNoLoop====
;
#FGCHANGES:;

//--------------- dance-single - ----------------
#NOTES:
     dance-single:
     :
     Beginner:
     1:
     0.086,0.115,0.051,0,0:
0000
0000
0000
0000
,
0000
0000
0000
0000
,
0000
0000
0000
0000
,
0000
0000
0000
0000
,
0001
0000
0000
0000
,
1000
0000
0000
0000
,
1000
0000
0000
0000
,
0000
0000
0000
0000
,
0001
0000
0000
0000
,
0000
0000
0000
0000
,
0001
0000
0000
0000
,
1000
0000
1000
0000
,
0100
0000
0000
0000
,
0100
0000
0000
0000
,
0010
0000
0000
0000
,
0000
0000
0010
0000
,
0100
0000
0000
0000
,
0000
0000
0000
0000
,
1000
0000
0000
0000
,
0000
0000
0000
0000
,
0001
0000
0000
0000
,
1000
0000
1000
0000
,
1000
0000
0000
0000
,
0000
0000
0001
0000
,
0001
0000
0000
0000
,
0000
0000
0001
0000
,
1000
0000
0000
0000
,
0001
0000
1000
0000
,
1001
0000
0000
0000
,
1000
0000
0000
0000
,
1000
0000
0000
0000
,
1000
0000
1000
0000
,
0001
0000
0000
0000
,
0001
0000
0000
0000
,
1000
0000
1000
0000
,
1000
0000
0000
0000
,
0001
0000
0000
0000
,
1000
0000
0001
0000
,
1000
0000
0000
0000
,
0000
0000
1000
0000
,
0000
0000
0000
0000
,
0100
0000
0100
0000
,
0100
0000
0000
0000
,
0010
0000
0010
0000
,
0000
0000
0000
0000
,
0110
0000
0000
0000
;

//--------------- dance-single - ----------------
#NOTES:
     dance-single:
     :
     Easy:
     4:
     0.181,0.258,0.082,0.225,0:
0000
0000
0000
0000
,
0000
0000
0000
0000
,
0000
0000
0000
0000
,
0000
0000
0000
0000
,
1000
0000
1000
0000
,
1000
0000
1000
0000
,
0001
0000
0001
0000
,
0001
0000
0001
0000
,
1001
0000
0000
1000
,
1000
0000
0000
0001
,
0001
0000
0000
1000
,
0100
0000
0000
0001
,
0100
0000
0000
1000
,
1000
0000
0000
0001
,
0001
0000
0000
0100
,
0100
0000
0010
0000
,
0110
0000
0000
1000
,
1000
0000
0000
0001
,
0001
0000
1000
0000
,
2002
0000
0000
3003
,
1001
0000
1000
1000
,
1000
0000
0100
0010
,
0100
0000
0001
0001
,
0001
0000
1000
0000
,
1001
0000
1000
1000
,
0100
0000
0001
0001
,
1000
0000
0010
0010
,
0010
0000
0100
0100
,
0200
0300
0020
0030
,
2000
3000
0002
0003
,
2000
3000
0200
0300
,
0002
0003
2000
3000
,
0200
0300
0020
0030
,
2000
3000
0200
0300
,
2000
3000
0020
0030
,
2000
3000
0002
0003
,
2002
3003
1000
1000
,
1000
0000
0001
0001
,
0100
0000
0010
0010
,
0010
0000
1000
0000
,
1001
0000
0001
0001
,
0001
0000
1000
0100
,
1000
0000
1000
0001
,
1000
0000
0010
0010
,
0220
0000
0000
0330
;

//--------------- dance-single - ----------------
#NOTES:
     dance-single:
     :
     Medium:
     6:
     0.356,0.401,0.184,0.512,0:
0000
0000
0000
0000
,
0000
0000
0000
0000
,
0000
0000
0000
0000
,
0000
0000
0000
0000
,
2000
3002
0203
0302
,
2003
3020
2030
3002
,
0203
0302
2003
3002
,
0203
0000
0020
0330
,
1001
0000
1000
0001
0000
0001
0000
0001
,
1000
0000
1000
0100
0000
0100
0000
0100
,
1000
0000
1000
0010
0000
0010
0000
0010
,
1000
0000
1000
0001
0000
0001
0000
0001
,
1000
0000
1000
0100
0000
0100
0000
0100
,
1000
0000
1000
0001
0000
0001
0000
0001
,
0010
0000
0010
0100
0000
0100
0000
0100
,
0001
0000
0001
1000
0000
1000
0000
1000
,
0100
0100
0010
0010
,
1000
0100
0001
0100
,
1000
1000
0001
0001
,
1000
0001
1001
1001
,
1001
0000
1000
0001
0000
0001
0000
0001
,
1000
0000
1000
0000
1000
0100
1000
0000
,
1000
0000
0010
0100
0000
0100
0000
0100
,
0110
0110
0101
0101
,
0010
0000
0010
0000
1000
0000
0001
1000
,
0100
0000
0100
0000
0100
0000
0100
0010
,
0100
0100
0010
0010
,
1000
1000
0011
0011
,
2000
3002
2003
3002
,
2003
3200
2300
3200
,
2300
3002
2003
3002
,
0023
0000
0200
0330
,
0002
2003
3002
2003
,
3200
2300
3200
2300
,
3002
0023
0230
2300
,
3200
0000
0020
0330
,
2002
0000
3003
0000
1000
0001
1000
0000
,
1000
0000
1000
0000
1000
0010
1000
0000
,
0002
1003
2000
3001
,
1100
1100
1010
1010
,
1000
1000
0001
0001
,
1000
0100
1000
0000
0001
1000
0001
0000
,
2000
0001
3001
0000
0002
0100
0103
0000
,
1000
1000
0011
0011
,
2001
0000
0001
0002
0000
0000
0000
0000
,
3003
0000
0000
0000
;

//--------------- dance-single - ----------------
#NOTES:
     dance-single:
     :
     Hard:
     8:
     0.394,0.401,0.164,0.318,0.128:
0000
0000
0000
0000
,
0000
0000
0000
0000
,
0000
0000
0000
0000
,
0000
0000
0000
0000
,
2000
0000
0001
0000
3001
0000
1000
0001
,
2000
3001
0002
2003
,
3200
0000
0310
0000
0010
0100
0010
0100
,
2000
0000
0000
0001
0002
0000
3003
0000
,
1001
0000
0000
0000
1000
0000
0001
0000
0000
0000
0001
0000
0000
1000
0000
0000
,
0100
0000
0000
0000
1000
0000
0001
0000
0000
0000
1000
0000
0000
0010
0000
0000
,
1000
0000
0000
0000
1000
0000
0001
0000
0000
0000
1000
0000
0000
0100
0000
0000
,
1000
0000
0000
0000
0001
0000
0001
0000
0000
0000
0010
0000
0000
0010
0000
0000
,
0100
0000
0000
0000
1000
0000
1000
0000
0000
0000
0010
0000
0000
0100
0000
0000
,
0010
0000
0000
0000
0100
0000
0100
0000
0000
0000
0001
0000
0000
1000
0000
0000
,
0100
0000
0000
0000
1000
0000
0001
0000
0000
0000
0001
0000
0000
0001
0000
0000
,
0100
0000
0010
1000
0020
0000
0130
0000
,
0011
0000
0011
0000
1000
0001
1000
0100
,
1000
0000
1000
0000
0001
1000
0001
1000
,
0200
0000
1300
0010
2000
0000
3010
0010
,
2000
3001
1001
1001
,
1001
0000
1000
0001
1000
0100
0000
0100
,
1000
0000
0001
0000
0001
1000
1000
0100
,
1000
0000
1000
0010
0000
0010
0000
0010
,
1000
0000
0000
1000
0001
0000
0000
0001
0100
0000
0000
1000
0100
0000
0000
0000
,
1001
0000
1000
0001
1000
0000
1000
0001
,
1000
0000
0000
1000
0010
0000
0000
0010
1000
0000
0000
1000
0010
0000
0000
0000
,
2000
0000
3001
0100
0002
0000
1003
0100
,
2000
3001
1001
1001
,
1002
0000
2003
0000
3200
0000
1300
0001
,
2000
0000
3002
0000
0203
0000
0310
0010
,
0200
0000
0302
0000
2003
0000
3001
1000
,
1000
0000
0000
0100
0001
0000
0000
0001
0100
0000
0000
0100
0001
0000
0000
0000
,
2000
0000
3002
0000
2003
0000
3100
1000
,
0100
0000
0000
0010
1000
0000
0000
1000
0010
0000
0000
0010
1000
0000
0000
0000
,
0002
0000
2003
0000
3001
0100
0001
0100
,
0020
0000
0000
0100
0100
0000
1030
0000
,
1001
0000
1000
0001
1000
0001
0000
0001
,
0100
0000
1000
0001
1000
0000
1000
0100
,
1000
0000
1000
0010
0000
0010
0000
0010
,
1000
0000
0000
1000
0001
0000
0000
0001
0100
0000
0000
0100
0010
0000
0000
0000
,
1001
0000
1000
0001
1000
0000
1000
0100
,
1000
0000
0000
1000
0100
0000
0000
0100
1000
0000
0000
1000
0010
0000
0000
0000
,
1001
0000
1000
0001
1000
0000
1000
0100
,
1000
0000
1000
0001
1001
0000
1001
0000
,
2001
0000
0001
0002
0000
0000
0000
0000
,
3003
0000
0000
0000
;

//--------------- dance-single - ----------------
#NOTES:
     dance-single:
     :
     Challenge:
     10:
     0.439,0.424,0.246,0.287,0.287:
0000
0000
0000
0000
,
0000
0000
0000
0000
,
0000
0000
0000
0000
,
0000
0000
0000
0000
,
2000
0000
3002
0000
2003
0000
0100
3100
,
1020
2030
3002
2003
,
3200
0000
0320
0000
0100
0100
0130
0001
,
0020
0000
0000
0100
0200
0000
0330
0000
,
1001
0000
0000
0001
0000
0000
0001
0000
0000
0000
1000
0000
0000
1000
0000
1000
,
0100
0000
0000
1000
0000
0000
0001
0000
0000
0000
1000
0000
0000
1000
0000
1000
,
0001
0000
0000
0100
0000
0000
1000
0000
0000
0000
1000
0000
0000
0001
0000
0100
,
0001
0000
0000
0010
0000
0000
1000
0000
0000
0000
1000
0000
0000
0001
0000
1000
,
0100
0000
0000
1000
0000
0000
0001
0000
0000
0000
1000
0000
0000
0001
0000
0100
,
0001
0000
0000
1000
0000
0000
1000
0000
0000
0000
0010
0000
0000
0100
0000
1000
,
0100
0000
0000
1000
0000
0000
0001
0000
0000
0000
0100
0000
0000
1000
0000
1000
,
0100
0000
0000
1000
0000
0000
0001
0000
0000
0000
1000
0000
0000
0100
0000
1000
,
0100
0000
0000
0001
0000
0000
0001
0000
0000
0000
0001
0000
0000
0001
0000
0001
,
0100
0000
0000
0010
0000
0000
0010
0000
0000
0000
1000
0000
0000
1000
0000
1000
,
0100
0000
0000
1000
0000
0000
1000
0000
0000
0000
0001
0000
0000
0001
0000
1000
,
0001
0000
0000
0100
0000
0000
0100
0000
1100
0000
0000
0000
1010
0000
0000
0000
,
1001
0000
1000
0000
0001
0000
1000
0000
0100
0000
1000
0000
0000
0001
0000
1000
,
0100
1000
0001
1000
0100
1000
0001
1000
,
0110
0010
1000
0001
0000
0101
0000
1000
,
0100
0000
0000
0001
0100
0000
0000
1000
0100
0000
0000
0001
0100
0000
0000
0000
,
1001
1000
0001
1000
0100
1000
0001
0010
,
0100
0000
0000
1000
0100
0000
0000
0001
0100
0000
0000
1000
0100
0000
1000
0000
,
1001
0000
0001
0100
0101
0000
1000
0100
,
1100
0000
1000
0010
1010
0000
0011
0000
,
2001
0000
3002
0000
0203
0000
0301
1000
,
0200
2300
3020
1030
,
0002
0000
2003
0000
3200
0000
1300
1000
,
0001
0000
0000
1000
0100
0000
0000
0001
0100
0000
0000
1000
0100
0000
0000
0000
,
0002
0000
2003
0000
3200
0000
1300
1000
,
0010
0000
0000
1000
0100
0000
0000
0001
0100
0000
0000
1000
0100
0000
0000
0000
,
0002
0000
2003
0000
3010
0010
1000
0001
,
0200
0000
0000
0310
1010
0000
0011
0000
,
1001
0000
1000
0000
0001
0000
1000
0000
0100
0000
1000
0000
0000
0001
0000
0001
,
0100
1000
0001
1000
0100
1000
0001
1000
,
1001
1000
0001
0100
0000
1010
0000
0010
,
1000
0000
0000
0010
0001
0000
0000
0010
1000
0000
0000
0010
0001
0000
0000
0000
,
1001
0001
1000
0100
1000
0001
0100
0001
,
1000
0000
0000
0001
0100
0000
0000
1000
0100
0000
0000
0001
0100
0000
0000
0000
,
1001
1000
0001
1000
0100
1000
0001
1000
,
0100
0000
0010
1000
1010
0000
1100
0000
,
2001
0000
0001
0002
0000
0000
0000
0000
,
3003
0000
0000
0000
;
