#TITLE:I Want You;
#SUBTITLE:(Hot Radio Mix);
#ARTIST:Savage Garden;
#TITLETRANSLIT:;
#SUBTITLETRANSLIT:;
#ARTISTTRANSLIT:;
#CREDIT:;
#BANNER:I Want You (Hot Radio Mix).png;
#BACKGROUND:I Want You (Hot Radio Mix)-bg.png;
#LYRICSPATH:;
#CDTITLE:;
#MUSIC:I Want You (Hot Radio Mix).ogg;
#OFFSET:-0.042;
#SAMPLESTART:75.490;
#SAMPLELENGTH:15.476;
#SELECTABLE:YES;
#DISPLAYBPM:124.000;
#BPMS:0.000=124.056,67.000=119.048,68.000=124.029,155.000=126.984,157.000=123.975;
#STOPS:;
#BGCHANGES:20.000=geometry1.avi=1.400=1=0=1,
36.000=blinds1.avi=1.200=0=0=1,
52.000=ring12.avi=1.000=0=0=1,
68.000=tunnel10.avi=1.200=0=0=1,
84.000=letters1.avi=1.000=0=0=1,
100.000=ring8.avi=1.200=0=0=1,
108.000=numbers3.avi=1.000=0=0=1,
124.000=circle1a.avi=1.200=0=0=1,
140.000=wheel1.avi=1.200=0=0=1,
152.000=lady12r.avi=0.900=0=0=1,
155.875=ring12.avi=1.000=0=0=1,
172.000=geometry1.avi=1.400=0=0=1,
188.000=wave2.avi=1.200=0=0=1,
204.000=ring8.avi=1.200=0=0=1,
220.000=tunnel10.avi=1.000=0=0=1,
236.000=I Want You (Hot Radio Mix)-bg.png=1.000=1=0=1,
99999=-nosongbg-=1.000=0=0=0 // don't automatically add -songbackground-
;

//---------------dance-single - ----------------
#NOTES:
     dance-single:
     :
     Beginner:
     3:
     0.144,0.172,0.091,0.000,0.000:
0000
0000
0000
0000
,
0000
0000
0000
0000
,
0000
0000
0000
0000
,
0000
0000
0000
0000
,
0000
0000
0000
0000
,
1000
0000
0010
0000
,
1000
0000
0001
0000
,
0100
0000
0001
0000
,
1001
0000
0000
0001
,
0001
0000
0100
0000
,
0010
0000
1000
0000
,
0010
0000
0100
0000
,
1001
0000
0000
1000
,
1000
0000
0100
0000
,
0001
0000
1000
0000
,
1000
0000
0010
0000
,
0110
0000
0000
0000
,
0001
0001
0000
0000
,
0100
0000
0010
0000
,
1000
1000
0000
0000
,
1000
0000
0100
0000
,
0001
0001
0000
0000
,
0010
0000
0100
0000
,
1000
1000
0000
0000
,
0001
0000
0100
0000
,
0010
0010
0000
1000
,
0001
0000
0100
0000
,
0100
0000
0100
0000
,
1000
0000
0001
0000
,
0010
0000
0001
0000
,
1000
0000
0100
0000
,
1001
0000
0001
0000
,
0001
0000
0001
0000
,
0100
0000
0010
0000
,
0100
0000
1000
0000
,
1001
0000
0000
0001
,
0001
0000
1000
0000
,
1001
0000
0100
0000
,
1000
1000
1000
1000
,
0001
0000
0100
0000
,
0010
0000
1000
0000
,
0001
0000
0100
0000
,
1001
0000
0000
0001
,
0001
0000
0010
0000
,
0010
0000
0100
0000
,
1000
0000
0001
0000
,
1001
0000
0000
0001
,
0001
0000
0010
0000
,
1000
0000
0001
0000
,
0100
0000
0001
0000
,
1001
0000
0000
1000
,
0001
0000
0100
0000
,
0001
0000
0010
0000
,
1000
0000
0100
0000
,
1001
0000
0000
0000
,
1000
1000
0000
0000
,
0001
0001
0000
0000
,
0100
0100
0000
0000
,
0010
0010
0000
0000
,
1001
0000
0000
0000
;

//---------------dance-single - ----------------
#NOTES:
     dance-single:
     :
     Easy:
     7:
     0.208,0.224,0.075,0.133,0.000:
0000
0000
0000
0000
,
0000
0000
0000
0000
,
0000
0000
0000
0000
,
0000
0000
0000
0000
,
0000
0000
0000
0000
,
1000
0010
1000
0000
,
0001
0001
0100
0000
,
0001
0010
0001
0000
,
1000
1000
0100
0000
,
1001
0000
1000
0000
,
1000
0010
1000
0001
,
0100
0000
0001
0000
,
2000
0000
3001
0000
,
1001
0000
0001
0000
,
1000
0001
0100
0001
,
0010
0000
1000
0000
,
0002
0000
1003
0000
,
2000
0000
3000
0000
,
0002
0000
1003
0000
,
0200
0000
0300
0000
,
0002
0000
0013
0000
,
1000
1000
0010
0000
,
1000
0001
0100
0000
,
0001
0001
0010
0000
,
1000
0100
0001
0000
,
1000
0001
1000
0000
,
0001
1000
0001
0000
,
1000
1000
0001
0001
,
0100
0001
1000
1000
,
0010
0010
1000
1000
,
0001
0000
0110
0000
,
1000
1000
0010
0010
,
1000
0001
0100
0100
,
0001
0001
1000
1000
,
0010
0000
0110
0000
,
1000
0001
1000
0000
,
0010
1000
0010
0000
,
0001
1000
0001
0000
,
1000
1000
0001
0001
,
1001
0000
0100
0000
,
1000
0010
0001
0010
,
1000
0000
0100
0000
,
0002
0000
1003
0000
,
1001
0000
0100
0000
,
0001
1000
0100
1000
,
0001
0000
0010
0000
,
2000
0000
3001
0000
,
1001
0000
0010
0000
,
1000
1000
0001
1000
,
0100
0000
0001
0000
,
2000
0000
3010
0000
,
1001
0000
0001
0000
,
1000
0100
0001
0100
,
1000
0000
0001
0000
,
2000
0000
3010
0000
,
0002
1000
1003
0000
,
2000
0001
3001
0000
,
2000
0100
3100
0000
,
0002
0100
0103
0000
,
2002
0000
0000
0000
,
3003
0000
0000
0000
;

//---------------dance-single - ----------------
#NOTES:
     dance-single:
     :
     Medium:
     11:
     0.376,0.380,0.258,0.241,0.000:
0000
0000
0000
0000
,
0000
0000
0000
0000
,
0000
0000
0000
0000
,
0000
0000
0000
0000
,
0000
0000
0000
0000
,
2000
3010
0002
1003
,
2000
3100
0002
0103
,
0020
1030
0200
1300
,
2000
3001
0002
1003
,
1000
0001
1000
0000
0010
0000
1010
0000
,
1000
0001
1000
0000
0001
0000
0101
0000
,
0020
0000
1030
0000
1000
0001
1000
0000
,
0002
1003
0001
1100
,
1000
0100
1000
0000
0001
0000
0101
0000
,
0010
1000
0010
0000
1000
0000
1100
0000
,
2000
3001
0020
1030
,
1000
0010
1000
0000
1001
0000
0001
1000
,
0001
1000
0000
0010
0000
1000
0000
0001
,
0010
0001
0000
0100
0000
0100
0000
0001
,
1000
0010
0000
1000
0000
1000
0000
1000
,
0001
1000
0000
0010
0000
0010
0000
0010
,
1000
1001
0001
0100
,
0001
0000
1000
0000
0010
1000
0010
0000
,
1000
0110
1000
0010
,
1000
0000
0001
0000
0100
0001
1000
0000
,
0001
1001
0010
1100
,
0001
0000
1010
0000
0001
1000
0001
0000
,
1000
0010
1000
0000
0001
0000
1001
0000
,
1000
1100
0010
1010
,
1000
0001
1000
0000
0001
0100
0001
0000
,
0010
0000
1000
0000
0001
1000
0001
1000
,
0100
0010
0001
0000
1000
0000
0110
0000
,
1000
0101
0100
0011
,
1000
0001
1000
0000
0010
0010
1000
0000
,
1000
0000
0001
0000
1000
0001
0001
0100
,
1000
0001
0000
0100
0000
0001
1000
0000
,
1000
0010
0000
0000
1000
0000
1001
0000
,
1000
0100
0000
1000
0000
1000
0010
0000
,
1001
1001
0110
0110
,
2000
0001
0010
3001
,
1000
0010
1000
0000
0001
1000
0001
0000
,
2000
0010
0001
3100
,
0001
1000
0001
0000
1000
0000
0110
0000
,
2001
0100
0010
3010
,
1000
0001
1000
0000
0010
1000
0010
0000
,
0002
0010
0100
1003
,
1000
0001
0100
0000
0010
0000
0001
1000
,
0002
1000
1000
1003
,
1000
0010
1000
0000
0001
1000
0001
0000
,
0020
1000
0100
0130
,
2000
0000
3001
0000
0100
0100
0001
0000
,
0002
1000
0010
0103
,
1000
0001
1000
0000
0001
0010
1000
0000
,
0002
1000
1000
0103
,
2000
3010
0200
0301
,
2000
3001
0110
1001
,
0002
1003
0011
1100
,
0020
1030
1010
0101
,
2000
0000
3010
0000
1000
1000
0100
0001
,
2002
0000
0000
0000
,
0000
0000
0000
0000
,
3003
0000
0000
0000
;

//---------------dance-single - ----------------
#NOTES:
     dance-single:
     :
     Hard:
     13:
     0.454,0.456,0.274,0.100,0.191:
0000
0000
0000
0000
,
0000
0000
0000
0000
,
0000
0000
0000
0000
,
0000
0000
0000
0000
,
0000
0000
0000
0000
,
0001
1100
0001
0011
,
1000
0010
1010
0000
1000
0001
1001
0000
,
2000
0000
0000
0000
3001
0000
0000
0000
0001
0000
1000
0000
0001
0000
0000
2000
,
0000
0000
0001
0000
0001
0000
3001
0100
,
1000
0001
1000
0000
1000
0010
1000
0000
,
0100
0001
1000
0100
1000
0000
1001
0000
,
0002
0000
0000
0000
0013
0000
0000
1000
0000
0000
0001
0000
0100
0000
0000
0001
,
0000
1000
1000
0000
0010
1000
1010
0000
,
0001
0100
1000
0000
0001
1000
0001
0000
,
1000
0010
1000
0010
0001
0000
1001
0000
,
0002
0000
0000
0000
1003
0000
0000
0000
0100
0000
1000
0000
0001
0000
0000
1000
,
0000
0000
0001
0000
0010
0000
0000
0000
1001
0000
0000
0000
1000
0100
1000
0100
,
1000
0001
0000
1000
0000
0100
0000
1000
,
1001
0001
0000
0001
0100
0001
0000
0010
,
1001
0100
0000
0001
0000
1000
0000
0010
,
1010
0001
0000
0100
0001
0100
0000
0001
,
1001
0000
0001
0000
0100
0000
0000
1000
0001
0000
0000
0001
1000
0000
0000
0000
,
1000
0000
0100
0000
1000
0000
0000
0010
1000
0000
0000
1000
0010
0000
0000
0000
,
1001
0000
0100
0000
0001
0000
0000
0001
0100
0000
0000
0100
0010
0000
0000
0000
,
1000
0000
0001
0000
1000
0000
0000
0001
0100
0000
0000
1000
0100
0000
0000
0000
,
1000
0001
1000
0001
0000
0100
0000
0001
,
1000
0010
1000
0001
0010
1000
0000
0100
,
0001
1000
0001
1000
0001
1000
0001
1000
,
0010
1000
0010
1000
0010
1000
0010
0000
,
1000
0001
1000
0000
0001
0100
0001
0000
,
1000
0000
0010
0000
1000
0000
0000
0000
0001
0010
0001
1000
0001
0000
1000
0000
,
0001
0100
0001
0100
0001
0100
0001
0100
,
0010
1000
0010
1000
0010
1000
0010
0000
,
1000
0001
0100
0000
0001
1000
0010
0000
,
1000
0000
0001
0000
1000
0000
0000
0001
0100
0000
0000
1000
0100
0000
1000
0000
,
1001
1001
0000
0100
0000
0001
1000
0010
,
1000
0001
0000
1000
0000
0001
1000
0001
,
1010
1010
0000
0001
0000
1000
0001
0100
,
1001
0101
1010
1001
,
1001
0000
0000
0000
0100
0000
0000
1000
0000
1000
0010
0000
1000
0000
0001
0000
,
0100
0000
0100
0000
0100
0000
0000
0000
0001
0000
0000
0010
0000
1000
0010
0000
,
1000
0000
0100
0000
0001
0000
0000
1000
0000
0000
0010
0000
1000
0000
0000
0000
,
0001
0000
0100
0000
0100
0000
1000
0002
0000
0000
0000
0000
1003
0000
0000
0000
,
1001
0000
0000
0000
0100
0000
0000
0001
0000
0010
1000
0000
0001
0000
1000
0000
,
0100
0000
0100
0000
0100
0000
0000
0000
1000
0000
0000
0001
0000
0010
1000
0000
,
0001
1000
0001
0000
0100
0010
1000
0000
,
1000
0000
0100
0000
0100
0000
0010
0002
0000
0000
0000
0000
1003
0000
1000
0000
,
1001
0000
0000
0000
1000
0000
0000
0100
0000
0000
1000
0000
0001
0000
0100
0000
,
0001
0000
1000
0000
0010
0000
0000
1000
0000
0000
0001
0000
0100
0000
0000
0000
,
1001
0000
0000
0000
0010
0000
0000
1000
0000
0000
0001
0000
0100
0000
0000
0001
,
0000
0000
1000
0000
1000
0000
0000
0000
0010
0000
0000
1000
0000
0001
1000
0000
,
1001
0000
0000
0000
0001
0000
0000
0100
0000
0000
0001
0000
1000
0000
0010
0000
,
1000
0000
1000
0000
0001
0000
0000
0100
0000
0000
0001
0000
0010
0000
0000
0000
,
0110
0000
0000
0000
0001
0000
0000
0000
1000
0000
0100
0000
1000
0000
0000
0010
,
0000
1000
1000
0000
1001
0000
0100
0100
,
0210
0000
0000
0000
0301
0000
0000
0010
1000
0000
0000
1000
0001
0000
0000
0000
,
2001
0000
0000
0000
3100
0000
0000
0001
1000
0000
0000
0100
0001
0000
0000
0000
,
1002
0000
0000
0000
0013
0000
0000
1000
0100
0000
0000
0001
0100
0000
0000
0000
,
1002
0000
0000
0000
0103
0000
0000
1000
0001
0000
0000
0100
0001
0000
0000
0000
,
2002
0000
0000
0000
,
0000
0000
0000
0000
,
3003
0000
0000
0000
;

//---------------dance-single - ----------------
#NOTES:
     dance-single:
     :
     Challenge:
     15:
     0.626,0.659,0.399,0.224,0.391: // measure 1
0000
0000
0000
0000
,  // measure 2
0000
0000
0000
0000
,  // measure 3
0000
0000
0000
0000
,  // measure 4
0000
0000
0000
0000
,  // measure 5
0000
0000
0000
0000
,  // measure 6
0100
1000
1010
0000
0100
0001
0011
0000
,  // measure 7
0001
0010
0101
0000
1000
0100
1100
0000
,  // measure 8
1000
0001
1001
0000
0100
0010
0110
0000
,  // measure 9
1000
0100
1000
0001
0100
0010
1000
0000
,  // measure 10
0100
0001
0010
0001
0100
0001
0010
0001
,  // measure 11
0100
1000
0010
1000
0100
1000
0010
1000
,  // measure 12
0100
0010
0001
0010
0100
1000
0100
0010
,  // measure 13
0001
1000
1000
0001
0100
0100
0100
0000
,  // measure 14
1000
0001
0100
0001
1000
0001
0100
0001
,  // measure 15
1000
0001
0010
0001
1000
0001
0010
0001
,  // measure 16
1000
0100
0010
0001
0010
0100
1000
0001
,  // measure 17
1000
0000
1000
0000
0001
0000
0001
0000
0100
0000
0100
0000
0100
0001
1000
0000
,  // measure 18
2001
0100
0000
0100
0000
3100
0000
0010
,  // measure 19
2001
0100
0000
3100
0001
1000
0100
0010
,  // measure 20
0120
0100
0000
0100
0000
0130
0000
0100
,  // measure 21
0012
0100
0000
1003
0001
1000
0010
1000
,  // measure 22
2001
0000
0001
0000
3100
0000
0001
0010
0001
0000
1000
0010
1000
0000
0001
0000
,  // measure 23
0002
0000
0100
0000
0013
0000
1000
0001
0010
0000
0010
0001
1000
0000
0001
0000
,  // measure 24
2100
0000
0100
0000
3010
0000
1000
0010
1000
0000
0001
0010
0001
0000
1000
0000
,  // measure 25
0020
0000
0001
0000
0031
0000
0001
0010
0100
0000
1000
0100
0010
0000
0010
0000
,  // measure 26
2000
0100
3100
1000
0010
1000
0010
0010
,  // measure 27
0002
0000
0100
0000
0103
0000
1000
0001
1000
0001
1000
0001
0010
0000
0001
0000
,  // measure 28
1000
0010
1000
0000
0001
1000
0001
0000
0001
0100
0001
0000
0010
0001
0010
0000
,  // measure 29
1000
0001
1000
0000
1000
0010
1000
0000
0100
0010
0100
0000
0010
0001
0010
0000
,  // measure 30
1000
0001
0010
0000
0100
0010
0100
0000
0001
0100
0001
0000
1000
0010
1000
0000
,  // measure 31
0010
0001
0100
0000
0010
1000
0001
0000
1000
0001
1000
0001
2000
0000
3001
0000
,  // measure 32
1000
0010
1000
0000
0001
0100
0010
0000
1000
0001
0100
0000
0001
0010
0001
0000
,  // measure 33
1000
0001
1000
0000
0010
1000
0100
0000
1000
0010
0100
0000
0001
1000
0010
0000
,  // measure 34
0100
0001
1000
0000
0100
0001
0100
0000
0010
0001
0010
0000
1000
0001
0010
0000
,  // measure 35
0100
0010
1000
0000
0001
1000
0010
1000
0001
0000
1000
0001
0020
0000
0130
0000
,  // measure 36
1001
0000
0100
0000
0010
0000
0010
0001
0000
0001
1000
0000
0010
0000
1000
0000
,  // measure 37
1001
0000
0100
0000
1000
0000
1000
0010
0000
1000
0010
0000
0001
0000
1000
0000
,  // measure 38
0110
0000
0100
0000
0001
0000
1000
0010
0000
0001
0010
0000
0100
0000
0010
0000
,  // measure 39
1001
0000
0000
0000
1001
0000
0000
0000
0110
0000
0000
0000
1000
0001
1000
0000
,  // measure 40
1001
0000
0000
0000
1001
0000
0000
0010
0000
0010
1000
0000
0100
0000
0100
0000
,  // measure 41
0011
0000
0011
0000
1001
0000
0000
0000
1001
0000
0000
0100
0000
0100
0010
0000
,  // measure 42
0110
0000
0110
0000
0110
0000
0000
0000
0010
0000
0000
0001
0000
0001
0010
0000
,  // measure 43
1100
0000
1100
0000
1100
0000
0010
0002
0000
0000
0000
1000
0003
0010
1000
0000
,  // measure 44
1001
0000
0000
0000
1001
0000
0000
0010
0000
0010
1000
0000
0001
0000
0001
0000
,  // measure 45
1100
0000
1100
0000
1001
0000
0000
0000
1001
0000
0000
0001
0000
1000
0010
0000
,  // measure 46
0101
0000
0101
0000
0101
0000
0000
0000
0010
0000
0000
0010
0000
0100
0010
0000
,  // measure 47
1100
0000
1100
0000
1100
0000
1000
0010
1000
0001
1000
0000
0010
0100
0010
0000
,  // measure 48
0002
0000
0000
0000
1003
0000
0000
0010
0000
1000
0010
0000
1000
0000
1000
0000
,  // measure 49
0020
0000
0100
0000
0130
0000
0000
0000
0010
0000
0000
0010
0000
1000
0001
0000
,  // measure 50
0200
0000
0001
0000
0301
0000
0000
0000
0110
0000
0000
1000
0000
0001
1000
0000
,  // measure 51
0002
0000
0100
0000
0103
0000
0010
1000
0000
0000
0000
0001
0000
1000
0001
0000
,  // measure 52
0200
0000
0000
0000
0301
0000
0000
1000
0000
1000
0010
0000
0100
0000
0100
0000
,  // measure 53
0020
0000
1000
0000
1030
0000
0000
0000
1001
0000
0000
0001
0000
0001
1000
0000
,  // measure 54
0200
0000
0001
0000
0301
0000
0000
0000
1001
0000
0000
1000
0000
0010
1000
0000
,  // measure 55
0020
0000
0100
0000
0130
0000
1000
0010
0000
0010
1000
0000
0100
0000
0100
0000
,  // measure 56
0002
0000
0000
0000
0013
0000
1000
0010
1000
0000
0100
0001
0100
0000
0000
0000
,  // measure 57
2000
0000
0000
0000
3001
0000
0010
1000
0001
0000
0100
0001
1000
0000
0000
0000
,  // measure 58
0020
0000
0000
0000
0031
0000
1000
0010
0100
0000
0001
0100
0010
0000
0000
0000
,  // measure 59
0002
0000
0000
0000
0013
0000
0000
1001
0000
1001
0000
0000
0100
0000
0100
0000
,  // measure 60
2002
0000
0000
0000
,  // measure 61
0000
0000
0000
0000
,  // measure 62
3003
0000
0000
0000
;
