#TITLE:I Fell In Love;
#SUBTITLE:;
#ARTIST:Rockell;
#TITLETRANSLIT:;
#SUBTITLETRANSLIT:;
#ARTISTTRANSLIT:;
#GENRE:;
#CREDIT:;
#MUSIC:I Fell In Love.ogg;
#BANNER:bn.png;
#BACKGROUND:bg.png;
#CDTITLE:;
#SAMPLESTART:85.745;
#SAMPLELENGTH:14.200;
#SELECTABLE:YES;
#OFFSET:-0.335;
#BPMS:0.000=180.294
,0.500=129.224
,1.000=134.923
,16.000=135.001
,60.000=135.891
,64.000=134.978
,224.000=135.395
;
#STOPS:;
#DISPLAYBPM:135.000;
#BGCHANGES:16.000=beads1.avi=0.700=1=0=1===CrossFade==,
32.000=tunnel1.avi=1.000=0=0=1,
48.000=ring12.avi=1.000=0=0=1,
64.000=web1.avi=1.000=0=0=1,
80.000=colors1.avi=1.000=0=0=1,
96.000=ring3.avi=1.000=0=0=1,
112.000=ring12.avi=1.000=0=0=1,
128.000=bluey1.avi=1.000=0=0=1,
144.000=web1.avi=1.000=0=0=1,
160.000=cube5.avi=1.000=0=0=1,
168.000=bluey1.avi=1.000=0=0=1,
176.000=cube5.avi=1.000=0=0=1,
184.000=ring12.avi=1.000=0=0=1,
192.000=tunnel1.avi=1.000=0=0=1,
208.000=web1.avi=1.000=0=0=1,
224.000=colors1.avi=1.000=0=0=1,
240.000=ring12.avi=1.000=0=0=1,
256.000=cube5.avi=1.200=0=0=1,
272.000=tunnel1.avi=1.000=0=0=1,
283.500=I Fell In Love-jacket.png=1.000=1=0=1===CrossFade==,
99999.000=-nosongbg-=1.000=0=0=0=StretchNoLoop====
;
#FGCHANGES:;

//--------------- dance-single - ----------------
#NOTES:
     dance-single:
     :
     Beginner:
     2:
     0.161,0.187,0.084,0,0:
0000
0000
0000
0000
,
0000
0000
0000
0000
,
0000
0000
0000
0000
,
0000
0000
0000
0000
,
1000
0000
1000
0000
,
0001
0000
0001
0000
,
1000
0000
1000
0000
,
0100
0000
0100
0000
,
1001
0000
0000
0001
,
0000
1000
0000
0001
,
0000
1000
0000
1000
,
0000
0001
0000
1000
,
1000
0000
0001
0000
,
1000
0000
0001
0000
,
1000
0000
0100
0000
,
1000
0000
0001
0000
,
1001
0000
1000
0000
,
0001
0001
0001
0000
,
1000
0000
0100
0000
,
1000
1000
1000
0000
,
0001
0000
1000
0000
,
0001
0001
0001
0000
,
0100
0000
0001
0000
,
1000
1000
1000
0000
,
1001
0000
0000
0000
,
0001
0000
0001
0000
,
0001
0000
0000
0000
,
1000
0000
1000
0000
,
1000
0000
0000
0000
,
0100
0000
0100
0000
,
0100
0000
0000
0000
,
0010
0000
0010
0000
,
0010
0000
0000
0000
,
0010
0000
1000
0000
,
0010
0000
0000
0000
,
1000
0000
0001
0000
,
1000
0000
0000
0000
,
0100
0000
0100
0000
,
0100
0000
0000
0000
,
0001
0000
1000
0000
,
1001
0000
1000
0000
,
0001
0001
0001
0000
,
0100
0000
0100
0000
,
0010
0010
0010
0000
,
1000
0000
1000
0000
,
0001
0001
0001
0000
,
1000
0000
0100
0000
,
1000
0000
0001
0000
,
1001
0000
1000
0000
,
0001
0001
0001
0000
,
0100
0000
0100
0000
,
0010
0010
0010
0000
,
1000
0000
0100
0000
,
1000
0000
0001
0000
,
1000
0000
0001
0000
,
1000
1000
1000
0000
,
1001
0000
0000
0000
,
1000
1000
1000
0000
,
1001
0000
1000
0000
,
0001
0001
0001
0000
,
1000
0000
0001
0000
,
1000
0000
0001
0000
,
0100
0000
0001
0000
,
0100
0000
0001
0000
,
1001
0000
0000
0000
,
1000
1000
1000
0000
,
1001
0000
0000
0000
,
0001
0001
0001
0000
,
1001
0000
0000
0000
,
1000
1000
1000
0000
,
1001
0000
0000
0000
;

//--------------- dance-single - ----------------
#NOTES:
     dance-single:
     :
     Easy:
     6:
     0.223,0.268,0.046,0,0:
0000
0000
0000
0000
,
0000
0000
0000
0000
,
0000
0000
0000
0000
,
0000
0000
0000
0000
,
1000
1000
1000
0000
,
0001
0001
0001
0000
,
0100
0100
0100
0000
,
0010
0010
0010
0000
,
1001
0000
1000
0000
,
0001
0001
0001
1000
,
0100
0000
1000
0000
,
1000
1000
1000
0001
,
0100
0000
0010
0000
,
1000
1000
1000
0010
,
1000
0000
0100
0000
,
1000
1000
1000
0001
,
0010
0000
0100
0000
,
0001
1000
0001
1000
,
0100
0000
0010
0000
,
1000
0010
1000
0100
,
1000
0000
0001
0000
,
0100
0001
0100
0010
,
0100
0000
0010
0000
,
1000
1000
0001
0001
,
1001
0000
0100
0000
,
1000
0001
0100
0000
,
1000
1000
0100
0000
,
0100
0100
1000
0000
,
1000
0000
0001
0000
,
1000
0001
1000
0000
,
0100
0000
0100
0000
,
0001
1000
0001
0000
,
1000
0000
1000
0000
,
1000
0100
1000
0000
,
0001
0001
1000
1000
,
0001
1000
0001
0100
,
1001
0000
1000
0000
,
0001
0000
0100
0000
,
0001
1000
0001
0000
,
1000
0001
1000
0000
,
1001
1000
1000
0000
,
1000
1000
0001
0000
,
1000
0100
1000
0001
,
1000
0100
1000
0001
,
1000
0000
0001
0000
,
1000
1000
0100
0000
,
1000
0001
1000
0010
,
1000
0001
0100
0001
,
1001
0000
1000
0000
,
0001
0100
0001
1000
,
0010
0000
1000
0000
,
1000
0100
1000
0001
,
1000
0000
0010
0000
,
0010
1000
0010
1000
,
0100
0000
1000
0000
,
0001
0001
1000
0100
,
1000
0000
0001
0000
,
1000
1000
0001
1000
,
0100
0000
0100
0000
,
1000
1000
0010
1000
,
0010
0000
1000
0000
,
0001
1000
0001
1000
,
0100
0000
0100
0000
,
1000
0001
1000
0010
,
1000
0001
1000
0000
,
1000
0001
1000
0000
,
1000
0100
1000
0000
,
1000
0001
1000
0000
,
1000
0010
1000
0000
,
1000
0001
1000
0000
,
1001
0000
0000
0000
;

//--------------- dance-single - ----------------
#NOTES:
     dance-single:
     :
     Medium:
     10:
     0.369,0.434,0.237,0.077,0.027:
0000
0000
0000
0000
,
0000
0000
0000
0000
,
0000
0000
0000
0000
,
0000
0000
0000
0000
,
1000
0001
1000
0100
,
1000
0001
1000
0010
,
1000
0001
1000
0100
,
1000
0001
1000
0010
,
0000
1000
0000
0100
0000
0001
0000
0100
,
0000
1000
0000
0100
0000
0001
0000
0100
,
0000
1000
0000
0100
0000
0001
0000
0100
,
0000
1000
0001
0000
0001
1000
0000
0001
,
0000
0001
0000
0100
0000
1000
0000
0100
,
0000
0001
0000
0100
0000
1000
0000
0100
,
0000
0001
0000
0100
0000
1000
0000
0100
,
0000
1000
0100
0000
0100
1000
0000
0001
,
1000
0001
1000
0000
0100
1000
0100
0000
,
0001
1000
0100
1001
,
1000
0001
1000
0000
0001
1000
0001
0000
,
1000
0010
1000
1001
,
1000
0100
1000
0000
0100
1000
0100
0000
,
1000
0001
0100
0101
,
1000
0001
1000
0000
0001
1000
0001
0000
,
1000
0010
1000
1010
,
1000
1000
0001
0001
,
1000
1100
0001
0101
,
1000
0001
1000
0000
1000
0100
1000
0000
,
1000
0001
1000
1001
,
1000
1000
0001
0001
,
1000
1100
0001
0101
,
1000
0001
1000
0000
0001
1000
0001
0000
,
1000
0100
1000
0000
1000
0000
1001
0000
,
0001
0001
1000
1000
,
0001
0101
1000
1100
,
2000
3100
0002
0103
,
2000
3100
0002
0103
,
1000
0001
1000
0100
,
1000
0001
1000
1100
,
1000
0000
0000
0001
0000
0000
0000
0000
0001
0000
0000
1000
0000
0000
0000
0000
,
1000
0000
0000
0001
0000
0000
0000
0000
1000
0000
0000
0000
1001
0000
0000
0000
,
0002
0000
0000
0000
1000
0000
0000
0000
1000
0000
0000
1000
0003
0000
0000
0000
,
2000
0000
0000
0000
0001
0000
0000
0000
0001
0000
0000
0001
3000
0000
0000
0000
,
1000
0000
0010
1000
0010
0000
1000
0000
,
0001
0100
0001
1001
,
2000
0000
0000
0000
0001
0000
0000
0000
0001
0000
0000
0001
3000
0000
0000
0000
,
0002
0000
0000
0000
1000
0000
0000
0000
1000
0000
0000
1000
0003
0000
0000
0000
,
2000
3001
0002
1003
,
1000
0100
1000
1001
,
0000
1000
0000
1000
0000
0100
0000
0100
,
0000
1000
0000
1000
0000
0100
0000
0100
,
0000
1000
0000
0100
0000
1000
0000
0100
,
0000
1000
0001
0000
0001
1000
0000
1001
,
0000
1000
0000
1000
0000
0010
0000
0010
,
0000
1000
0000
1000
0000
0010
0000
0010
,
0000
0100
0000
0010
0000
0100
0000
0010
,
0000
0001
1000
0000
1000
0001
0000
1001
,
0000
1000
0001
1000
0000
1000
0000
1000
,
0000
0100
0000
0100
0000
1000
0000
1000
,
0000
0001
1000
0001
0000
1000
0001
1000
,
0000
1000
0000
0100
0000
1000
0000
0100
,
0000
1000
0001
1000
0000
0001
1000
0001
,
0000
1000
0000
1000
0000
0001
0000
0001
,
0000
1000
0100
1000
0000
1000
0001
1000
,
0000
0001
0000
1000
0000
0001
0000
1001
,
0000
1000
0001
1000
0000
0001
1000
0001
,
0000
1000
0000
1000
0000
0001
0000
0001
,
0000
1100
0000
1100
0000
1010
0000
1010
,
0000
1100
0000
1100
0000
1010
0000
1010
,
0000
0001
0000
0001
0000
1000
0001
1000
,
0000
1000
0000
1000
0000
1000
0001
1000
,
0000
0101
0000
0101
0000
0011
0000
0011
;

//--------------- dance-single - ----------------
#NOTES:
     dance-single:
     :
     Hard:
     11:
     0.485,0.461,0.513,0.084,0.05:
0000
0000
0000
0000
,
0000
0000
0000
0000
,
0000
0000
0000
0000
,
0000
0000
0000
0000
,
1000
0000
0001
0000
1000
0000
0100
0010
,
1000
0001
1000
0100
1000
0001
1000
0100
,
1000
0000
0001
0000
1000
0000
1000
0001
,
1000
0100
1000
0010
1000
0001
1000
0100
,
0000
1010
0000
1010
0000
1100
0000
1100
,
0000
1010
0000
1010
0000
1100
0000
1100
,
0000
1010
0000
1100
0000
1010
0000
1100
,
0000
1000
0001
1000
0000
0001
0000
0100
,
0000
1001
0000
1001
0000
0110
0000
0110
,
0000
1001
0000
1001
0000
0110
0000
0110
,
0000
1001
0000
0110
0000
1001
0000
0110
,
0000
1000
0001
1000
0000
1000
0100
1000
,
0100
1000
0010
0000
1000
0001
1000
0000
,
1000
0100
1000
0001
1000
0001
0001
0000
,
1000
0001
1000
0000
1000
0100
1000
0000
,
1000
0010
1000
0100
1000
0100
0100
0000
,
1000
0001
1000
0100
1000
0001
1000
0000
,
0001
0010
0001
0010
1000
0001
1000
0000
,
1000
0100
1000
0000
1000
0001
1000
0000
,
1000
0100
1000
0001
1000
0000
1001
0000
,
1000
0000
0001
0000
0100
0001
0100
0000
,
1000
0000
1000
0000
0001
1000
0001
0000
,
1000
0001
1000
0100
0000
0001
0001
0000
,
0001
1000
0001
0100
1000
0100
0001
0000
,
1000
0000
1000
0000
0001
0100
0001
0000
,
1000
0000
0100
0000
1000
0100
0100
0000
,
1000
0000
0000
0001
0000
0000
1000
0000
1000
0000
0000
0100
0000
0000
1000
0000
,
0010
0000
0000
1000
0000
0000
0001
0000
0000
0000
1000
0000
0001
0000
1000
0000
,
0001
0000
1000
0000
0100
1000
0100
0000
,
1000
0000
0001
0000
1000
0001
1000
0000
,
0011
0011
1100
1100
,
0101
0101
1010
1010
,
1000
0000
0001
0000
1000
0000
0000
0000
1000
0000
0000
0100
0000
0000
1000
0000
,
1000
0000
1000
0001
0000
0001
1000
0000
,
0001
0000
0000
1000
0000
0000
0100
0000
1000
0000
0000
0010
0000
0000
1000
0000
,
0001
0000
0000
1000
0000
0000
0001
0000
0002
0000
0000
0000
0203
0000
0000
0000
,
0301
0000
1000
0000
0010
0000
1000
0000
0001
0000
0000
1000
0000
0000
0000
0000
,
1000
0000
0001
0000
1000
0000
0100
0000
1000
0000
0000
0001
0000
0000
0000
0000
,
1001
0000
1000
0001
2000
0000
3002
0000
,
1000
0000
0000
1003
0000
0000
1000
0000
0100
1000
0000
0000
,
1000
0000
0001
0000
0100
0000
0001
0000
0001
0000
0000
1000
0000
0000
0000
0000
,
1000
0000
0001
0000
0100
0000
0001
0000
1000
0000
0000
0001
0000
0000
0000
0000
,
2000
3002
2003
3002
,
0203
0000
0000
0302
0000
0000
1003
0000
0001
0100
0000
0000
,
0001
1010
0000
1010
0000
1001
0000
1001
,
0000
1100
0000
1100
0000
1001
0000
1001
,
0000
1010
0000
1010
0000
1001
0000
1001
,
1000
0001
0100
0001
0000
2000
0000
3001
,
0000
1001
0000
1001
0000
0110
0000
0110
,
0000
1001
0000
0110
0000
1001
0000
0110
,
0000
1000
0010
1000
0000
1000
0100
1000
,
0000
0001
1000
0001
1000
0001
1000
0100
,
0000
1000
0001
1000
0000
0101
0000
0101
,
0000
1000
0001
1000
0000
1100
0000
1100
,
0000
1000
0010
1000
0000
1000
0001
1000
,
0000
1000
0001
1000
0100
1000
0000
1000
,
0000
0100
0001
0100
0000
0101
0000
0101
,
0000
1000
0001
1000
0000
1100
0000
1100
,
0000
1000
0001
1000
0000
1000
0010
1000
,
0000
1000
0001
1000
0000
1100
0000
1100
,
0000
1000
0001
1000
0001
1000
0000
0101
,
0000
0001
1000
0001
1000
0001
0000
1100
,
0000
1000
0001
1000
0000
0001
0100
0001
,
0000
1000
0001
0100
0001
1000
0000
1100
,
0000
1000
0001
1000
0100
1000
0000
1000
,
0000
1000
0001
1000
0001
1000
0000
0001
,
0000
1000
0100
1000
0000
1000
0001
1000
;

//--------------- dance-single - ----------------
#NOTES:
     dance-single:
     :
     Challenge:
     13:
     0.532,0.542,0.191,0.015,0.096:
0000
0000
0000
0000
,
0000
0000
0000
0000
,
0000
0000
0000
0000
,
0000
0000
0000
0000
,
1000
0001
1000
0001
1000
0001
0100
0100
,
0010
0010
1000
1000
0001
0001
1000
1000
,
0001
1000
0001
1000
0001
1000
0001
0001
,
1000
1000
0100
0100
1000
1000
0001
0001
,
0000
1000
0001
1000
0001
1000
0001
1000
,
0000
1000
0100
1000
0100
1000
0100
1000
,
0000
1000
0010
1000
0010
1000
0010
1000
,
0000
1000
0001
1000
0000
0011
0000
1001
,
0000
1000
0001
1000
0001
1000
0001
1000
,
0000
0001
0100
0001
0100
0001
0100
0001
,
0000
1000
0001
1000
0001
1000
0001
1000
,
0000
1000
0010
1000
0000
1010
0000
1001
,
0000
1000
0001
1000
0001
1000
0001
1000
,
0001
1000
0000
1100
0000
1000
0001
0000
,
1000
0001
1000
0100
1000
0001
1000
0100
,
1000
1000
0000
0011
0000
1000
0001
0000
,
1000
0001
0100
0001
1000
0100
1000
0010
,
1000
1000
0000
1001
0000
0100
0100
0000
,
1000
0001
0100
0001
0100
0001
0010
0100
,
0010
0000
0010
0000
0000
0000
1001
0000
0000
0000
1000
0000
1000
0000
0000
1000
,
0001
1000
1000
0000
0001
0010
0010
0000
,
1000
0000
0010
0000
1000
0000
0010
0000
1000
0000
0001
0000
1000
0000
0000
0001
,
1000
0001
0100
0001
1000
0100
1000
0000
,
1000
0000
0010
0000
1000
0000
0001
0000
1000
0000
0100
0000
1000
0000
0000
1000
,
0001
1000
0001
0000
1000
1000
1000
0000
,
0001
0000
0100
0000
0001
0000
1000
0000
0010
0000
1000
0000
0001
0000
0000
1000
,
0100
0000
0000
0001
0000
0000
0100
0000
0010
0000
0000
1000
0000
0000
0100
0000
,
1000
0000
0000
0001
0000
0000
1000
0000
0000
0000
0001
0000
1000
0001
1000
0000
,
1000
0001
1000
0100
1000
0001
1000
0000
,
1000
0000
0010
0000
1000
0000
0001
0000
1000
0000
0001
0000
1000
0000
0000
0001
,
0100
0001
0100
0000
0001
1000
1000
0000
,
0001
0000
1000
0000
0001
0000
1000
0000
0001
0000
1000
0000
0100
0000
0000
0100
,
1000
0001
1000
0001
1000
0100
1000
0000
,
1000
0010
1000
0010
1000
0001
1000
0000
,
0001
0000
0000
0100
0000
0000
0100
0000
0001
0000
0000
0001
0000
0000
1000
0000
,
1000
0000
0000
0100
0000
0000
1000
0000
0001
0000
1000
0000
0001
0000
0000
0000
,
1000
0001
1000
0000
0100
0000
1000
0000
1010
0000
0000
1010
0000
0000
0000
0000
,
1000
0001
1000
0000
0001
0000
0100
0000
0101
0000
0000
0101
0000
0000
0000
1000
,
0200
0000
1300
0001
2000
0000
3001
0000
,
1010
0000
0000
1010
0000
0000
1000
0000
1000
0100
0000
0000
,
1000
0001
1000
0000
1000
0000
0010
0000
1100
0000
0000
1100
0000
0000
0000
0000
,
1000
0100
1000
0000
0010
0000
1000
0000
1001
0000
0000
1001
0000
0000
0000
0010
,
1000
1000
0001
0000
0001
0001
1000
0000
,
1000
0000
0000
0001
0000
0000
1000
0000
0000
0100
0000
0000
1000
0000
0000
0000
0001
0000
1000
0000
0000
0000
0000
0000
,
1000
0001
1000
0001
1000
0001
1000
0001
,
0000
0100
0001
0100
0001
0100
0001
0100
,
0000
1000
0001
1000
0001
1000
0001
1000
,
0100
1000
0010
1000
0010
1000
0010
1000
,
0000
1000
0001
1000
0001
1000
0001
1000
,
0000
1000
0100
1000
0100
1000
0100
1000
,
0000
1000
0001
1000
0001
1000
0001
1000
,
0100
1000
0001
1000
0001
1000
0001
1000
,
0000
0001
1000
0001
1000
0100
1000
0001
,
0000
1000
0010
1000
0001
1000
0100
1000
,
0000
1000
0001
1000
0010
0100
0010
1000
,
0001
1000
0001
1100
0000
1010
0000
1100
,
0000
1000
0001
1000
0001
1000
0001
1000
,
0000
1000
0100
1000
0100
1000
0100
1000
,
0000
1000
0001
1000
0001
1000
0001
1000
,
0100
1000
0010
1000
0001
1000
0001
1000
,
0000
0001
1000
0001
1000
0001
1000
0001
,
0000
0100
0001
0100
0001
0100
0001
0100
,
0000
1000
0001
1000
0001
1000
0001
1000
,
0000
1000
0100
1000
0000
1100
0000
1100
,
0000
1000
0001
1000
0100
1000
0001
1000
,
0000
1000
0010
0100
0010
1000
0100
0010
,
0000
0100
0010
1000
0000
0101
0000
0101
;
