#TITLE:Got 'til It's Gone;
#SUBTITLE:;
#ARTIST:Janet Jackson feat. Q-Tip;
#TITLETRANSLIT:;
#SUBTITLETRANSLIT:;
#ARTISTTRANSLIT:;
#GENRE:;
#CREDIT:;
#MUSIC:Got 'til It's Gone.ogg;
#BANNER:bn.png;
#BACKGROUND:bg.png;
#CDTITLE:;
#SAMPLESTART:72.237;
#SAMPLELENGTH:16.000;
#SELECTABLE:YES;
#OFFSET:-0.315;
#BPMS:0.000=90.000
,16.000=89.988
;
#STOPS:;
#BGCHANGES:16.000=wheel4.avi=0.900=1=0=1===CrossFade==,
27.000=wheel7.avi=1.000=0=0=1,
27.500=wheel7r.avi=1.000=0=0=1,
28.000=dance10.avi=1.000=0=0=1,
35.000=wheel7.avi=1.000=0=0=1,
35.250=wheel7r.avi=1.000=0=0=1,
35.500=wheel7.avi=1.000=0=0=1,
35.750=wheel7r.avi=1.000=0=0=1,
36.000=cube3.avi=1.000=0=0=1,
43.000=wheel7.avi=1.000=0=0=1,
43.250=wheel7r.avi=1.000=0=0=1,
43.500=wheel7.avi=1.000=0=0=1,
43.750=wheel7r.avi=1.000=0=0=1,
44.000=spiral2.avi=1.000=0=0=1,
51.000=wheel7.avi=1.000=0=0=1,
51.250=wheel7r.avi=1.000=0=0=1,
51.500=wheel7.avi=1.000=0=0=1,
51.750=wheel7r.avi=1.000=0=0=1,
52.000=ribbon2.avi=0.800=0=0=1,
55.000=wheel7.avi=1.000=0=0=1,
55.250=wheel7r.avi=1.000=0=0=1,
55.500=wheel7.avi=1.000=0=0=1,
56.000=silhouette1.avi=1.000=0=0=1,
60.000=stairs1.avi=1.000=0=0=1,
64.000=dance10.avi=1.000=0=0=1,
68.000=wheel4.avi=1.000=0=0=1,
76.000=stairs1.avi=1.000=0=0=1,
80.000=spiral2.avi=1.000=0=0=1,
84.000=ribbon2.avi=0.800=0=0=1,
91.000=wheel7.avi=1.000=0=0=1,
91.250=wheel7r.avi=1.000=0=0=1,
91.500=wheel7.avi=1.000=0=0=1,
92.000=cards4.avi=1.000=0=0=1,
94.250=wheel7r.avi=1.000=0=0=1,
94.500=wheel7.avi=1.000=0=0=1,
94.750=wheel7r.avi=1.000=0=0=1,
95.000=wheel7.avi=1.000=0=0=1,
95.250=wheel7r.avi=1.000=0=0=1,
95.500=wheel7.avi=1.000=0=0=1,
95.750=wheel7r.avi=1.000=0=0=1,
96.000=cards5.avi=0.900=0=0=1,
98.750=wheel7.avi=1.000=0=0=1,
99.000=wheel7r.avi=1.000=0=0=1,
99.500=wheel7.avi=1.000=0=0=1,
99.750=wheel7r.avi=1.000=0=0=1,
100.000=text17.avi=1.200=0=0=1,
103.000=wheel7.avi=1.000=0=0=1,
103.250=wheel7r.avi=1.000=0=0=1,
103.500=wheel7.avi=1.000=0=0=1,
103.750=wheel7r.avi=1.000=0=0=1,
104.000=star2.avi=1.400=0=0=1,
107.000=wheel7.avi=1.000=0=0=1,
107.500=wheel7r.avi=1.000=0=0=1,
107.750=wheel7.avi=1.000=0=0=1,
108.000=spiral2.avi=1.000=0=0=1,
115.000=wheel7.avi=1.000=0=0=1,
115.250=wheel7r.avi=1.000=0=0=1,
115.500=wheel7.avi=1.000=0=0=1,
115.750=wheel7r.avi=1.000=0=0=1,
116.000=cube3.avi=1.000=0=0=1,
123.000=wheel7.avi=1.000=0=0=1,
123.250=wheel7r.avi=1.000=0=0=1,
123.500=wheel7.avi=1.000=0=0=1,
123.750=wheel7r.avi=1.000=0=0=1,
124.000=silhouette1.avi=1.000=0=0=1,
131.000=wheel7.avi=1.000=0=0=1,
131.250=wheel7r.avi=1.000=0=0=1,
131.500=wheel7.avi=1.000=0=0=1,
131.750=wheel7r.avi=1.000=0=0=1,
132.000=dance10.avi=1.000=0=0=1,
134.000=wheel7.avi=1.000=0=0=1,
134.500=wheel7r.avi=1.000=0=0=1,
134.750=wheel7.avi=1.000=0=0=1,
135.000=wheel7r.avi=1.000=0=0=1,
135.500=wheel7.avi=1.000=0=0=1,
136.000=cards4.avi=1.000=0=0=1,
140.000=stairs1.avi=1.000=0=0=1,
142.500=wheel7.avi=1.000=0=0=1,
142.750=wheel7r.avi=1.000=0=0=1,
143.000=wheel7.avi=1.000=0=0=1,
143.250=wheel7r.avi=1.000=0=0=1,
143.500=wheel7.avi=1.000=0=0=1,
144.000=wheel4.avi=1.000=0=0=1,
148.000=wheel7.avi=1.000=0=0=1,
148.500=wheel7r.avi=1.000=0=0=1,
148.667=wheel7.avi=1.000=0=0=1,
148.833=wheel7r.avi=1.000=0=0=1,
149.000=wheel7.avi=1.000=0=0=1,
149.500=wheel7r.avi=1.000=0=0=1,
150.000=wheel7.avi=1.000=0=0=1,
150.250=wheel7r.avi=1.000=0=0=1,
150.500=wheel7.avi=1.000=0=0=1,
150.750=wheel7r.avi=1.000=0=0=1,
151.000=wheel7.avi=1.000=0=0=1,
151.250=wheel7r.avi=1.000=0=0=1,
152.000=dance10.avi=1.000=0=0=1,
156.000=Got 'til It's Gone-jacket.png=1.000=1=0=1===CrossFade==,
99999.000=-nosongbg-=1.000=0=0=0=StretchNoLoop====
;
#FGCHANGES:;

//--------------- dance-single - ----------------
#NOTES:
     dance-single:
     :
     Beginner:
     1:
     0.093,0.122,0.107,0,0:
0000
0000
0000
0000
,
0000
0000
0000
0000
,
0000
0000
0000
0000
,
0000
0000
0000
0000
,
1000
0000
0000
0000
,
1000
0000
0001
0000
,
0001
0000
0000
0000
,
1001
0000
0000
0000
,
0001
0000
0001
0000
,
1001
0000
0000
0000
,
1000
0000
1000
0000
,
1001
0000
0000
0000
,
0001
0000
0001
0000
,
1001
0000
0000
0001
,
0001
0000
1000
0000
,
1001
0000
0000
0000
,
1000
0000
1000
0000
,
1000
0000
0000
0000
,
0100
0000
0100
0000
,
0100
0000
0000
0000
,
0001
0000
0001
0000
,
0001
0000
0000
0000
,
0010
0000
0010
0000
,
0010
0010
0010
0000
,
0100
0100
0100
0000
,
0010
0010
0010
0000
,
0100
0100
0100
0000
,
0110
0000
0000
0000
,
1000
0000
0001
0000
,
1001
0000
0000
0000
,
0001
0000
1000
0000
,
1001
0000
0000
0000
,
1000
0000
0001
0000
,
1001
0000
0000
0001
,
0001
0000
1000
0000
,
1001
0000
0000
0000
,
0001
0000
1000
0000
,
1001
0000
0000
0000
,
1000
0000
0001
0000
,
1001
0000
0000
0000
;

//--------------- dance-single - ----------------
#NOTES:
     dance-single:
     :
     Easy:
     4:
     0.171,0.248,0.179,0.072,0:
0000
0000
0000
0000
,
0000
0000
0000
0000
,
0000
0000
0000
0000
,
0000
0000
0000
0000
,
1000
0001
1000
0000
,
0001
0100
0001
0000
,
1000
0001
1000
0001
,
1001
1000
0001
0000
,
1000
1000
1000
0000
,
1001
1000
0001
0000
,
1000
0010
1000
0000
,
1001
1000
0001
0000
,
1000
0100
1000
0000
,
1001
0000
0001
1000
,
0001
1000
0100
1000
,
2002
0000
3003
1000
,
0001
1000
0100
1000
,
0001
0000
1000
0000
,
0001
0100
0001
1000
,
2002
0000
3003
0001
,
1000
0100
1000
0001
,
0010
0000
0010
0000
,
1000
0010
1000
0001
,
1001
1001
1001
0000
,
0110
0110
0110
0000
,
1001
1001
1001
0000
,
0110
0110
0110
0000
,
1000
1000
0001
0001
,
0100
0000
0100
0000
,
0001
0001
1000
1000
,
0010
0000
0010
0000
,
0010
0010
0100
0100
,
0001
0000
0001
0000
,
1000
0000
0001
0001
,
0100
0000
0001
1000
,
2002
0000
3003
1000
,
1000
0000
0001
0000
,
0100
0100
0100
0001
,
0100
0000
0010
0000
,
0220
0000
0330
0000
;

//--------------- dance-single - ----------------
#NOTES:
     dance-single:
     :
     Medium:
     6:
     0.299,0.322,0.179,0.448,0:
0000
0000
0000
0000
,
0000
0000
0000
0000
,
0000
0000
0000
0000
,
0000
0000
0000
0000
,
0001
0000
0010
0000
0001
0100
0001
0000
,
1000
0000
0100
0000
1000
0010
1000
0000
,
0001
0000
1000
0000
0001
0000
1000
0010
,
2000
3002
0203
0302
,
2003
0000
3002
0000
2003
0000
3001
1000
,
2000
3002
0203
0302
,
2003
0000
3020
0000
2030
0000
3001
1000
,
0002
2003
3200
2300
,
3020
0000
2030
0000
3002
0000
0103
0001
,
1001
0000
1000
0000
0010
0000
1000
0010
,
1000
0000
0001
0000
0100
0001
0100
0000
,
2002
0000
0003
3001
,
1000
0000
0001
0000
0100
0001
0100
0000
,
1000
0010
1000
0001
,
1000
0000
0100
0000
1000
0001
1000
0000
,
2002
0000
0003
3001
,
1000
0000
0001
0000
0100
0000
0001
0100
,
0001
1000
0010
1000
,
0001
1000
0001
0000
1000
0000
1000
0100
,
1001
0000
1001
0000
1001
0000
1000
0100
,
1100
0000
1100
0000
1100
0000
1000
0010
,
1010
0000
1010
0000
1010
0000
0001
1000
,
1001
0000
1001
0000
1001
0000
0001
1000
,
2001
3002
0203
0302
,
2003
0000
3020
0000
2030
0000
3001
1000
,
2000
3002
0203
0302
,
2003
0000
3020
0000
2030
0000
3001
1000
,
0002
2003
3200
2300
,
3020
0000
2030
0000
3002
0000
1003
0001
,
1001
0000
1000
0000
0100
0000
0100
1000
,
0001
0000
1000
0000
0100
1000
0100
0000
,
2002
0000
0000
0000
3003
1000
0001
1000
,
0001
0000
0100
0000
0001
0100
0001
0000
,
1000
0001
1000
0001
0100
0001
0100
0000
,
1001
0000
1000
0000
0001
0100
0001
0000
,
0220
0000
0000
0000
,
0330
0000
0000
0000
;

//--------------- dance-single - ----------------
#NOTES:
     dance-single:
     :
     Hard:
     9:
     0.297,0.34,0.179,0.072,0.058:
0000
0000
0000
0000
,
0000
0000
0000
0000
,
0000
0000
0000
0000
,
0000
0000
0000
0000
,
1000
0000
0001
0000
1000
0100
1000
0010
,
1000
0000
0001
0000
0100
0000
0001
1000
,
0001
0000
1000
0000
0010
0000
0010
1000
,
1001
0000
0001
0000
0100
0001
0100
0000
,
1000
0001
1000
0100
1000
0000
0001
1000
,
1001
0000
0001
0000
0100
0001
0100
0000
,
1000
0010
1000
0010
1000
0000
0001
1000
,
1001
0000
0001
0000
0100
0001
0100
0000
,
1000
0001
1000
0001
1000
0000
1000
1000
,
1001
0000
0001
0000
0100
0001
0100
0001
,
1001
0000
1000
0000
0001
0100
0001
0000
,
2002
0000
0003
3001
,
1000
0001
1000
0100
1000
0000
0010
0000
,
1000
0000
0001
0000
1000
0001
1000
0000
,
0001
0100
0001
0100
0001
0000
0010
0000
,
2002
0000
3000
0103
,
1000
0001
1000
0001
0100
0000
0100
0000
,
0001
0000
1000
0000
0100
1000
0100
0000
,
1000
0001
1000
0001
1000
0000
1010
1010
,
1001
0000
0000
0001
1000
0000
0000
1000
0001
0000
0000
0000
0100
0000
0001
0000
,
1001
0000
0000
1000
0010
0000
0000
0010
1000
0000
0000
0000
0001
0000
1000
0000
,
1001
0000
0000
1000
0100
0000
0000
0100
1000
0000
0000
0000
1000
0000
0010
0000
,
1001
0000
0000
0001
1000
0000
0000
1000
0001
0000
0000
0000
0100
0000
0001
0000
,
1001
0000
1000
0000
0010
1000
0010
0000
,
1000
0001
0100
0001
1000
0000
0001
1000
,
1001
0000
0001
0000
0100
0001
0100
0000
,
0010
1000
0010
1000
0010
0000
1000
0001
,
1001
0000
1000
0000
0100
1000
0100
0000
,
1000
0001
1000
0001
0100
0000
0001
0000
,
1001
0000
1000
0000
0100
1000
0100
0000
,
1001
0000
0001
0000
1000
0010
1000
0000
,
2002
0000
0000
0000
0000
0000
0000
0000
3003
0000
1000
0001
1000
0001
1000
0000
,
0001
0100
0001
1000
0001
0000
1000
0000
,
1000
0000
0001
0100
0001
0000
1000
0000
0001
1000
0001
1000
0001
0000
0000
0000
,
0100
0001
1000
0000
0001
1000
0001
0000
,
2002
0000
0000
0000
,
3003
0000
0000
0000
;

//--------------- dance-single - ----------------
#NOTES:
     dance-single:
     :
     Challenge:
     12:
     0.403,0.412,0.134,0.072,0.506:
0000
0000
0000
0000
,
0000
0000
0000
0000
,
0000
0000
0000
0000
,
0000
0000
0000
0000
,
0001
0000
1000
0000
0001
0000
0100
0000
0001
0000
0100
0000
1000
0001
1000
0001
,
1000
0000
0001
0000
1000
0000
0001
0000
1000
0000
0000
0010
1000
0010
0000
1000
,
0001
1000
0001
0100
0001
1000
0011
1100
,
1001
0000
0000
1000
0001
0000
0001
0100
0000
0100
0001
0000
1001
0000
0000
0000
,
1000
0000
0001
1000
0000
0100
0000
1000
0000
0001
1000
0000
1000
0010
1000
0010
,
1000
0000
0000
0001
0100
0000
0100
0001
0000
0001
0100
0000
1001
0000
0000
0000
,
1000
0000
0001
1000
0000
0100
0000
1000
0000
0001
1000
0000
0001
1000
0001
1000
,
0001
0000
0000
1000
0100
0000
0100
1000
0000
1000
0100
0000
1001
0000
0000
0000
,
1000
0000
0001
1000
0000
0100
0000
1000
0000
0001
1000
0000
0001
1000
0001
1000
,
0001
0000
0000
0000
1000
0000
0000
0000
0100
0000
0000
0000
0001
1000
0001
0000
,
1000
0000
0100
1000
0000
0001
0000
1000
0000
0001
0100
0000
0001
0000
1000
0000
,
2002
0000
0003
3001
,
1000
0000
0000
0000
1000
0000
0001
0000
0000
1000
0000
0000
0001
0000
1000
0000
,
0001
0000
0000
0000
1000
0000
0001
0000
0000
1000
0000
0000
1001
0000
0000
0000
,
1000
0000
0010
1000
0000
1000
0010
0000
0000
1000
0000
0000
0001
0000
1000
0000
,
2002
0000
0003
3001
,
1000
0000
0001
0000
1000
0000
0001
0000
0000
1000
0000
0000
0001
0000
1000
0000
,
0001
0000
0000
0000
1000
0000
0001
0000
0000
0100
0000
0000
0001
1000
0000
1000
,
0001
0000
0000
1000
0000
0000
0001
0000
0100
0000
0000
0000
0001
0010
0001
0000
,
1001
0000
0000
1000
0010
0000
0000
1000
0010
1000
0001
1000
0001
1000
0001
1000
,
0001
0000
0000
0001
0100
0000
0000
0100
0001
0000
0000
1000
0001
0000
0001
1000
,
0001
0000
0000
1000
0100
0000
0000
0100
1000
0000
0000
0000
0001
1000
0001
1000
,
0001
0000
0000
0100
0001
0000
0000
0001
0100
0000
0000
0000
0001
0000
1000
0001
,
1000
0000
0000
0001
0100
0000
0100
0001
0000
1000
0001
0000
1001
0000
0000
0000
,
0001
0000
1000
0010
0000
1000
0000
0001
0000
1000
0001
0000
1000
0001
1000
0001
,
1000
0000
0000
0001
0100
0000
0100
0001
0000
0001
0100
0000
1001
0000
0000
0000
,
1000
0000
0001
1000
0000
0001
0000
0100
0000
0001
1000
0000
0001
1000
0001
1000
,
0001
0000
0000
1000
0100
0000
0100
1000
0000
1000
0100
0000
1001
0000
0000
0000
,
1000
0000
0001
1000
0000
0001
0000
0100
0000
0001
1000
0000
0001
1000
0001
1000
,
0001
0000
0000
0000
1000
0000
0000
0000
0100
0000
1000
0001
1000
0000
0001
0000
,
0100
0000
0001
0100
0000
0001
0000
1000
0000
0001
1000
0000
0001
0000
1000
0000
,
2002
0000
0000
0000
0000
0000
0000
0000
3003
0000
1000
0010
1000
0010
1000
0000
,
0001
0000
1000
0001
0000
0100
0000
0001
0000
1000
0001
0000
1000
0000
0001
0000
,
1000
0000
0000
0000
0000
0000
0001
0000
1000
0000
0001
0000
1000
0000
0000
0000
0000
0000
0001
0000
0000
0000
0000
0000
0100
0000
0000
0001
0000
0000
0100
0000
0000
0001
0000
0000
0100
0000
0000
0001
0000
0000
0000
0000
0000
1000
0000
0000
,
0001
0000
0100
0001
0000
1000
0000
0001
0000
1000
0010
0000
1000
0000
0001
0000
,
2002
0000
0000
0000
,
3003
0000
0000
0000
;
