#TITLE:Freed from Desire;
#SUBTITLE:;
#ARTIST:Gala;
#TITLETRANSLIT:;
#SUBTITLETRANSLIT:;
#ARTISTTRANSLIT:;
#GENRE:;
#CREDIT:;
#MUSIC:Freed from Desire.ogg;
#BANNER:Freed from Desire.png;
#BACKGROUND:bg.png;
#CDTITLE:;
#SAMPLESTART:52.482;
#SAMPLELENGTH:13.500;
#SELECTABLE:YES;
#OFFSET:-0.382;
#BPMS:0.000=128.999
,124.000=123.749
,125.000=128.986
,217.000=128.952
,218.000=128.779
;
#STOPS:124.000=1.455
,217.000=1.395
;
#DISPLAYBPM:129.000;
#BGCHANGES:32.000=text17.avi=0.700=1=0=1===CrossFade==,
64.000=cup1.avi=0.600=0=0=1,
96.000=cards4.avi=1.000=0=0=1,
112.000=star3.avi=1.000=0=0=1,
124.000=star3.avi=0.000=0=0=1,
124.875=blackhole1.avi=1.000=0=0=1,
141.000=ring12.avi=1.000=0=0=1,
157.000=kaliedoscope3.avi=1.400=0=0=1,
165.000=piston1.avi=1.200=0=0=1,
173.000=kaliedoscope3.avi=1.400=0=0=1,
181.000=piston1.avi=1.200=0=0=1,
189.000=football1.avi=0.700=0=0=1,
205.000=light5.avi=1.200=0=0=1,
217.000=light5.avi=0.000=0=0=1,
217.875=blackhole1.avi=1.000=0=0=1,
234.000=ring12.avi=0.600=0=0=1,
246.000=Freed from Desire-jacket.png=1.000=0=0=1,
99999.000=-nosongbg-=1.000=0=0=0=StretchNoLoop====
;
#FGCHANGES:;

//--------------- dance-single - ----------------
#NOTES:
     dance-single:
     :
     Beginner:
     2:
     0.113,0.15,0.098,0,0:
0000
0000
0000
0000
,
0000
0000
0000
0000
,
0000
0000
0000
0000
,
0000
0000
0000
0000
,
0000
0000
0000
0000
,
0000
0000
0000
0000
,
0000
0000
0000
0000
,
0000
0000
0000
0000
,
1000
0000
1000
0000
,
1000
0000
0000
0000
,
0001
0000
0001
0000
,
0001
0000
0000
0000
,
0100
0000
0100
0000
,
0100
0000
0000
0000
,
0010
0000
0010
0000
,
0010
0000
0000
0000
,
1001
0000
0000
0000
,
0001
0000
0000
0000
,
1000
0000
0000
0000
,
0100
0000
0100
0000
,
0110
0000
0000
0000
,
0010
0000
0000
0000
,
0100
0000
0000
0000
,
0001
0000
0001
0000
,
1000
0000
0001
0000
,
1000
0000
1001
0000
,
1000
0000
0001
0000
,
1000
0000
1001
0000
,
0001
0000
1000
0000
,
0001
0000
1001
0000
,
1000
0000
0001
0000
,
1001
1000
0000
0000
,
0000
1000
0000
0000
,
0000
0100
0000
0000
,
0000
0100
0000
0000
,
0000
1000
0000
0000
,
0000
1000
0000
0000
,
0000
0100
0000
0000
,
0000
0100
0000
0100
,
0000
1001
0000
0000
,
0000
0001
0000
1000
,
0000
1001
0000
0000
,
0000
1000
0000
0001
,
0000
1001
0000
0000
,
0000
0001
0000
1000
,
0000
1001
0000
0000
,
0000
1000
0000
0001
,
0001
0001
0000
0000
,
0000
1000
0000
0000
,
0000
0100
0000
0000
,
0000
0010
0000
0000
,
0000
0001
0001
0001
,
0000
1000
1000
1000
,
0000
0100
0100
0100
,
0000
0110
1000
0000
,
0000
0000
0001
0000
,
1000
0000
0001
0000
,
0000
0000
1000
0000
,
1000
0000
0001
0000
,
0000
0000
1000
0000
,
1000
0000
0001
0000
,
1000
0000
1001
0000
;

//--------------- dance-single - ----------------
#NOTES:
     dance-single:
     :
     Easy:
     6:
     0.207,0.253,0.082,0.016,0:
0000
0000
0000
0000
,
0000
0000
0000
0000
,
0000
0000
0000
0000
,
0000
0000
0000
0000
,
1000
0000
0000
0000
,
0000
0000
0000
0000
,
1000
0000
0000
0000
,
0000
0000
0000
0000
,
1000
0001
0000
0001
,
0000
0001
0000
0001
,
1000
1000
0000
1000
,
0000
1000
0000
1000
,
0001
0001
0000
0001
,
0000
0001
0000
0001
,
1000
1000
0000
1000
,
0000
1000
0000
0100
,
0110
0100
0000
0010
,
0000
0100
0000
0100
,
0001
0001
0000
1000
,
0000
0001
0000
1000
,
1001
0001
0000
1000
,
0000
0100
0000
1000
,
1000
0001
0000
0010
,
0000
0001
0000
1000
,
1001
0001
0100
0100
,
0010
0010
1000
1000
,
0100
0100
0010
0010
,
0100
0100
0010
0010
,
1000
0001
1000
0001
,
1000
0001
1000
0001
,
0100
0100
0010
0010
,
0110
1000
0001
1000
,
0001
0001
0000
0001
,
0000
0001
1000
0001
,
1000
1000
0000
1000
,
0000
1000
0001
1000
,
0001
0001
0000
0001
,
0000
0001
1000
0001
,
1000
1000
0000
1000
,
0000
1001
0000
0100
,
0100
0100
0000
0010
,
0010
0110
0000
1000
,
1000
1000
0000
0001
,
0001
1001
0000
0010
,
0010
0010
0000
0100
,
0100
0110
0000
0010
,
0010
0010
0000
0100
,
0100
0100
0000
1000
,
1000
0001
0000
0010
,
0010
0100
0000
1000
,
1000
0100
0000
0010
,
0000
0100
0100
0010
,
0010
1000
1000
0100
,
0100
0010
0010
0100
,
0100
0110
1000
0001
,
1000
0001
0001
0000
,
0001
0000
0001
1000
,
0001
1000
1000
0000
,
1000
0000
1000
0001
,
1000
0001
0001
0000
,
0001
0000
1000
0001
,
1000
1000
2002
0000
,
3003
0000
0000
0000
;

//--------------- dance-single - ----------------
#NOTES:
     dance-single:
     :
     Medium:
     9:
     0.334,0.357,0.13,0.041,0.13:
0000
0000
0000
0000
,
0000
0000
0000
0000
,
0000
0000
0000
0000
,
0000
0000
0000
0000
,
1001
0000
1000
1000
0000
1000
0000
1000
,
0000
0000
0000
0000
,
0001
0000
0001
0001
0000
0001
0000
0001
,
0000
0000
0000
0000
,
1001
0000
1000
0000
0001
1000
0001
0000
,
1000
1000
0100
0100
,
1001
0000
0001
0000
1000
0010
1000
0000
,
1000
0100
1000
0100
,
0110
0000
0010
0000
0010
0100
0010
0000
,
1000
0001
1000
0001
,
1001
0000
0001
0000
1000
0010
1000
0000
,
0002
0000
1000
1003
,
1001
0000
0001
0000
1000
0100
1000
0000
,
1000
0010
1000
0000
0100
0000
0100
0000
,
0001
0000
0001
0000
1000
0001
1000
0000
,
1000
0100
1000
0100
1000
0000
0001
0000
,
1001
0000
0001
0000
1000
0100
1000
0000
,
0100
0010
0100
0000
0100
0000
0010
0000
,
1000
0000
1000
0000
0001
1000
0001
0000
,
1000
0100
0010
0001
0100
0000
0010
0000
,
1001
0000
0000
1000
0000
0000
0000
0000
0001
0000
0000
0001
0000
0000
0000
0000
,
1000
0001
1000
0000
1000
0000
1000
0000
,
0001
0000
0000
0001
0000
0000
0000
0000
1000
0000
0000
1000
0000
0000
0000
0000
,
1000
0001
1000
0000
0001
0000
0001
0000
,
1000
0001
1000
0000
1000
0100
1000
0000
,
1000
0001
1000
0000
1000
0100
1000
0000
,
1000
0001
1000
0100
1000
0001
1000
0100
,
0110
0000
0000
0000
1000
0000
0000
1000
0000
0000
0000
0000
0001
0000
0000
0001
,
0000
0001
0100
0000
0100
0000
0010
0000
,
0100
0000
0000
0000
0010
0000
0000
0010
0000
0000
0000
0000
0100
0000
0000
0100
,
0000
0100
0010
0000
0010
0000
0010
0100
,
0010
0000
0000
0000
1000
0000
0000
1000
0000
0000
0000
0000
0001
0000
0000
0001
,
0000
0000
0000
0000
1000
0000
0000
1000
0000
0000
1000
0000
0001
0000
0000
0000
,
0001
0000
0000
0000
1000
0000
0000
1000
0000
0000
1000
0000
0001
0000
0000
0001
,
0000
0001
1000
0000
0001
0000
0100
0010
,
0100
0000
0000
0000
1001
0000
0000
0001
0000
0000
0000
0000
1000
0000
0000
1000
,
0000
0000
0000
0000
0100
0000
0000
0100
0000
0000
0000
0000
0010
0000
0000
0010
,
0000
0000
0000
0000
1001
0000
0000
0001
0000
0000
0000
0000
1000
0000
0000
1000
,
0000
0000
0000
0000
0100
0000
0000
0100
0000
0000
0000
0000
0010
0000
0000
0010
,
0000
0000
0000
0000
1001
0000
0000
1000
0000
0000
0000
0000
0100
0000
0000
0100
,
0000
0000
0000
0000
0010
0000
0000
0010
0000
0000
0000
0000
0001
0000
0000
0001
,
0000
0000
0000
0000
1001
0000
0000
1000
0000
0000
0000
0000
1000
0000
0000
1000
,
0000
0000
0000
0000
0001
0000
0000
0001
0000
0000
1000
0000
0100
0000
0010
0000
,
0100
0010
0200
0000
0010
0000
0000
0000
,
0010
0000
0010
0000
,
0310
0002
1000
0000
,
1000
0000
1000
0000
,
1003
0000
1000
0001
1000
0000
0001
1000
,
0001
0000
1000
0100
1000
0000
1000
0010
,
1000
0000
1000
0001
1000
0010
1000
0010
,
1000
0000
0001
0000
0101
0000
0000
0000
1000
0000
0000
1000
0000
0000
0100
0000
,
1000
0000
0000
1000
0000
0000
1000
0000
0010
0000
0000
0000
0010
0000
0000
0000
,
0100
0000
0010
0000
0100
0000
0000
0000
0001
0000
0000
0001
0000
0000
0001
0000
,
1000
0000
0000
1000
0000
0000
1000
0000
0001
0000
0000
0000
0100
0000
0000
0000
,
0010
0100
0010
0000
0110
0000
0100
0000
,
0010
0100
1000
0001
,
1000
0001
0100
0010
,
0100
0010
0220
0000
,
0000
0000
0330
0000
;

//--------------- dance-single - ----------------
#NOTES:
     dance-single:
     :
     Hard:
     11:
     0.445,0.539,0.13,0.073,0.212:
0000
0000
0000
0000
,
0000
0000
0000
0000
,
0000
0000
0000
0000
,
0000
0000
0000
0000
,
1001
0000
0000
0000
1000
0000
0000
1000
0000
0000
0001
0000
0000
0000
0002
0000
,
0000
0000
0000
0003
,
1001
0000
0000
0000
1000
0000
0000
0100
0000
0000
1000
0000
0000
0000
0020
0000
,
0000
0000
0000
0030
,
1000
0001
1000
0000
1000
0100
1000
0000
,
1000
0010
1000
0010
0001
0000
0001
0000
,
1000
0001
1000
0000
1000
0100
1000
0000
,
1000
0100
1000
0010
0100
0000
0100
0000
,
0001
1000
0001
0000
0100
0001
0100
0000
,
0001
0010
0001
0010
0001
0000
0100
0000
,
1000
0001
1000
0000
1000
0100
1000
0100
,
0020
0100
0100
0130
,
1001
0000
1000
0000
0001
1000
0001
1000
,
0100
1000
0010
1000
0100
0000
0010
0000
,
1001
0000
0001
0000
1000
0001
1000
0001
,
1000
0100
1000
0010
0100
0000
0100
0000
,
1001
0000
0001
0000
0001
1000
0001
1000
,
0100
1000
0010
0100
0010
0000
0100
0000
,
1001
0000
0001
0000
0001
1000
0001
1000
,
0100
1000
0010
0100
0010
0000
0100
0000
,
1001
0000
0000
0001
0000
0000
1000
0000
1000
0000
0000
0100
0000
0000
0100
0000
,
0001
1000
0001
1000
0100
1000
0010
0000
,
0001
0000
0000
0001
0000
0000
0001
0000
1000
0000
0000
1000
0000
0000
1000
0000
,
0001
1000
0100
1000
0010
0100
0010
0000
,
1000
0001
1000
0001
1000
0100
1000
0100
,
1000
0010
1000
0010
0100
0010
0100
0010
,
1000
0010
1000
0010
1000
0001
1000
0001
,
1001
0000
0000
0000
1000
0000
0000
0001
0000
0000
1000
0000
0100
0000
0000
1000
,
0000
0000
0001
0000
1000
0000
0000
0001
0000
0000
1000
0000
0001
0000
1000
0000
,
0001
0000
1000
0000
0100
0000
0000
0100
0000
0000
0010
0000
0001
0000
0000
0001
,
0000
1000
1000
0000
0001
1000
0001
1000
,
0001
0000
1000
0000
0100
0000
0000
0100
0000
0000
0100
0000
0010
0000
0000
0010
,
0000
0000
0010
0000
0001
0000
0000
0001
0000
0000
0001
0000
1000
0000
0001
0000
,
1000
0000
0100
0000
1000
0000
0000
1000
0000
0000
0001
0000
1000
0000
0000
0001
,
0000
1000
0100
0010
0001
1000
0001
1000
,
0001
0000
0000
0000
1001
0000
0000
1000
0000
0000
0001
0000
0100
0000
0000
0100
,
0000
0000
1000
0000
0100
0000
0000
0100
0000
0000
0001
0000
0100
0000
0000
0100
,
0000
0000
1000
0000
1001
0000
0000
0001
0000
0000
1000
0000
0010
0000
0000
0010
,
0000
0000
0100
0000
0010
0000
0000
0010
0000
0000
0100
0000
0010
0000
0000
0010
,
0000
0000
1000
0000
1001
0000
0000
0001
0000
0000
1000
0000
0100
0000
0000
0100
,
0000
0000
0001
0000
0100
0000
0000
0100
0000
0000
1000
0000
0100
0000
0000
0100
,
0000
0000
0001
0000
1001
0000
0000
1000
0000
0000
1000
0000
0010
0000
0000
0010
,
0000
0000
0001
0000
1000
0000
0001
0000
1000
0000
0100
0000
1000
0000
1000
0100
,
1000
0100
1000
0100
2000
0000
0000
0000
0001
0000
0000
0001
0000
0000
3001
0000
,
0000
0000
0002
0000
1000
0000
0000
0000
1000
0000
0000
1000
0000
0000
1003
0000
,
0000
0000
2000
0000
0001
0000
0000
0000
0001
0000
0000
0001
0000
0000
3001
0000
,
0000
0000
0002
0000
1000
0000
0000
0000
1000
0000
0000
1000
0000
0000
1003
0000
,
0000
1000
0001
1000
0001
1000
0100
1000
,
0100
1000
0001
0010
0100
1000
0100
0010
,
0001
0000
1000
0000
0100
0000
0010
0000
0001
1000
0001
1000
0010
0100
0001
1000
,
0001
1000
0001
0000
1001
0000
0000
0000
1001
0000
0000
1000
0000
0000
0001
0000
,
1000
0000
0000
0100
0000
0000
0010
0000
0100
0000
0000
0100
0000
0000
0001
0000
,
1000
0000
1000
0000
0001
0000
0001
0000
1000
0000
0000
0100
0000
0000
1000
0000
,
0100
0000
0000
0010
0000
0000
0100
0000
0100
0000
0000
0000
0011
0000
1000
0000
,
1000
0000
1000
0000
0001
0000
0001
0000
0100
0000
0000
0100
0000
0000
0010
0000
,
0010
0000
0000
0001
0000
0000
0001
0000
1000
0000
0000
1000
0000
0000
1000
0000
,
0001
0000
1000
0000
0001
0000
1000
0000
0001
0000
0000
0001
0000
0000
0001
0000
,
1000
0000
0000
1000
0000
0000
1000
0000
2002
0000
0000
0000
0000
0000
0000
0000
,
0000
0000
0000
0000
,
3003
0000
0000
0000
;

//--------------- dance-single - ----------------
#NOTES:
     dance-single:
     :
     Challenge:
     14:
     0.517,0.693,0.098,0.122,0.42:
0000
0000
0000
0000
,
0000
0000
0000
0000
,
0000
0000
0000
0000
,
0000
0000
0000
0000
,
1001
0000
0000
0000
0001
0000
0000
1000
0000
0000
0001
0000
0000
0000
1000
0000
,
0000
0000
0000
0000
,
0001
0000
0000
0000
1000
0000
0000
0001
0000
0000
1000
0000
0000
0000
1000
0000
,
0000
0000
0000
0000
,
1001
0000
0001
0000
1000
0000
0100
0000
1000
0000
0001
0000
1000
0000
0010
1000
,
0100
0000
0100
0000
0010
1000
0010
1000
,
0001
0000
1000
0000
0001
0000
0100
0000
0001
0000
0010
0000
0100
0000
0010
0100
,
1000
0000
1000
0000
0100
0001
1000
0001
,
0001
0000
1000
0000
0001
0000
1000
0000
0100
0000
1000
0000
0001
0000
1000
0100
,
1000
0000
1000
0000
0100
0001
0010
0001
,
1000
0000
0001
0000
1000
0000
0100
0000
1000
0000
0001
0000
1000
0000
0001
1000
,
0001
0000
0000
0000
1000
0000
0000
0000
1000
0000
0001
0000
1000
0100
0000
0100
,
2000
0000
0001
0000
3001
0001
1000
0001
,
1000
0000
0001
0000
1000
0100
0000
0100
0000
0100
1000
0000
0100
0010
0000
0000
,
2000
0000
0001
0000
3001
1000
0001
1000
,
0100
0000
1000
0000
0001
1000
0000
1000
0000
1000
0001
0000
1000
0100
0000
1000
,
0020
0000
0100
0000
0130
1000
0001
1000
,
0001
0000
1000
0000
0100
1000
0000
1000
0000
1000
0100
0000
0100
0010
0000
0000
,
2000
0000
0001
0000
3001
1000
0001
1000
,
0010
0100
0010
0000
1000
0010
0000
0020
0000
0000
0000
0000
1030
0000
0000
0000
,
1001
0000
0000
1000
0000
0000
0001
0000
1000
0000
0000
1000
0000
0000
0001
0000
,
1000
0000
0100
0000
1000
0000
0001
0000
1000
0100
0000
0100
0000
0000
1000
0000
,
0002
0000
0000
1000
0000
0000
1003
0000
2000
0000
0000
0001
0000
0000
3001
0000
,
0001
0000
1000
0000
0100
0000
1000
0000
1000
0010
0000
0010
0000
0000
0100
0000
,
0100
1000
0001
1000
0100
1000
0001
0100
,
0010
0001
1000
0001
1000
0100
1000
0100
,
1000
0010
1000
0010
1000
0100
1000
0010
1000
0100
0010
0001
0010
0100
1000
0000
,
0110
0000
0000
0000
1001
0000
0000
0001
0000
1000
0100
0000
1000
0000
0000
0001
,
0000
1000
0100
0000
1000
0000
0000
1000
0000
0000
0001
0000
1000
0000
1000
0000
,
1000
0000
1000
0000
0002
0000
0000
1000
0000
0000
1003
0000
2000
0000
0000
0001
,
0000
3001
0100
0000
1000
0001
1000
1000
,
0001
0000
0001
0000
1010
0000
0000
1000
0000
0000
1000
0000
0100
0000
0000
0100
,
0000
0000
0100
0000
0010
0000
0000
0010
0000
0000
0010
0000
0001
0000
0001
0000
,
1000
0000
1000
0000
0001
0000
0000
0100
0000
0000
0010
0000
0010
0000
0000
1000
,
0000
0000
1000
0000
0001
0000
1000
0000
0100
0000
1000
0000
0010
0000
0010
1000
,
0010
1000
0010
0000
1001
0000
0000
1000
0000
0000
1000
0000
0010
0000
0000
0010
,
0000
0000
0010
0000
0100
0000
0000
0100
0000
0000
0100
0000
0001
0000
0000
0001
,
0000
0000
0001
0000
1001
0000
0000
1000
0000
0000
1000
0000
0001
0000
0000
0100
,
0000
0000
0001
0000
1000
0000
0000
0100
0000
0000
1000
0000
0001
0000
0000
0100
,
0000
0000
0001
0000
0100
0000
0100
0010
0000
0000
0001
0000
0001
0000
0001
1000
,
0000
0000
1000
0000
0001
0000
0001
0100
0000
0000
0010
0000
1000
0000
0010
0100
,
0000
0000
1000
0000
1000
0000
0001
0100
0000
0000
0010
0000
1000
0000
0010
0100
,
0000
0000
1000
0000
0001
0000
1000
0000
1000
0000
1000
0000
0001
0000
1000
0001
,
1000
0001
1000
0001
2000
0000
0000
0000
0001
0000
0000
0001
0000
0000
3001
0000
,
0000
0000
0100
0000
0020
0000
0000
0000
0100
0000
0000
0100
0000
0000
0130
0000
,
0000
0000
1000
0000
0002
0000
0000
0000
0100
0000
0000
0100
0000
0000
0103
0000
,
0000
0000
1000
0000
0200
0000
0000
0000
1000
0000
0000
1000
0000
0000
1300
0000
,
0000
1000
0001
1000
0001
1000
0100
0001
,
1000
0000
0100
0000
1000
0010
1000
0000
1000
0001
1000
0000
1000
0100
1000
0000
,
1000
0010
1000
0000
1000
0001
1000
0001
1000
0100
1000
0001
1000
0001
0100
0001
,
1000
0001
1000
0100
0010
0000
0000
0000
1001
0000
0000
0001
0000
1000
0100
0000
,
1000
0000
0000
1000
0000
1000
0001
0000
1000
0000
0000
0100
0000
0010
1000
0000
,
0001
0000
0001
0000
1000
0000
1000
0000
0001
0000
0000
1000
0000
1000
0001
0000
,
0001
0000
0000
0100
0000
0001
0010
0000
1000
0000
0100
1000
0100
1000
0100
0000
,
0001
0000
0001
0000
0001
0000
0001
0000
1000
0000
0000
0001
0000
0000
0100
0000
,
0100
0000
0000
0010
0000
0000
0010
0000
1000
0000
0000
1000
0000
0000
0001
0000
,
1000
0000
1000
0000
0001
0000
0001
0000
1010
0000
0000
1000
0000
0000
1000
0000
,
1100
0000
0000
1000
0000
0000
0001
0000
2002
0000
0000
0000
0000
0000
0000
0000
,
0000
0000
0000
0000
,
3003
0000
0000
0000
;
