#TITLE:Family;
#SUBTITLE:;
#ARTIST:Queen Of Times;
#TITLETRANSLIT:;
#SUBTITLETRANSLIT:;
#ARTISTTRANSLIT:;
#GENRE:Eurobeat;
#CREDIT:TiKAL;
#MUSIC:family.ogg;
#BANNER:Family.png;
#BACKGROUND:Family-bg.png;
#CDTITLE:cdtitle.png;
#SAMPLESTART:44.183;
#SAMPLELENGTH:14.134;
#SELECTABLE:YES;
#OFFSET:-0.018;
#BPMS:0.000=137.225
,1.000=135.840
;
#STOPS:;
#DISPLAYBPM:135.840;
#BGCHANGES:;
#FGCHANGES:;

//--------------- dance-single - TiKAL ----------------
#NOTES:
     dance-single:
     TiKAL:
     Beginner:
     1:
     0,0,0,0,0:
0000
0000
0000
0000
,
0000
0000
0000
0000
,
0000
0000
0000
0000
,
0000
0000
0000
0000
,
0001
0000
0000
0000
,
0001
0000
0000
0000
,
1000
0000
0000
0000
,
1000
0000
0000
0000
,
0001
0000
0000
0000
,
0000
0000
0000
0000
,
0001
0000
0000
0000
,
0000
0000
0000
0000
,
1000
0000
0000
0000
,
0000
0000
0000
0000
,
1000
0000
0000
0000
,
0000
0000
0000
0000
,
0010
0000
0000
0000
,
0000
0000
0000
0000
,
0100
0000
0000
0000
,
0000
0000
0000
0000
,
0010
0000
0000
0000
,
0000
0000
0000
0000
,
0100
0000
0000
0000
,
0000
0000
0000
0000
,
0000
0000
0000
0000
,
0001
0000
0000
0000
,
0000
0000
0000
0000
,
1000
0000
0000
0000
,
0000
0000
0000
0000
,
0001
0000
0000
0000
,
0000
0000
0000
0000
,
1000
0000
0000
0000
,
0000
0000
0000
0000
,
0001
0000
0000
0000
,
0001
0000
0000
0000
,
1000
0000
0000
0000
,
1000
0000
0000
0000
,
0010
0000
0000
0000
,
0010
0000
0000
0000
,
0100
0000
0000
0000
,
0100
0000
0000
0000
,
0001
0000
0000
0000
;

//--------------- dance-single - TiKAL ----------------
#NOTES:
     dance-single:
     TiKAL:
     Easy:
     4:
     0,0,0,0,0:
0000
0000
0000
0000
,
0000
0000
0000
0000
,
0000
0000
0000
0000
,
0000
0000
0000
0000
,
1000
0000
2000
3000
,
0001
0000
0002
0003
,
0100
0000
0200
0300
,
0010
0000
0110
0000
,
1000
0000
0000
0000
,
0001
0000
0000
0000
,
0100
0000
0100
0000
,
0110
0000
0000
0000
,
0001
0000
0000
0000
,
1000
0000
0000
0000
,
0010
0000
0010
0000
,
0110
0000
0000
0000
,
1000
0000
0000
0000
,
0100
0000
0000
0000
,
0020
0000
0000
0000
,
0030
0000
0000
0000
,
0001
0000
0000
0000
,
0010
0000
0000
0000
,
0200
0000
0000
0000
,
0300
0000
0000
0000
,
2002
0000
0000
3003
,
1000
0000
1000
0000
,
1001
0000
0000
0000
,
0001
0000
0001
0000
,
0001
0000
0000
0000
,
0100
0000
0100
0000
,
0110
0000
0000
0000
,
0010
0000
0010
0000
,
0010
0000
0000
0000
,
1000
0000
2000
3000
,
0001
0000
0002
0003
,
0100
0000
0200
0300
,
0010
0000
0110
0000
,
0010
0000
0020
0030
,
1000
0000
2000
3000
,
0001
0000
0002
0003
,
0100
0000
0110
0000
,
1001
0000
0000
0000
;

//--------------- dance-single - TiKAL ----------------
#NOTES:
     dance-single:
     TiKAL:
     Medium:
     8:
     0,0,0,0,0:
0000
0000
0000
0000
,
0000
0000
0000
0000
,
0000
0000
0000
0000
,
0000
0000
0000
0000
,
1000
0000
0001
0000
0200
0000
0300
0100
,
0010
0000
1000
0000
0002
0000
0003
0001
,
1000
0000
0010
0000
0200
0000
0300
0100
,
0001
1000
1001
0000
,
0001
0010
0001
0010
,
0100
1000
0100
1000
,
1100
0001
0101
1000
,
1001
0110
1001
0000
,
1000
0100
1000
0100
,
0010
0001
0010
0001
,
0011
1000
1010
0001
,
1001
0110
1001
0000
,
1000
1000
0100
0100
,
0010
0010
0001
0001
,
2000
3020
0230
0302
,
2003
0000
0002
3003
,
0001
0001
0010
0010
,
0100
0100
1000
1000
,
0002
0203
0320
2030
,
3002
0000
2000
3003
,
0001
1000
0001
1000
,
1001
0000
0000
0110
0000
0000
1000
0000
,
1001
0000
0000
0000
1000
0001
1000
0000
,
0001
1000
0001
1000
,
1002
0000
0100
0103
,
1001
0000
0000
0110
0000
0000
0001
0000
,
1001
0000
0000
0000
0001
1000
0001
0000
,
1000
0001
1000
0001
,
2001
0000
0010
3010
,
1000
0000
0001
0000
0200
0000
0300
0100
,
0010
0000
1000
0000
0002
0000
0003
0001
,
1000
0000
0010
0000
0200
0000
0300
0100
,
0001
1000
1001
0000
,
0001
0000
1000
0000
0020
0000
0030
0010
,
0100
0000
0001
0000
2000
0000
3000
1000
,
0001
0000
0100
0000
0020
0000
0030
0010
,
1000
0001
1001
0000
,
0110
0000
0000
0000
;

//--------------- dance-single - TiKAL ----------------
#NOTES:
     dance-single:
     TiKAL:
     Hard:
     12:
     0,0,0,0,0:
0000
0000
0000
0000
,
0000
0000
0000
0000
,
0000
0000
0000
0000
,
0000
0000
0000
0000
,
1000
0000
0010
0000
0100
0000
0001
0000
2000
0000
0000
3001
0000
0010
0100
0000
,
1000
0000
0100
0000
0010
0000
0001
0000
2000
0000
0000
3100
0000
0010
0100
0000
,
1000
0000
0010
0000
0100
0000
0001
0000
2000
0000
0000
3001
0000
0100
0010
0000
,
0110
0000
0000
0000
0100
0000
0001
0000
1000
0000
0000
1001
0000
0000
0120
0000
,
0000
1030
0100
0010
0001
0100
0001
1000
,
0010
0100
0000
0110
0000
0100
0001
1000
,
0001
0001
0101
0000
1000
1000
1010
0000
,
0001
0010
0110
1001
0000
0000
0000
2000
,
0000
3010
0100
0001
0010
0001
0100
0001
,
1000
0010
0000
1001
0000
1000
0100
0010
,
0001
0001
0011
0000
1000
1000
1100
0000
,
0001
0000
0100
0000
0110
0000
1001
0000
0000
0000
0001
1000
0001
0000
0000
0000
,
2000
0000
3200
0000
0320
0000
0031
0100
,
0000
0010
1000
0000
0001
0000
0100
0001
,
1000
0010
0100
0010
0100
0010
0100
0002
,
0000
0000
1003
0200
0000
0020
0000
0300
,
0032
0000
0203
0000
0320
0000
1030
0100
,
0000
0010
0001
1000
0010
0000
1000
0002
,
0000
0013
0100
0010
0100
0010
0100
2000
,
0000
0000
3002
2000
0000
0000
0000
3003
,
1000
0001
1000
0001
1000
0100
0010
0001
,
0100
0001
0101
0010
1000
1010
0000
0000
,
1001
0000
0000
0000
0001
0010
0100
1000
,
0020
0000
0230
0000
0320
0000
0130
0002
,
0000
2000
0000
3003
1000
0001
0100
0010
,
1000
0100
1100
0001
0010
0011
0000
0000
,
1001
0000
0000
0000
1000
0100
0010
0001
,
0200
0000
0320
0000
0230
0000
0310
2000
,
0000
0002
0000
3003
0001
1000
0010
0100
,
0001
0000
0100
0000
0010
0000
1000
0000
0002
0000
0000
1003
0000
0010
0100
0000
,
0001
0000
0010
0000
0100
0000
1000
0000
0002
0000
0000
0013
0000
0100
0010
0000
,
0001
0000
0100
0000
0010
0000
1000
0000
0002
0000
0000
1003
0000
0100
0010
0000
,
0100
0000
0010
0000
0001
0000
1000
0000
1001
0000
0000
0110
0000
0000
0010
0000
,
1000
0000
0010
0000
0100
0000
0001
0000
2000
0000
0000
3001
0000
0010
0100
0000
,
1000
0000
0100
0000
0010
0000
0001
0000
2000
0000
0000
3100
0000
0010
0100
0000
,
1000
0000
0010
0000
0100
0000
0001
0000
2000
0000
0000
3001
0000
0010
0100
0000
,
0110
0000
0000
0000
0100
0000
1000
0000
0001
0000
0000
1001
0000
0000
0000
0000
,
0110
0000
0000
0000
;
