#TITLE:Eternia;
#SUBTITLE:;
#ARTIST:Formic Acid;
#TITLETRANSLIT:;
#SUBTITLETRANSLIT:;
#ARTISTTRANSLIT:;
#GENRE:;
#CREDIT:;
#BANNER:;
#BACKGROUND:;
#LYRICSPATH:;
#CDTITLE:;
#MUSIC:Eternia.mp3;
#OFFSET:-0.175000;
#SAMPLESTART:49.834999;
#SAMPLELENGTH:12.000000;
#SELECTABLE:YES;
#BPMS:0.000000=134.151001
,1.000000=141.938004
,2.000000=136.264999
,3.000000=137.490005
,4.000000=140.625000
,5.000000=141.938004
,6.000000=135.684998
,7.000000=141.929993
,8.000000=143.205002
,9.000000=141.929993
,10.000000=140.625000
,11.000000=141.929993
,12.000000=148.028000
,14.000000=143.906006
,15.000000=148.028000
,16.000000=150.186996
,17.000000=152.393005
,18.000000=151.658997
,19.000000=150.186996
,20.000000=155.481995
,21.000000=152.393005
,22.000000=155.501007
,23.000000=151.658997
,24.000000=153.125000
,25.000000=153.445007
,26.000000=154.033997
,27.000000=155.802994
,28.000000=156.328003
,29.000000=157.397003
,30.000000=158.529007
,31.000000=164.317001
,32.000000=160.005005
,33.000000=159.994995
,34.000000=160.005005
,35.000000=159.994995
,36.000000=160.005005
,37.000000=159.994995
,38.000000=165.117004
,39.000000=159.994995
,40.000000=160.005005
,41.000000=159.994995
,42.000000=160.005005
,43.000000=159.994995
,44.000000=160.005005
,45.000000=159.994995
,46.000000=160.005005
,47.000000=159.994995
,48.000000=160.005005
,49.000000=159.994995
,50.000000=160.005005
,51.000000=159.994995
,52.000000=160.005005
,53.000000=165.106995
,54.000000=160.005005
,55.000000=159.994995
,56.000000=160.005005
,57.000000=159.994995
,58.000000=160.005005
,59.000000=159.994995
,60.000000=160.005005
,61.000000=159.994995
,62.000000=162.520996
,63.000000=159.994995
,64.000000=160.005005
,65.000000=159.994995
,66.000000=160.005005
,67.000000=159.994995
,68.000000=160.005005
,69.000000=159.994995
,70.000000=160.005005
,71.000000=159.994995
,72.000000=160.005005
,73.000000=159.994995
,74.000000=160.005005
,75.000000=159.994995
,76.000000=160.005005
,77.000000=159.994995
,78.000000=160.005005
,79.000000=162.511002
,80.000000=160.005005
,81.000000=159.994995
,82.000000=160.005005
,83.000000=162.511002
,84.000000=160.005005
,85.000000=159.994995
,86.000000=160.005005
,87.000000=159.994995
,88.000000=160.005005
,89.000000=159.994995
,90.000000=160.005005
,91.000000=159.994995
,92.000000=160.005005
,93.000000=159.994995
,94.000000=162.520996
,95.000000=159.994995
,96.000000=160.005005
,97.000000=159.994995
,98.000000=160.005005
,99.000000=159.994995
,100.000000=160.005005
,101.000000=159.994995
,102.000000=160.005005
,103.000000=159.994995
,104.000000=160.005005
,105.000000=159.994995
,106.000000=160.005005
,107.000000=159.994995
,108.000000=160.005005
,109.000000=159.994995
,110.000000=160.005005
,111.000000=159.994995
,112.000000=162.541000
,113.000000=160.024002
,114.000000=160.014999
,115.000000=160.024002
,116.000000=160.014999
,117.000000=160.024002
,118.000000=160.014999
,119.000000=162.541000
,120.000000=160.024002
,121.000000=160.014999
,122.000000=160.024002
,123.000000=160.014999
,124.000000=160.024002
,125.000000=160.014999
,126.000000=160.024002
,127.000000=160.014999
,128.000000=160.024002
,130.000000=162.531006
,131.000000=160.024002
,132.000000=160.014999
,133.000000=160.024002
,134.000000=160.014999
,135.000000=160.024002
,137.000000=160.014999
,138.000000=160.024002
,139.000000=160.014999
,140.000000=160.024002
,141.000000=160.014999
,142.000000=160.024002
,143.000000=160.014999
,144.000000=160.024002
,146.000000=160.014999
,147.000000=160.024002
,148.000000=160.014999
,149.000000=165.138000
,150.000000=160.014999
,151.000000=157.584000
,152.000000=160.024002
,153.000000=160.014999
,154.000000=160.024002
,155.000000=162.531006
,156.000000=160.024002
,157.000000=160.014999
,158.000000=160.024002
,160.000000=160.014999
,161.000000=160.024002
,162.000000=160.014999
,163.000000=160.024002
,164.000000=160.014999
,165.000000=160.024002
,167.000000=160.014999
,168.000000=160.024002
,169.000000=160.014999
,170.000000=160.024002
,171.000000=160.014999
,172.000000=160.024002
,174.000000=160.014999
,175.000000=162.541000
,176.000000=160.014999
,177.000000=160.024002
,178.000000=160.014999
,179.000000=160.024002
,180.000000=160.014999
,181.000000=160.024002
,183.000000=160.014999
,184.000000=160.024002
,185.000000=160.014999
,186.000000=160.024002
,187.000000=160.014999
,188.000000=162.541000
,189.000000=160.024002
,190.000000=160.014999
,191.000000=160.024002
,192.000000=160.014999
,193.000000=160.024002
,194.000000=160.014999
,195.000000=160.024002
,197.000000=160.014999
,198.000000=160.024002
,199.000000=160.014999
,200.000000=160.024002
,201.000000=160.014999
,202.000000=160.024002
,204.000000=160.014999
,205.000000=160.024002
,206.000000=160.014999
,207.000000=160.024002
,208.000000=160.014999
,209.000000=160.024002
,210.000000=160.014999
,211.000000=160.024002
,213.000000=160.014999
,214.000000=162.541000
,215.000000=160.014999
,216.000000=160.024002
,217.000000=160.014999
,218.000000=160.024002
,220.000000=160.014999
,221.000000=160.024002
,222.000000=160.014999
,223.000000=160.024002
,224.000000=160.014999
,225.000000=160.024002
,227.000000=160.014999
,228.000000=162.541000
,229.000000=160.014999
,230.000000=160.024002
,231.000000=160.014999
,232.000000=160.024002
,234.000000=160.014999
,235.000000=160.024002
,236.000000=160.014999
,237.000000=160.024002
,238.000000=160.014999
,239.000000=160.024002
,240.000000=160.020004
,240.937500=160.091995
;
#STOPS:
;
#BGCHANGES:;
#KEYSOUNDS:;
#ATTACKS:;

//---------------dance-single - ----------------
#NOTES:
     dance-single:
     :
     Medium:
     14:
     0.791072,0.832095,0.106902,0.106902,0.416916,518.000000,508.000000,10.000000,10.000000,0.000000,0.000000,0.791072,0.832095,0.106902,0.106902,0.416916,518.000000,508.000000,10.000000,10.000000,0.000000,0.000000:
0000
0000
0000
0000
,
0000
0000
0000
0000
,
1000
0001
1000
0001
1000
0000
0001
0000
0100
0000
0010
0000
1000
0000
0100
0000
,
0010
0001
0010
0001
0010
0000
0100
0000
1000
0000
0001
0000
0100
0000
0010
0000
,
1000
0100
1000
0001
0100
0000
0010
0000
1000
0000
0001
0000
0100
0000
0010
0000
,
1000
0100
1000
0001
0100
0000
0010
0000
1000
0000
0100
0000
0010
0000
0001
0000
,
0100
0010
1000
0010
0100
0000
0001
0000
0100
0000
0010
0000
1000
0000
0100
0000
,
0010
0001
0100
0010
1000
0000
0001
0000
0100
0000
0010
0000
1000
0000
0001
0000
,
1000
0100
1000
0100
1000
0000
0001
0000
0100
0000
0010
0000
1000
0000
0100
0000
,
0010
0001
0010
0001
0010
0000
0100
0000
1000
0000
0001
0000
0100
0000
0010
0000
,
1000
0001
1000
0001
1000
0000
0010
0000
0100
0000
0001
0000
0100
0000
0010
0000
,
1000
0100
0010
0100
1000
0000
0001
0000
0100
0000
0010
0000
1000
0000
0100
0000
,
0010
0001
0010
0100
1000
0000
0001
0000
0100
0000
0010
0000
1000
0000
0100
0000
,
0010
0001
0100
0010
1000
0000
0001
0000
0100
0000
0010
0000
1000
0000
0100
0000
,
0010
0001
0010
0100
1000
0000
0001
0000
0100
0000
0010
0000
1000
0000
0000
0000
,
0001
0100
0010
1000
0001
0100
0010
1000
0000
0001
0000
0100
0010
0000
1000
0000
,
0001
0100
0001
0100
0010
1000
0010
1000
0000
0001
0000
0100
0010
0000
1000
0000
,
0001
0100
0001
0100
0010
1000
0010
1000
0000
0001
0000
0100
0010
0000
1000
0000
,
0010
0100
0001
0100
0010
1000
0001
0100
0000
0010
0000
1000
0001
0000
0010
0000
,
2002
0000
0000
3003
,
1000
0100
1100
0000
0010
0001
0011
0000
,
0001
0100
1010
0000
1000
0100
0011
0000
,
0001
0100
1010
0000
0100
0001
1010
0000
,
1000
0100
0011
0000
0001
0100
0110
0000
,
1000
0100
1000
0100
0010
0001
0010
0001
,
0100
0010
0100
0010
1000
0100
0010
0001
,
0100
1000
0100
0001
0010
0100
0010
0100
,
0010
0001
0100
0010
1000
0100
0010
0001
,
1000
0100
1000
0000
0001
1000
0001
0000
0100
0001
0100
0000
0010
1000
0010
0000
,
2000
3020
0230
0302
,
0013
1000
0010
0000
0100
0001
0100
0000
0010
1000
0010
0000
0100
0001
0100
0000
,
2000
3020
0230
0302
,
0013
0100
0010
0000
1000
0010
1000
0000
0001
0100
0001
0000
1000
0010
1000
0000
,
0001
0100
0001
0000
1000
0010
1000
0000
0001
0100
0001
0000
1000
0010
1000
0000
,
0001
0100
1000
0100
0001
0010
1000
0010
,
0001
0100
0010
1000
0100
0001
0100
1000
,
0010
1000
0001
0100
1000
0100
0001
0010
,
1000
0010
0001
0100
0010
1000
0001
0100
,
1000
0100
0001
0010
1000
0010
0001
0100
,
0010
1000
0100
0010
0001
0100
0010
1000
,
0001
0100
0001
0000
1000
0010
1000
0000
0001
0100
0001
0000
1000
0010
1000
0000
,
0001
1000
0001
0000
1000
0010
1000
0000
0001
0100
0001
0000
0100
0010
0100
0000
,
0010
1000
0010
0000
1000
0001
1000
0000
0001
1000
0001
0000
0100
0010
0000
0000
,
1000
0100
0010
0001
0010
0100
1000
0001
,
1001
0000
1000
0010
0100
0001
0010
0100
,
1000
0001
0100
0010
1000
0100
0010
0001
,
0100
0010
1000
0100
0010
0001
0100
0010
,
1000
0100
1000
0010
1000
0100
1000
0010
,
0100
0001
0100
0001
0010
0001
0100
0001
,
1000
0001
0100
0010
1000
0010
0100
0001
,
1000
0100
0010
0001
1000
0010
0100
0001
,
1000
1000
0100
0100
0010
0010
0001
0001
,
0100
0010
1000
0010
0100
0001
1000
0100
,
0010
0010
0001
0001
0100
0100
0010
0010
,
1000
0001
1000
0001
0100
0001
0010
0001
,
1000
0010
0100
0001
0010
0100
1000
0001
,
0010
0100
1000
0001
0100
0010
1000
0001
,
0100
0010
1000
0001
0100
0010
1000
0001
,
0010
0100
1000
0100
0010
0001
1000
0010
,
0100
0001
1000
0001
0100
0001
1000
0001
;

//---------------dance-single - ----------------
#NOTES:
     dance-single:
     :
     Hard:
     18:
     1.285873,1.057223,0.000000,0.000000,2.073890,842.000000,842.000000,0.000000,0.000000,0.000000,0.000000,1.285873,1.057223,0.000000,0.000000,2.073890,842.000000,842.000000,0.000000,0.000000,0.000000,0.000000:
// measure 0
0000
0000
0000
0000
,  // measure 1
0000
0000
0000
0000
,  // measure 2
1000
0010
0100
0001
0100
0010
1000
0100
0010
0001
0010
0100
1000
0001
0100
0010
,  // measure 3
1000
0100
1000
0001
0010
0001
0100
0010
1000
0100
0010
0001
0010
0100
1000
0001
,  // measure 4
0100
0010
1000
0100
1000
0001
0100
0010
1000
0100
0010
0001
0010
0100
1000
0001
,  // measure 5
0100
0010
1000
0100
0010
0001
0010
0100
1000
0001
0100
0010
1000
0100
0010
0001
,  // measure 6
0010
0100
1000
0001
0100
0010
0100
0001
1000
0100
0010
0001
0010
0100
1000
0001
,  // measure 7
0100
0010
1000
0100
0010
0001
0010
0100
1000
0001
0100
0010
1000
0100
0010
0001
,  // measure 8
1000
0100
0010
0001
0010
0000
0100
1000
0001
0100
0010
1000
0100
0000
0010
0001
,  // measure 9
0100
0010
1000
0100
0010
0000
0001
0010
0100
1000
0100
0010
0001
0000
0100
0010
,  // measure 10
1000
0100
1000
0001
0100
0000
0010
1000
0001
0100
0010
1000
0001
0000
0100
0010
,  // measure 11
1000
0100
0010
0001
1000
0000
0001
0100
0001
0100
0010
1000
0001
0000
0100
0010
,  // measure 12
1000
0100
0010
0001
0100
0000
0010
1000
0001
0100
0010
1000
0100
0000
0010
0001
,  // measure 13
0100
0010
1000
0001
0100
0000
0010
1000
0001
0100
0010
1000
0100
0000
0010
0001
,  // measure 14
0100
0010
1000
0100
0010
0000
0001
0010
0100
1000
0100
0010
0001
0000
0100
0010
,  // measure 15
1000
0010
0100
0001
0100
0010
1000
0010
0000
0100
0000
0001
0100
0010
1000
0001
,  // measure 16
0100
0010
1000
0100
0010
0001
0100
0010
0000
1000
0000
0001
0100
0010
1000
0010
,  // measure 17
0100
0001
0100
0010
1000
0100
0010
0001
0000
0100
0000
0010
1000
0010
0100
0001
,  // measure 18
0100
0010
1000
0100
0010
0001
0100
0010
0000
1000
0000
0001
0100
0010
1000
0100
,  // measure 19
1000
0001
0010
0001
1000
0010
0100
0001
0000
0100
0000
0010
1000
0100
1000
0100
,  // measure 20
0010
0001
0010
0001
0100
0010
1000
0001
0100
0010
1000
0100
0010
0001
0010
0100
,  // measure 21
1000
0001
0100
0010
1000
0100
0010
0001
0010
0100
1000
0001
0100
0010
1000
0100
,  // measure 22
0010
0001
0010
0100
1000
0001
0010
0001
1000
0010
0100
0001
0010
0001
1000
0010
,  // measure 23
0100
0001
0100
0010
1000
0100
0010
0001
0010
0100
1000
0001
0100
0010
1000
0001
,  // measure 24
0010
0100
1000
0100
0010
0001
1000
0001
0100
0001
0100
0010
1000
0001
0010
0001
,  // measure 25
1000
0010
0100
0001
0010
0001
1000
0100
0010
0001
0010
0100
1000
0001
0100
0010
,  // measure 26
1000
0100
0010
0001
0010
0100
1000
0001
0100
0010
1000
0100
1000
0001
0100
0010
,  // measure 27
1000
0100
0010
0001
0010
0100
1000
0001
0100
0010
1000
0100
0010
0001
0100
0010
,  // measure 28
1000
0010
1000
0000
0001
0100
0001
0000
0100
0010
0100
0000
0010
1000
0010
0000
,  // measure 29
0100
0001
0100
0000
0001
0010
0001
0000
1000
0001
1000
0000
0010
1000
0010
0000
,  // measure 30
0100
0001
0100
0000
0010
1000
0010
0000
0100
0001
0100
0000
0001
0010
0001
0000
,  // measure 31
1000
0100
1000
0000
0001
1000
0001
0000
0010
0100
0010
0000
1000
0100
1000
0000
,  // measure 32
0001
0010
0001
0000
1000
0001
1000
0000
0010
1000
0010
0000
0100
0001
0100
0000
,  // measure 33
0010
0001
0010
0000
0100
1000
0100
0000
0010
0001
0010
0000
0100
1000
0100
0000
,  // measure 34
0010
0001
0010
0000
0100
1000
0100
0000
0010
0001
0010
0000
0010
0100
1000
0000
,  // measure 35
0001
1000
0100
0000
0010
0001
1000
0000
0001
0100
0010
0000
1000
0001
0100
0000
,  // measure 36
0010
1000
0001
0000
0100
0010
1000
0000
0100
0010
0001
0000
0100
0010
1000
0000
,  // measure 37
0001
0010
0100
0000
1000
0100
0010
0000
0001
0100
0010
0000
1000
0001
0100
0000
,  // measure 38
0001
1000
0010
0000
0100
0001
1000
0000
0010
1000
0001
0000
0100
0010
1000
0000
,  // measure 39
0001
0010
0001
0000
1000
0100
1000
0000
0001
1000
0001
0000
0100
0010
0100
0000
,  // measure 40
0001
1000
0001
0000
1000
0100
1000
0000
0001
0010
0001
0000
1000
0001
1000
0000
,  // measure 41
0001
0100
0001
0000
1000
0010
1000
0000
0001
0100
0001
0000
1000
0010
0100
0000
,  // measure 42
0001
0100
0010
0000
1000
0001
0010
0000
0100
1000
0001
0000
0100
0010
1000
0001
,  // measure 43
0100
0010
1000
0100
0010
0001
0010
0100
1000
0001
0100
0010
1000
0001
0100
0010
,  // measure 44
1000
0100
0010
0001
0010
0100
1000
0001
0100
0010
1000
0001
1000
0100
0010
0001
,  // measure 45
0010
0100
1000
0001
0100
0001
1000
0010
1000
0001
0100
0010
1000
0100
0010
0001
,  // measure 46
0010
0100
1000
0001
0100
0010
1000
0001
0010
0001
1000
0010
0100
0001
0010
0001
,  // measure 47
1000
0010
0100
0001
0010
0001
1000
0100
0010
0001
0010
0100
1000
0001
0010
0001
,  // measure 48
1000
0010
0100
0001
0010
0001
1000
0010
0100
0001
0100
0010
1000
0100
0010
0001
,  // measure 49
0010
0100
1000
0001
0010
0001
1000
0010
0100
0001
0010
0001
1000
0000
0001
0010
,  // measure 50
0100
1000
0001
0100
0010
1000
0100
0010
0001
0100
0010
1000
0001
0100
0010
0000
,  // measure 51
1000
0001
0100
0010
1000
0100
0010
0001
0010
0100
1000
0001
0100
0000
0010
1000
,  // measure 52
0001
0100
0010
1000
0100
0010
0001
0010
0100
1000
0001
0100
0010
1000
0010
1000
,  // measure 53
0001
0100
0001
0100
0010
1000
0010
1000
0001
0100
0001
0100
0010
1000
0100
0010
,  // measure 54
0001
0010
0100
1000
0001
0100
0010
1000
0100
0010
0001
0010
0100
1000
0001
0010
,  // measure 55
0001
1000
0010
0100
0001
0010
0001
1000
0100
0010
0001
0010
0100
1000
0010
0100
,  // measure 56
0001
0010
0001
1000
0010
0100
0001
0010
0001
1000
0010
0100
0001
0010
0001
1000
,  // measure 57
0010
0100
0001
0100
0010
1000
0100
0010
0001
0010
0100
1000
0001
0100
0010
1000
,  // measure 58
0001
0100
0010
1000
0100
0010
0001
0010
0100
1000
0001
0010
0100
1000
0001
0100
,  // measure 59
0010
1000
0100
0010
0001
0010
0100
1000
0001
0100
0010
1000
0001
0100
0010
1000
;

//---------------dance-single - Copied from----------------
#NOTES:
     dance-single:
     Copied from:
     Easy:
     9:
     0.424552,0.542926,0.128282,0.064141,0.000000,278.000000,266.000000,12.000000,6.000000,0.000000,0.000000,0.424552,0.542926,0.128282,0.064141,0.000000,278.000000,266.000000,12.000000,6.000000,0.000000,0.000000:
0000
0000
0000
0000
,
0000
0000
0000
0000
,
1000
0001
1000
0001
1000
0001
1000
0001
,
0100
0010
0100
0010
0100
0010
0100
0010
,
1000
0100
1000
0100
1000
0100
1000
0100
,
0010
0001
0010
0001
0010
0001
0010
0001
,
0100
0010
0100
0010
0100
0010
0100
0010
,
1000
0001
1000
0001
1000
0001
1000
0001
,
0010
0001
0100
0000
0010
0000
1000
0000
,
0010
0100
0010
0000
1000
0000
0001
0000
,
0010
0100
0010
0000
0100
0000
1000
0000
,
0001
0100
0010
0000
1000
0000
0001
0000
,
0100
0100
0010
0010
,
1000
0001
0010
0100
,
1000
0001
0010
0100
,
1000
0000
0000
0000
,
0002
0103
0010
1000
,
0002
0013
0100
1000
,
0002
0103
0010
1000
,
0002
0013
0100
1000
,
0002
0103
0010
1001
,
0010
1001
0100
1001
,
0010
0101
0010
1100
,
0001
0011
0001
1001
,
0010
1001
0100
1001
,
0010
1001
0100
1001
,
0010
1000
0010
0000
0100
0000
0001
0000
,
0020
0000
0000
0030
,
1001
0001
0100
0010
,
1000
0100
0010
0001
,
0100
0010
0100
0010
1000
0000
0001
0000
,
0100
0010
1000
0001
,
0010
0100
0010
0000
0001
0000
1000
0000
,
0010
0100
0001
0010
,
0100
1000
0100
0000
0010
0000
0001
0000
,
0100
0010
1000
0001
,
1000
1000
0001
0000
0100
0000
0010
0000
,
1000
1000
0001
0000
0100
0000
0010
0000
,
1000
1000
0001
0000
0100
0000
0010
0000
,
1000
1000
0001
0000
0100
0000
0010
0000
,
1000
1000
0001
0000
0100
0000
0010
0000
,
1000
1000
0010
0000
0100
0000
0001
0000
,
1000
1000
0100
0000
0010
0000
0001
0000
,
0100
0010
1000
0001
,
1000
0010
0100
0001
,
0010
0100
1000
0100
,
0010
0001
0100
0010
,
1000
0001
0100
0010
,
1000
0001
1000
0001
,
0100
0010
0100
0010
,
1000
0100
0010
0001
,
0100
0010
0100
0010
,
1000
0100
0010
0001
,
0010
0100
0010
0100
,
1000
0001
0100
0010
,
1000
0001
0010
0100
,
1000
0100
0010
0001
,
0100
0010
1000
0010
,
0100
0001
0010
0100
,
1000
0100
0010
0100
;

//---------------dance-single - ----------------
#NOTES:
     dance-single:
     :
     Beginner:
     1:
     0.093157,0.126144,0.032070,0.000000,0.000000,61.000000,58.000000,3.000000,0.000000,0.000000,0.000000,0.093157,0.126144,0.032070,0.000000,0.000000,61.000000,58.000000,3.000000,0.000000,0.000000,0.000000:
0000
0000
0000
0000
,
0000
0000
0000
0000
,
1000
0000
0000
0000
,
0001
0000
0000
0000
,
0100
0000
0000
0000
,
0010
0000
0000
0000
,
1000
0000
0000
0000
,
0001
0000
0000
0000
,
1001
0000
0000
0000
,
1000
0000
0000
0000
,
0010
0000
0000
0000
,
0100
0000
0000
0000
,
0001
0000
0000
0000
,
1000
0000
0000
0000
,
0010
0000
0000
0000
,
0100
0000
0000
0000
,
0001
0000
0000
0000
,
1000
0000
0000
0000
,
0001
0000
0000
0000
,
0010
0000
0000
0000
,
0100
0000
0000
0000
,
1000
0000
0000
0000
,
0001
0000
0000
0000
,
0100
0000
0000
0000
,
0010
0000
0000
0000
,
1000
0000
0000
0000
,
0001
0000
0000
0000
,
1000
0000
0000
0000
,
1001
0000
0000
0000
,
1000
0000
0000
0000
,
0001
0000
0000
0000
,
0100
0000
0000
0000
,
0010
0000
0000
0000
,
1000
0000
0000
0000
,
0001
0000
0000
0000
,
1000
0000
0000
0000
,
0001
0000
0000
0000
,
1000
0000
0000
0000
,
0010
0000
0000
0000
,
0100
0000
0000
0000
,
0001
0000
0000
0000
,
0010
0000
0000
0000
,
0100
0000
0000
0000
,
1000
0000
0000
0000
,
1001
0000
0000
0000
,
0100
0000
0000
0000
,
0010
0000
0000
0000
,
1000
0000
0000
0000
,
0001
0000
0000
0000
,
0100
0000
0000
0000
,
0010
0000
0000
0000
,
1000
0000
0000
0000
,
0001
0000
0000
0000
,
1000
0000
0000
0000
,
0010
0000
0000
0000
,
0100
0000
0000
0000
,
0001
0000
0000
0000
,
1000
0000
0000
0000
,
0010
0000
0000
0000
,
1000
0000
0000
0000
;
