#TITLE:Don't Turn Around;
#SUBTITLE:;
#ARTIST:Ace of Base;
#TITLETRANSLIT:;
#SUBTITLETRANSLIT:;
#ARTISTTRANSLIT:;
#GENRE:;
#CREDIT:;
#MUSIC:Don't Turn Around.ogg;
#BANNER:bn.png;
#BACKGROUND:bg.png;
#CDTITLE:;
#SAMPLESTART:50.211;
#SAMPLELENGTH:17.000;
#SELECTABLE:YES;
#OFFSET:-1.349;
#BPMS:0.000=95.586;
#STOPS:76.000=0.628;
#BGCHANGES:8.000=wave2.avi=0.900=1=0=1===CrossFade==,
16.000=snow3.avi=1.000=0=0=1,
24.000=text5.avi=1.000=0=0=1,
32.000=ring4.avi=1.000=0=0=1,
40.000=water3.avi=1.000=0=0=1,
48.000=heart1.avi=1.000=0=0=1,
56.000=light6.avi=1.000=0=0=1,
64.000=wheel4.avi=1.000=0=0=1,
72.000=bubble1.avi=1.000=0=0=1,
76.000=bubble1.avi=0.000=0=0=1,
77.000=text5.avi=1.000=0=0=1,
79.000=water3.avi=1.000=0=0=1,
85.000=text5.avi=1.000=0=0=1,
87.000=ring4.avi=1.000=0=0=1,
93.000=text5.avi=1.000=0=0=1,
95.000=heart1.avi=1.000=0=0=1,
103.000=room1.avi=1.000=0=0=1,
109.000=text5.avi=1.000=0=0=1,
111.000=wave2.avi=1.000=0=0=1,
117.000=text5.avi=1.000=0=0=1,
119.000=water3.avi=1.000=0=0=1,
125.000=text5.avi=1.000=0=0=1,
127.000=heart1.avi=1.000=0=0=1,
135.000=room1.avi=1.000=0=0=1,
141.000=text5.avi=1.000=0=0=1,
143.000=light6.avi=1.000=0=0=1,
149.000=text5.avi=1.000=0=0=1,
151.000=water3.avi=1.000=0=0=1,
157.000=Don't Turn Around-jacket.png=1.000=1=0=1===CrossFade==,
99999.000=-nosongbg-=1.000=0=0=0=StretchNoLoop====
;
#FGCHANGES:;

//--------------- dance-single - ----------------
#NOTES:
     dance-single:
     :
     Beginner:
     1:
     0.117,0.112,0.038,0,0:
0000
0000
0000
0000
,
0000
0000
0000
0000
,
1000
0000
0001
0000
,
1000
0000
0100
0000
,
1000
1000
1000
0000
,
0001
0000
0100
0000
,
0001
0001
0001
0000
,
1000
0000
0010
0000
,
1000
0000
0000
0000
,
1000
0000
0000
0000
,
0001
0000
0000
0000
,
0001
0000
0000
0000
,
1000
0000
1000
0000
,
0100
0000
0100
0000
,
1000
0000
0000
0000
,
0001
0000
0001
0000
,
0100
0000
0001
0000
,
0001
0000
1000
0000
,
1000
0000
1000
0000
,
0110
0000
0000
1001
,
0000
0001
0000
1000
,
0000
1000
1000
1000
,
0000
0100
0000
0001
,
0000
0001
0001
0001
,
0000
1000
0000
0001
,
0000
0100
0100
0100
,
0000
1000
0000
0001
,
0000
0100
0100
0100
,
0000
1000
0000
0001
,
0001
0001
0000
1001
,
0000
1000
0000
1000
,
1000
1000
0000
1001
,
0000
0001
0000
0100
,
0100
0100
0000
1000
,
0000
0001
0000
0001
,
0000
1000
1000
1000
,
0000
0001
0000
1000
,
0000
0001
0001
0001
,
0000
1000
0000
0001
,
0000
0100
0100
0100
;

//--------------- dance-single - ----------------
#NOTES:
     dance-single:
     :
     Easy:
     4:
     0.178,0.187,0.084,0.038,0:
0000
0000
0000
0000
,
0000
0000
0000
0000
,
1000
1000
0001
0001
,
0100
0000
0100
0000
,
1001
1000
1000
0001
,
0001
0000
0001
0000
,
0100
0100
0010
0010
,
1000
0000
0010
1000
,
0110
0000
1000
0001
,
1000
0000
0001
0100
,
0001
0000
1000
0001
,
1000
0000
0100
0100
,
1000
0000
0001
0001
,
1000
0000
1000
0100
,
1000
0000
1000
0010
,
0010
0001
1000
0001
,
1001
0000
0100
0000
,
0001
0000
1000
0001
,
1000
0100
1000
0001
,
1001
1000
1000
1001
,
0000
0001
0001
1000
,
0000
1000
1000
1001
,
0000
1000
0001
0100
,
0000
1000
1000
1001
,
0000
1000
0100
1000
,
0001
0100
1000
0002
,
0000
2003
0000
3001
,
0001
1000
1000
1001
,
0000
0001
0000
1000
,
1000
0100
1000
0001
,
0000
0001
0000
0100
,
0001
0010
0100
1000
,
0000
1000
0000
0001
,
0100
0001
1000
0002
,
0000
2003
0000
3100
,
1000
0001
1000
1001
,
0001
1000
1000
0001
,
0000
0100
0100
0001
,
1000
0001
1000
0100
,
0000
1000
1000
0001
;

//--------------- dance-single - ----------------
#NOTES:
     dance-single:
     :
     Medium:
     7:
     0.299,0.317,0.028,0.338,0:
0000
0000
0000
0000
,
0000
0000
0000
0000
,
1000
0000
0001
0000
1000
0000
0001
1000
,
0200
1300
2000
3100
,
1000
0000
0001
0000
1000
0001
1000
0000
,
2000
3100
0002
0103
,
1000
0000
0001
0000
1000
0010
1000
0000
,
2000
3010
0020
1030
,
2002
0000
3003
0000
1000
0001
1000
0000
,
0001
0000
1000
0000
0100
1000
0100
0000
,
1000
0001
1000
0001
0000
0010
1000
0010
,
0000
1000
0001
1000
0000
1000
0100
0000
,
2000
0000
3001
0001
,
1000
0001
1000
0000
0001
0100
0001
0000
,
1000
0010
1000
0001
,
0100
0001
0010
0100
,
2000
3001
0002
1003
,
2000
3001
0002
0103
,
1000
0010
1000
0000
0001
1000
0001
0000
,
1001
0000
1000
0001
1000
0001
1001
0000
,
0100
1000
1000
0001
,
0100
0000
1000
1000
0010
1000
0100
0000
,
0001
1000
0100
1000
,
0001
0000
0001
0001
1000
0100
1000
0000
,
0001
0000
1000
0100
0100
0000
0001
0000
,
1000
0010
1000
0002
,
0103
0200
0301
1000
,
0001
0000
1000
1000
0100
1000
0002
0000
,
2003
3200
2300
3001
,
0001
0000
1000
0100
1000
0000
0002
0000
,
2003
0000
3200
0000
2300
0000
3010
1000
,
0020
0000
1030
1000
0001
0001
2000
0000
,
3200
2300
3002
1003
,
1000
0000
0001
1000
0001
0000
1000
0000
,
0001
0000
0100
0001
0100
0000
0001
0000
,
1000
0000
1000
0001
1000
0100
2000
0000
,
3002
0203
0302
1003
,
1000
0000
0001
1000
0001
1000
0200
0000
,
2300
3002
2003
3001
,
0001
0000
1000
0001
1000
0001
0100
0000
;

//--------------- dance-single - ----------------
#NOTES:
     dance-single:
     :
     Hard:
     9:
     0.33,0.317,0.056,0.15,0.131:
0000
0000
0000
0000
,
0000
0000
0000
0000
,
1000
0000
0001
0000
1000
0001
1000
0100
,
2000
0000
3001
0100
0002
0000
1003
0100
,
1000
0000
0000
1000
0010
0000
0000
0010
1000
0000
0000
1000
0010
0000
0000
0000
,
1000
0000
0000
0001
0000
0000
2000
0000
0000
0000
0000
0000
3001
0000
0000
0000
,
1000
0000
0000
0001
1000
0000
0000
1000
0100
0000
0000
1000
0001
0000
0000
0000
,
1000
0000
0000
0001
0000
0000
0200
0000
0000
0000
0000
0000
0301
0000
1000
0000
,
1001
0000
0001
1000
0000
0001
1000
0001
,
0000
0001
0100
0001
0000
0001
1000
0000
,
1000
0000
0001
0000
1000
0010
1000
0000
,
1000
0100
1000
0000
1000
0001
1000
0100
,
2000
0000
3001
0000
0001
1000
0001
0000
,
1000
0000
0100
0000
1000
0001
1000
0100
,
1000
0001
1000
0100
,
1000
0001
1000
0001
1000
0100
1000
0100
,
2000
0000
3001
0100
0002
0000
1003
0100
,
2000
0000
3001
0100
0002
0000
2003
0000
,
3100
0000
0000
0000
0000
0000
1000
0000
0000
0000
0000
0000
0001
0000
0000
1000
0000
0000
0100
0000
1000
0000
0001
0000
,
1000
0000
1000
1000
0001
0001
1001
0000
,
1000
0000
0001
1000
0001
0000
1000
0001
,
1000
0000
1000
1000
0001
0001
1001
0000
,
0100
0000
1000
0001
1000
0000
1000
0010
,
1000
0000
1000
1000
0001
0001
0101
0000
,
1000
0000
0010
1000
0010
0000
1000
0100
,
1000
0000
1000
0001
1000
0001
2000
0000
,
3100
2000
3100
1000
,
0001
1000
0100
0100
0010
0010
0110
0000
,
1000
0000
0000
0001
0100
0000
0000
0100
0001
0000
1000
0000
0001
0000
0000
1000
,
0000
0000
0200
0000
0000
0000
0000
0000
0310
0000
0000
0000
1000
0000
0000
0001
,
0100
0000
0000
0100
0001
0000
0000
0001
0100
0000
0000
0000
1000
0000
0000
0001
,
0000
0000
0200
0000
0000
0000
0000
0000
0310
0000
0000
0000
1000
0000
0000
0100
,
1000
0000
0000
1000
0100
0000
0000
0100
1000
0000
0001
0000
1000
0000
0000
0000
,
1000
0000
0001
1000
0100
0000
0001
1000
,
0001
0000
1000
0100
1000
0000
0001
0000
,
1000
0000
0000
0000
0001
0000
0001
0000
1000
0000
1000
0000
1001
0000
0000
1000
,
0001
0000
0000
0001
0100
0000
0000
0100
0001
0000
1000
0000
0001
0000
0000
1000
,
0000
0000
0200
0000
0000
0000
0000
0000
1300
0000
0000
0000
1000
0000
0000
1000
,
0001
0000
0000
0001
1000
0000
0000
1000
0100
0000
1000
0000
0001
0000
0000
1000
,
0000
2000
0000
0000
3001
1000
0001
0000
;

//--------------- dance-single - ----------------
#NOTES:
     dance-single:
     :
     Challenge:
     12:
     0.449,0.429,0.375,0.122,0.239:
0000
0000
0000
0000
,
0000
0000
0000
0000
,
1000
0000
0000
0000
0001
0100
0001
0100
0001
0000
0001
0000
0000
0000
1000
0000
,
2000
0000
0000
0100
0000
0000
3100
0000
0002
0000
0000
0100
0000
0000
0103
0000
,
1001
0000
0000
1000
0100
0000
0000
1000
0001
0000
1000
0001
1000
0000
1000
0000
,
0100
0000
0001
0100
0000
0000
0020
0000
0000
0000
0000
0000
1030
0000
0000
0000
,
1001
0000
0000
1000
0100
0000
0000
0100
1000
0000
0100
1000
0100
0000
1000
0000
,
0001
0000
0100
0001
0000
0000
2000
0000
0000
0000
3001
0000
0001
1000
0001
1000
,
0002
0000
1003
0000
1000
0010
1000
0010
,
0000
1000
0001
1000
0001
0100
0001
0100
,
0000
1000
0001
1000
0000
1000
0010
1000
,
0000
0000
1000
0000
0100
0000
1000
0000
0000
0000
0001
0000
0001
1000
0100
1000
,
0200
0000
1300
1000
0000
0100
1000
0100
,
0000
1000
0001
0100
0001
0010
0010
0100
,
0000
1000
0010
1000
0000
1000
0001
1000
,
0000
0000
1000
0000
0100
0000
1000
0000
0000
0000
0001
0000
1000
0000
0001
1000
,
0000
0000
0100
0000
0010
0000
1000
0100
0000
0000
1000
0000
0001
0000
1000
0100
,
0000
1000
0001
0001
2010
0000
3200
0000
,
1300
0000
0000
0001
0000
0000
1000
0000
0000
0100
0000
0000
1000
0000
0000
0001
0000
0000
0100
0000
0001
0000
1000
0000
,
1001
0000
1001
1001
1001
1001
1001
0000
,
1000
0001
1000
0000
0100
0000
1000
0000
0001
0000
0100
0000
0000
0000
0001
0000
,
0000
0100
1001
1001
1100
0101
1001
0000
,
1000
0001
0000
0001
1000
0000
0100
0000
1000
0000
0002
0000
0000
0000
1000
0000
,
1003
0000
1001
0110
1001
1100
1001
0000
,
1000
0001
0100
0001
1000
0002
0000
1003
,
0000
0000
0000
0000
0000
0000
0100
0000
0000
0000
0000
0000
0010
0000
0000
0100
0000
0000
0000
0000
0000
0100
0000
0000
0000
0000
0000
0000
0000
0000
0001
0000
0000
0000
0000
0000
1000
0000
0000
0000
0001
0000
0000
0000
1000
0000
0000
0000
,
0001
0000
1000
0100
1000
0000
1000
0001
,
1000
0000
0100
0000
1001
0000
1100
0000
1001
0000
0101
0000
0110
0000
0000
0001
,
1000
0000
0001
1000
0001
0000
1000
0100
1000
0000
1000
0000
0002
0000
0000
1000
,
0000
0000
1003
0000
0001
0000
0101
0000
1000
0000
1100
0000
1001
0000
0000
1000
,
0001
0000
0001
0100
0001
0000
0001
1000
0001
0000
1000
0000
1000
0000
0000
0001
,
0100
0000
0000
0000
1001
0000
1010
0000
1100
0000
1010
0000
1001
0000
0000
1000
,
0001
0000
1000
0100
1000
0000
1000
0010
1000
0000
1000
0000
0001
0000
0000
0001
,
0000
1000
0100
0010
1000
0100
0001
0000
,
1000
0000
0001
0000
1000
0000
0000
1000
0000
0100
0000
1000
0000
0000
1000
0000
,
0001
0000
0000
0000
1001
0000
1100
0000
1010
0000
0011
0000
1001
0000
1000
0100
,
1000
0000
1000
0001
1000
0000
1000
0010
1000
0000
1000
0000
0002
0000
0000
1000
,
0000
0000
1003
0000
1000
0000
1100
0000
0001
0000
0101
0000
1001
0000
0000
0100
,
1000
0000
1000
0100
1000
0000
1000
0100
1000
0000
1000
0000
0002
0000
0000
1000
,
0000
1003
0100
0100
1000
1000
0010
0000
;
