#TITLE:Don't Cry For Me Argentina;
#SUBTITLE:(Miami Mix);
#ARTIST:Madonna;
#TITLETRANSLIT:;
#SUBTITLETRANSLIT:;
#ARTISTTRANSLIT:;
#GENRE:;
#CREDIT:;
#MUSIC:Don't Cry for Me Argentina (Miami Mix).ogg;
#BANNER:bn.png;
#BACKGROUND:Don't Cry for Me Argentina (Miami Mix)-bg.png;
#CDTITLE:;
#SAMPLESTART:83.716;
#SAMPLELENGTH:15.600;
#SELECTABLE:YES;
#OFFSET:-0.594;
#BPMS:0.000=126.900
,16.000=126.766
,32.000=126.749
,48.000=127.102
,64.000=126.972
,112.000=127.061
;
#STOPS:;
#BGCHANGES:17.000=dance11.avi=1.200=1=0=1===CrossFade==,
25.000=dance11r.avi=1.200=0=0=0=StretchNoLoop====,
33.000=fire1.avi=1.000=0=1=1=StretchRewind====,
41.000=fire1r.avi=1.000=0=1=1=StretchRewind====,
49.000=snow3.avi=0.800=0=1=1=StretchRewind====,
56.000=snow3r.avi=0.800=0=1=1=StretchRewind====,
65.000=heart2.avi=1.200=0=0=1,
81.000=light2.avi=1.000=0=0=1,
89.000=light2r.avi=1.000=0=1=1=StretchRewind====,
97.000=dance10.avi=1.000=0=0=1,
105.000=night1.avi=1.000=0=0=1,
113.000=dance11.avi=1.000=0=0=1,
121.000=star1.avi=1.400=0=0=1,
129.000=star1r.avi=1.400=0=1=1=StretchRewind====,
142.000=heart2.avi=1.400=0=0=1,
143.000=heart2r.avi=1.400=0=0=1,
144.000=heart2.avi=1.400=0=0=1,
145.000=space2.avi=1.000=0=0=1,
153.000=dance10.avi=1.000=0=0=1,
161.000=space2r.avi=1.000=0=0=1,
177.000=dance10.avi=1.000=0=0=1,
193.000=snow3.avi=1.000=0=0=1,
201.000=light2.avi=1.000=0=0=1,
205.000=wheel4.avi=1.000=0=0=1,
221.000=piano3.avi=1.400=0=0=1,
237.000=dance11.avi=1.200=0=0=1,
249.000=Don't Cry for Me Argentina (Miami Mix)-bg.png=1.000=0=0=1,
99999.000=-nosongbg-=1.000=0=0=0=StretchNoLoop====
;
#FGCHANGES:;

//--------------- dance-single - ----------------
#NOTES:
     dance-single:
     :
     Beginner:
     2:
     0.11,0.13,0.083,0,0:
0000
0000
0000
0000
,
0000
0000
0000
0000
,
0000
0000
0000
0000
,
0000
0000
0000
0000
,
0000
1000
0000
0000
,
0000
1000
0000
0000
,
0000
0001
0000
0000
,
0000
0001
0000
0001
,
0000
1001
0000
0000
,
0000
0110
0000
0000
,
0000
1001
0000
0000
,
0000
1000
0000
0000
,
0000
1000
0000
0000
,
0000
0001
0000
0000
,
0000
1000
0000
0000
,
0000
0100
0000
0100
,
0000
0010
0000
0000
,
0000
1000
0000
0000
,
0000
0001
0000
0001
,
0000
0001
0000
0000
,
0000
1001
0000
0000
,
0000
1000
0000
0000
,
0000
0001
0000
0000
,
0000
1000
0000
1000
,
0000
1000
0000
0000
,
0000
0100
0000
0000
,
0000
0010
0000
0000
,
0000
0010
0000
0010
,
0000
0010
0000
0000
,
0000
1000
0000
0000
,
0000
1000
0000
0000
,
0000
0100
0000
0100
,
0000
0100
0000
0000
,
0000
0001
0000
0000
,
0000
0001
0000
0000
,
0000
1000
0000
1000
,
0000
1001
0000
0000
,
0000
0100
0000
0000
,
0000
1000
0000
0000
,
0000
0001
0000
0001
,
0000
1000
0000
0000
,
0000
0100
0000
0000
,
0000
0010
0000
0000
,
0000
1000
0000
1000
,
0000
1001
0000
0000
,
0000
0100
0000
0100
,
0000
1001
0000
0000
,
0000
0010
0000
0010
,
0000
1000
1000
0000
,
0000
0001
0001
0000
,
0000
1000
0000
1000
,
0000
0001
0000
0001
,
0000
1000
0000
0000
,
0000
0001
0000
0000
,
0000
0100
0000
0000
,
0000
1001
0000
0000
,
0000
1000
0000
1000
,
0000
0001
0001
0001
,
0000
1000
1000
1000
,
0000
0010
0000
0010
,
0000
1000
0000
1000
,
0000
0001
0000
0001
,
0000
1001
0000
1001
;

//--------------- dance-single - ----------------
#NOTES:
     dance-single:
     :
     Easy:
     5:
     0.207,0.232,0.133,0,0:
0000
0000
0000
0000
,
0000
0000
0000
0000
,
0000
1000
0000
0000
,
0000
0001
0000
0000
,
0000
0000
0001
0001
,
0001
1000
0000
0001
,
0000
0100
0010
0100
,
0010
1000
0000
0001
,
0000
1001
0000
1001
,
0000
1001
0000
1001
,
0000
0110
0000
0110
,
0000
0001
0001
0001
,
0001
0000
0000
1000
,
0000
0001
0000
0100
,
0000
0010
1000
0001
,
0000
0100
0000
0010
,
0000
1000
0000
0000
,
0000
0000
0010
0010
,
0000
1001
0100
0100
,
0000
1001
0000
0000
,
0000
1001
0000
1001
,
0000
0010
1000
0001
,
0100
0010
0000
1000
,
0000
0001
0100
0010
,
1000
0001
0000
0100
,
0000
0010
0000
1000
,
0000
0001
1000
0001
,
0000
1000
0010
0100
,
0000
1001
0000
0001
,
0100
0010
0000
1000
,
0001
0100
0000
0001
,
1000
0010
0000
0100
,
0001
0010
0000
0100
,
0001
1000
0000
0010
,
0010
0100
0000
0001
,
1000
0001
0000
1000
,
0001
1001
0000
1001
,
0000
0010
0100
0010
,
1000
0001
0000
1000
,
0001
1000
0000
0010
,
1000
0001
0000
0100
,
0100
0100
0000
0010
,
0000
1000
0000
0001
,
0000
1001
0000
0001
,
0000
1001
0000
1000
,
0000
0001
0100
0010
,
0000
1000
0001
0100
,
0000
0010
1000
0001
,
0000
0100
0100
0100
,
0000
0010
0010
0010
,
0000
1000
0001
0100
,
0000
0010
1000
0001
,
0000
0100
0100
0100
,
0000
0010
1000
0001
,
0000
0100
0010
1000
,
0000
1001
0000
1000
,
0001
0100
0000
0010
,
1000
0001
0000
0100
,
0010
1000
0000
0001
,
0001
1000
0000
0010
,
0010
0100
0000
0001
,
1000
0001
0000
0100
,
0010
1000
0000
0000
;

//--------------- dance-single - ----------------
#NOTES:
     dance-single:
     :
     Medium:
     9:
     0.409,0.442,0.282,0,0:
0000
0000
0000
0000
,
0000
0000
0000
0000
,
0000
0000
1000
0000
0000
0001
0000
0000
,
0100
0000
0010
0000
0000
1000
0000
0000
,
0001
0000
0100
0000
0000
0010
0000
0000
,
1000
0001
0100
0010
,
1000
0000
0100
0010
0100
0000
1000
0000
,
0001
0000
0100
0010
0100
0010
1000
0001
,
0100
0000
0010
1000
0010
0100
0001
0010
,
0100
0000
1000
0100
0010
0001
1000
0001
,
0100
0000
0010
1000
0010
1000
0010
0100
,
0001
0100
0010
1000
,
0100
0011
0001
1000
,
0010
0100
0001
0010
,
0100
1000
0001
0100
,
0010
1000
0001
0100
,
0010
1000
0001
0100
,
0001
1001
0010
0100
,
0001
1001
0010
0100
,
0001
1001
0010
0100
,
0001
0000
1001
0000
0010
0100
0010
1000
,
0010
0100
0010
0000
1000
0000
0100
0000
,
0010
0101
0001
1001
,
0010
1010
1000
1001
,
0001
0100
0010
0000
1001
0000
0010
0000
,
1100
0000
1000
0100
0010
0001
0100
0010
,
1000
1001
0010
0110
,
0001
0011
0001
1001
,
1000
1001
0000
0000
,
0000
0000
0001
0000
0100
0000
0010
1000
,
0010
0100
0001
0000
0010
0000
0001
1000
,
0001
0100
0001
0000
1000
0000
0010
0100
,
0010
1000
1010
0000
0001
0000
0100
0001
,
0010
0001
0000
0000
0010
0000
1000
0001
,
0010
0001
1000
0000
0010
0000
0100
0000
,
0001
0010
0001
1000
,
0001
0000
1001
0000
0010
0100
0010
1000
,
0010
1001
0001
0010
,
0001
1010
0010
0100
,
0001
1001
0010
0100
,
0001
1001
0001
0010
,
0001
0011
0001
1000
,
0001
1001
0001
0100
,
0001
0101
0010
1000
,
0010
0000
1000
0001
1000
0001
1000
0001
,
1000
0001
0100
0010
0100
0010
0100
0010
,
1000
0010
1000
0000
0001
0000
0100
0000
,
0001
0010
0100
1000
,
0001
0000
0100
0010
0100
0010
0100
0001
,
1000
0001
1000
0000
0010
0000
0100
0000
,
0001
0010
0001
0000
1000
0000
1001
0000
,
0110
0000
0011
0000
1100
0000
0001
0100
,
0001
1000
0001
0000
1000
0000
0010
0100
,
0001
0010
0100
0000
1000
0000
0001
0100
,
0010
1000
0001
0000
0010
0000
0010
0000
,
0100
0000
1001
0000
0010
0000
0100
0001
,
0010
0100
1000
0100
0010
0001
1000
0010
,
0100
0010
1000
1000
0001
0001
0100
0100
,
0010
0010
1000
0100
1000
0100
0010
0001
,
0010
0001
0100
0010
0100
0010
1000
0100
,
1000
0100
0010
0001
0010
0001
0100
0010
,
0100
0010
1000
0100
0010
0001
0100
0000
,
0010
0000
1010
1010
0000
0101
0101
0000
;

//--------------- dance-single - ----------------
#NOTES:
     dance-single:
     :
     Hard:
     11:
     0.504,0.498,0.282,0.166,0.133:
0000
0000
0000
0000
,
0000
0000
0000
0000
,
0000
0000
1000
0000
0001
0100
0000
1000
,
0100
0000
0001
0000
1000
0010
0000
0010
,
0001
1001
1100
1001
,
0001
0100
1001
0000
1100
0000
1001
0000
,
1000
0010
0100
0010
0100
0010
0001
1000
,
0001
1000
0100
1000
0100
1000
0100
1000
,
0100
1000
0200
0000
0010
0000
0302
0000
,
0013
0100
0020
0000
1000
0000
0230
0000
,
1300
0100
0002
0000
1000
0000
0203
0000
,
0301
0000
0000
0000
0110
0000
0000
0010
1000
0000
0100
0000
1000
0000
0100
0000
,
1000
0100
0010
0000
0010
1000
0000
1000
,
0100
0000
0001
0000
0001
0010
0000
0100
,
0010
0000
1000
0000
1000
0010
0000
0100
,
0001
0000
0001
0000
0100
0010
0000
0001
,
0001
0000
1001
0000
1010
0100
0101
0000
,
1001
0000
0011
0000
1001
1000
0101
0000
,
0110
0001
1001
0000
1010
1000
0110
0000
,
0110
0000
1001
0000
0001
0100
0020
0000
,
0230
0000
1300
0100
0001
0100
0001
0100
,
0100
0000
1000
0100
1000
0100
1000
0010
,
0010
0000
0000
0000
0001
0000
0000
1000
0000
0000
0001
0000
2000
0000
0100
0000
,
3100
0000
0000
0000
0001
0000
0000
0100
0000
0000
0010
0000
1000
0000
0000
0000
,
0100
0000
0001
1000
0100
0000
1000
0000
0100
0000
1000
0000
0100
0000
1000
0000
,
0100
0000
0010
0000
0001
0000
0000
0001
0000
0000
0100
0000
1000
0000
0000
1000
,
0000
0100
0001
0100
0001
0000
1000
0100
,
1000
0000
0100
0000
0100
0000
0000
0100
0010
0000
1000
0000
0001
0000
1000
0000
,
0001
0000
1000
0010
0100
0000
0000
0000
0001
0000
0000
0000
1000
0000
0100
0000
,
1000
0000
0100
0000
0010
0000
1000
0001
,
1000
0000
1000
0010
1000
0000
0010
0001
,
0010
0000
0000
0000
1001
0000
0000
1000
0000
0000
0100
0000
1000
0000
0000
1000
,
0000
0010
1000
0100
1000
0100
1000
0100
,
0100
0000
0010
0000
0001
0000
0000
1000
0000
0000
1000
0000
0100
0000
0010
0000
,
0000
0000
0010
0100
0010
0000
0000
1000
0000
0000
0001
0000
0200
0000
0000
0000
,
0310
1000
0010
0000
1010
0000
0101
0000
,
1100
0000
1002
0000
1003
0100
2000
0000
,
3001
0100
0001
0000
1000
0010
1000
0000
,
0100
0000
0010
0000
1000
0000
0000
0100
0000
0000
1000
0000
0002
0000
0100
0000
,
0103
0000
0000
0000
1000
0000
0000
0010
0000
0000
0100
0000
0100
0000
0000
0001
,
0000
1000
0100
0010
0100
0010
0100
1000
,
1000
0000
0000
0000
1000
0000
0000
0001
0000
0000
0001
0000
0010
0000
0000
0100
,
0000
1000
0010
0100
0010
0000
0001
1000
,
0001
0000
0000
0000
0000
0000
0000
0000
0000
0100
0000
0000
1000
0000
0000
0000
0000
0000
0000
0000
0001
0000
0000
0000
0100
0000
0000
0000
0000
0000
0000
0000
0100
0000
0000
0000
0010
0000
0000
0000
0000
0000
0000
0000
1000
0000
0000
0000
,
0001
0000
0000
0000
1001
0000
0000
1000
0000
0000
0100
0000
1001
0000
0000
0100
,
0000
0000
0001
0000
1001
0000
0000
0200
0000
0000
2000
0300
0000
0000
3001
0000
,
0100
0000
0010
0000
0100
0000
0000
0010
0000
0000
1000
0000
0000
0000
0002
0000
,
0000
0000
1003
0000
0100
0000
0000
0100
0000
0000
0001
0000
0010
0000
0100
0000
,
0010
0000
0000
0000
1000
0000
0000
0100
0000
0000
0010
0000
1000
0000
0100
0000
,
0100
0000
0000
0000
0010
0000
0000
0100
0000
0000
1000
0000
0001
0000
0100
0000
,
0100
0000
0000
0000
2000
0000
0000
0000
3002
0000
0000
0000
1003
0000
0000
0001
,
0000
1000
0100
0000
0100
0000
0010
0000
,
0010
1000
1100
0001
,
0101
0000
1000
0001
1000
0000
0001
1000
,
0001
0000
1000
0100
1000
0100
0010
0100
,
0010
0000
0001
0100
0010
1000
0100
1000
,
0001
0100
0010
0001
0100
0010
1000
0010
,
0100
0001
0010
1000
0010
1000
0100
1000
,
0100
1000
0010
0100
0010
0100
0001
0000
,
0100
0010
1000
0001
0100
0001
0100
0001
,
0100
0001
1000
0100
1000
0100
1000
0100
,
1000
0000
0100
0000
0001
0000
0000
1000
0000
0000
0001
0000
1000
0000
0000
0010
,
0000
0100
1001
1001
0000
1001
2002
0000
,
0000
3003
0000
0000
;

//--------------- dance-single - ----------------
#NOTES:
     dance-single:
     :
     Challenge:
     14:
     0.626,0.655,0.306,0.182,0.418:
0000
0000
0000
0000
,
0000
0000
0000
0000
,
1000
0001
1000
0001
0000
0100
0100
0000
,
1000
0010
1000
0010
1000
0010
1000
0010
,
1100
0000
0101
0000
1100
0000
1001
1001
,
0110
0000
0011
0000
0101
0000
1001
1001
,
1100
0010
1000
0100
0010
0100
0010
0100
,
0001
0010
0001
0000
0001
1000
0001
0000
0001
0100
0001
0100
0001
0100
0001
0000
,
1002
1000
1000
1000
1003
0000
0110
0100
,
2001
0001
0001
0001
3001
0000
0110
0100
,
0102
1000
1000
1003
2100
0001
0001
3001
,
1001
0000
0000
0100
0001
0000
1000
0000
0100
0001
0100
0001
0100
0001
0100
0001
,
0100
0000
0010
1000
0010
0000
1000
0100
,
0000
0000
0010
0000
0000
0000
0001
0000
0000
0000
1000
0000
0000
1000
0000
0000
,
0001
0000
0100
0000
0100
1000
0100
0010
,
0100
0000
0000
1000
0000
0000
0100
0000
0010
0000
0000
0001
0000
0000
0001
0000
,
0100
0001
0100
0001
0100
0001
0100
0001
,
1000
0000
0000
0100
0000
0000
0100
0000
0010
0000
0000
0000
0100
0000
0001
0000
,
1000
0000
0000
1000
0000
0000
0100
0000
1000
0000
0100
0000
0010
0000
0001
0000
,
0010
0000
0000
0000
0011
0000
0000
1000
0200
0000
0000
0000
0310
0000
0000
0000
,
1001
0001
1000
0001
1000
0001
1000
0100
,
1000
0000
0000
0100
0000
0000
0100
0000
0010
0000
0100
0000
0010
0000
0100
0000
,
0010
0000
0000
0100
0000
0000
1000
0000
0001
0000
0001
0000
0001
0000
1000
0000
,
0100
0000
0000
0001
0000
0000
1000
0000
0100
0000
0000
0000
0100
0000
0010
0100
,
0010
0001
0010
0001
0010
0001
0010
0100
,
0002
0000
0000
1000
0000
0000
1003
0000
2000
0000
0000
0001
0000
0000
3001
0000
,
0001
0100
0001
0100
0010
0100
0010
0100
,
0010
0000
1000
0000
0100
0000
1000
0000
0100
1000
0100
1000
0100
1000
0100
1000
,
0001
0000
0000
0000
1000
0000
0100
0000
1000
0000
0100
0000
0001
0100
0000
0100
,
0000
0000
0010
0000
0100
0000
1000
0000
0100
0000
1000
0000
0001
0000
0000
1000
,
0000
1000
0001
1000
0001
1000
0001
1000
,
0100
0000
0000
0100
0000
0000
0100
0000
0010
0000
0000
0010
0000
0000
0010
0000
,
1000
0100
1000
0100
1000
0100
1000
0100
,
0001
0000
0000
1000
0000
0000
0001
0000
0100
0000
0001
0000
0000
0000
1000
0100
,
1000
0000
0000
0001
0000
0000
2000
0000
0200
0000
3000
0000
0310
0000
0001
0000
,
0010
0011
1100
0101
,
1001
0001
1000
0001
1000
0001
1000
0100
,
0100
0000
0000
0000
0001
0100
0001
0100
0000
0000
1000
0000
0001
0000
1000
0000
,
0001
0100
0000
0100
0000
1000
0100
0000
0002
0000
0100
0000
0103
0000
0000
0000
,
1000
0000
0000
0100
0000
0000
1000
0000
0001
0000
0000
0100
0000
0000
1000
0000
,
0100
1000
0100
1000
0100
1000
0100
0001
,
1000
0000
0000
1000
0000
0000
1000
0000
0001
0000
0000
0001
0000
0000
0001
0000
,
1000
0000
0100
0000
1000
0000
0100
0000
1000
0000
0100
0000
1000
0100
1000
0100
,
1000
0000
0010
0100
0000
1000
0100
0000
0001
1000
0000
0000
,
1001
0000
0000
0100
0000
1000
0100
0000
1001
0000
0000
0100
0000
1000
0100
0000
,
2000
0000
0000
0020
3000
0000
0200
0030
0000
0000
0300
1000
0100
0000
1000
0000
,
0001
1000
0000
0100
0000
0000
1001
0000
0000
0000
0002
0000
0000
0000
1003
0000
,
0100
0001
0000
0001
0000
0000
0100
0000
1000
0000
0100
0000
1000
0000
0100
0000
,
1000
0100
0000
0100
0000
0100
1000
0000
0002
0000
1000
0000
1003
0000
0100
0000
,
0001
0100
0000
0100
0000
0100
0001
0000
2000
0000
0001
0000
3001
0000
0100
0000
,
2002
0000
3003
0000
2200
0000
3300
0000
0001
1000
0000
1000
0000
0000
1000
0000
,
0100
0000
1000
0000
0100
0000
1000
0000
0100
0000
1000
0000
0100
0000
1000
0100
,
1000
0000
0001
0000
0100
0000
0001
0000
1000
0000
0001
0000
,
0010
0001
0010
0001
0010
0100
0010
0100
,
1000
0000
0100
0000
1000
0000
0100
0000
0011
0000
0000
1100
0000
0000
1001
0000
,
1001
0000
0100
0000
0001
0000
0100
0000
0010
1000
0010
1000
0010
1000
0010
0000
,
0100
0001
0100
0000
0100
0010
0100
0000
0001
1000
0001
0000
0010
0100
0010
0000
,
1000
0100
1000
0000
1000
0001
1000
0000
0010
1000
0010
0000
0001
0100
0001
0000
,
0010
0100
0010
0000
0001
0100
0001
0100
0001
0000
0000
1000
0010
0000
0010
0000
,
1000
0100
1000
0100
1000
0100
1000
0000
0001
0010
0001
0000
0010
0100
0010
0000
,
0100
1000
0100
1000
0100
1000
0100
1000
0010
1000
0010
0000
1000
0001
1000
0000
,
1001
0000
0000
0100
0000
0000
0100
0000
1001
0000
0000
0100
0000
0000
0100
0000
,
1001
0000
1001
0000
0000
0000
1000
0002
2000
0000
0000
0000
0000
0000
0000
0000
,
3003
0000
0000
0000
;
