#TITLE:Disco Medley;
#SUBTITLE:(Last Dance);
#ARTIST:Selena;
#TITLETRANSLIT:;
#SUBTITLETRANSLIT:;
#ARTISTTRANSLIT:;
#GENRE:;
#CREDIT:;
#MUSIC:Disco Medley (Last Dance).ogg;
#BANNER:bn.png;
#BACKGROUND:bg.png;
#CDTITLE:;
#SAMPLESTART:45.980;
#SAMPLELENGTH:14.000;
#SELECTABLE:YES;
#OFFSET:-0.376;
#BPMS:0.000=125.109
,16.000=125.118
;
#STOPS:;
#BGCHANGES:16.000=dance7.avi=1.000=1=0=1===CrossFade==,
24.000=dance7.avi=1.000=0=0=0=StretchNoLoop====,
32.000=discoball1.avi=1.000=0=0=1,
40.000=tunnel5.avi=1.000=0=0=1,
48.000=dance11.avi=1.400=0=0=1,
56.000=space2.avi=0.900=0=0=1,
64.000=dance10.avi=1.000=0=0=1,
80.000=disco4.avi=1.000=0=0=1,
96.000=text12.avi=1.000=0=0=1,
104.000=dance10.avi=1.000=0=0=1,
112.000=disco3.avi=1.000=0=0=1,
120.000=space1.avi=1.000=0=0=1,
128.000=dance7.avi=1.000=0=0=1,
136.000=night1.avi=1.000=0=0=1,
144.000=dance11.avi=1.400=0=0=1,
152.000=space2.avi=0.900=0=0=1,
160.000=dance10.avi=1.000=0=0=1,
176.000=disco4.avi=1.000=0=0=1,
192.000=text12.avi=1.000=0=0=1,
200.000=dance10.avi=1.000=0=0=1,
208.000=disco3.avi=1.000=0=0=1,
216.000=space1.avi=1.000=0=0=1,
224.000=Disco Medley (Last Dance)-jacket.png=1.000=1=0=1===CrossFade==,
99999.000=-nosongbg-=1.000=0=0=0=StretchNoLoop====
;
#FGCHANGES:;

//--------------- dance-single - ----------------
#NOTES:
     dance-single:
     :
     Beginner:
     2:
     0.127,0.179,0.064,0,0:
0000
0000
0000
0000
,
0000
0000
0000
0000
,
0000
0000
0000
0000
,
0000
0000
0000
0000
,
1000
0000
0000
0001
,
0001
0000
0000
1000
,
1000
0000
0000
0100
,
0100
0000
0010
0000
,
0110
0000
0000
0001
,
0001
0000
0000
1000
,
1000
0000
0000
1000
,
1000
0000
0001
0000
,
1001
0000
0000
0001
,
0001
0000
0000
1000
,
1000
0000
0001
0000
,
1000
0000
0100
0000
,
1001
0000
0000
0000
,
1000
0000
0000
0000
,
0001
0000
0000
0000
,
0001
0000
0000
0000
,
1000
0000
0000
0000
,
0001
0000
0000
0000
,
0100
0000
0000
0000
,
0001
0000
0000
0000
,
1000
0000
1000
0000
,
0001
0000
0000
0000
,
0001
0000
0001
0000
,
1000
0000
0000
0000
,
0100
0000
0100
0000
,
0100
0000
0000
0000
,
0110
0000
0000
0000
,
0001
0000
0001
0000
,
1000
0000
0000
0001
,
0001
0000
0000
1000
,
1000
0000
0100
0000
,
1000
0000
0001
0000
,
1001
0000
0000
1000
,
1000
0000
0000
0001
,
0001
0000
0001
0000
,
0100
0000
0100
0000
,
1001
0000
0000
0000
,
1000
0000
0000
0000
,
0001
0000
0000
0000
,
0100
0000
0000
0000
,
0001
0000
0000
0000
,
1000
0000
0000
0000
,
0001
0000
0000
0000
,
1000
0000
0000
0000
,
1000
1000
1000
0000
,
0001
0001
0001
0000
,
1000
1000
1000
0000
,
0001
0001
0001
0000
,
0100
0000
0100
0000
,
0010
0000
0010
0000
,
1000
0000
0001
0000
,
1000
0000
1000
1000
,
1001
0000
0000
0000
;

//--------------- dance-single - ----------------
#NOTES:
     dance-single:
     :
     Easy:
     6:
     0.27,0.362,0.091,0.329,0:
0000
0000
0000
0000
,
0000
0000
0000
0000
,
0000
0000
0000
0000
,
0000
0000
0000
0000
,
1000
1000
0001
0001
,
2000
0000
0002
3003
,
1000
0001
1000
0100
,
2000
0000
0020
3030
,
1000
1000
0010
0000
,
0010
0010
1000
0000
,
1000
0001
1000
0000
,
0100
1000
0100
1000
,
0001
2000
0000
3001
,
0100
0002
0000
1003
,
1000
0010
1000
0000
,
1000
0001
1000
1000
,
2002
0003
0200
3300
,
2020
0030
0200
3300
,
2002
3000
0200
0303
,
0202
0003
0020
0330
,
1000
0001
1000
0000
,
0001
0100
0001
0000
,
1000
0010
1000
0000
,
0001
1000
0001
0000
,
1000
0002
0000
0103
,
0001
2000
0000
3100
,
1000
0002
0000
0103
,
0001
2000
0000
3100
,
1000
0002
0000
0103
,
0001
2000
0000
3100
,
1000
0001
1000
0001
,
0110
0000
1001
0000
,
1001
0000
1000
0001
,
0200
0300
0001
1000
,
0100
1000
0001
0000
,
1000
0010
1000
0001
,
1001
0000
1000
0001
,
1000
0000
0100
1000
,
0100
0100
1000
0000
,
1000
0010
0010
1000
,
2002
3003
0100
0001
,
2000
0000
3001
1000
,
0002
0000
1003
0100
,
2000
0000
3010
1000
,
0002
0000
1003
0100
,
2000
0000
3001
0100
,
0200
0000
0301
0001
,
2000
0000
3100
0100
,
1000
1000
0001
1000
,
0001
0100
0001
0000
,
1000
0001
1000
0001
,
0100
0001
0100
0000
,
1000
0001
1000
0100
,
1000
0001
1000
0000
,
0010
0010
1000
1000
,
0001
0000
1000
0001
,
2002
0000
3003
0000
;

//--------------- dance-single - ----------------
#NOTES:
     dance-single:
     :
     Medium:
     10:
     0.397,0.387,0.43,0.21,0:
0000
0000
0000
0000
,
0000
0000
0000
0000
,
0000
0000
0000
0000
,
0000
0000
0000
0000
,
1001
0000
1000
0000
0001
0100
0001
0000
,
0001
0000
1000
0000
0001
1000
0001
0000
,
1000
0000
0100
0000
1000
0100
1000
0000
,
1000
1100
1000
0101
,
1001
0000
1000
0000
0001
1000
0001
0000
,
1000
0000
0010
0000
1000
0010
1000
0000
,
1000
0101
1000
1100
,
0002
0203
0302
2003
,
3001
0000
1000
0000
0100
0001
0100
0000
,
1000
0000
1000
0000
1000
0010
1000
0000
,
0001
1100
0001
0101
,
1000
2000
3002
1003
,
1001
0000
0001
1000
0000
1000
0001
0000
,
1000
0000
0010
1000
0000
1000
0010
0000
,
1000
0000
0100
1000
0000
1000
0100
0000
,
0001
0101
1000
1100
,
1001
0000
1000
0010
0000
0010
1000
0000
,
0001
0000
0100
0001
0000
0001
0100
0000
,
1000
0000
1000
0010
0000
0010
1000
0000
,
0001
0000
1000
0100
0000
1000
0001
0000
,
1001
1001
1000
0001
,
1100
1100
0001
1000
,
0110
0110
1000
0001
,
0101
0101
0001
0100
,
0110
0110
1000
1000
,
1100
1100
1000
1000
,
2000
3001
0002
1003
,
1001
0000
0000
0110
0000
0000
1001
0000
,
2000
0000
3001
0000
0100
0001
0100
0000
,
0002
0000
1003
0000
1000
0100
1000
0000
,
1000
1100
0001
0101
,
2000
3002
2003
3002
,
2003
0000
3010
0000
1000
0100
1000
0000
,
0002
0000
1003
0000
0001
0100
0001
0000
,
1000
1100
0001
0101
,
1001
2000
3200
2300
,
3001
0000
0100
0001
0000
0001
0100
0000
,
1000
0000
1000
0100
0000
0100
1000
0000
,
1000
0000
0001
1000
0000
1000
0001
0000
,
1000
0000
1000
0010
0000
0010
1000
0000
,
0001
0000
0100
0001
0000
0001
0100
0000
,
1000
0000
1000
0001
0000
0001
1000
0000
,
1000
0000
0010
1000
0000
1000
0010
0000
,
1000
0000
0001
1000
0000
1000
0001
0000
,
1001
1001
1000
0001
,
0110
0110
1000
0001
,
1100
1100
0001
1000
,
0110
0110
0001
1000
,
0101
0101
1000
0001
,
1100
1100
0001
1000
,
2000
3001
0002
1003
,
1001
0000
0000
1001
0000
0000
0001
1000
,
2002
0000
3003
0000
;

//--------------- dance-single - ----------------
#NOTES:
     dance-single:
     :
     Hard:
     11:
     0.445,0.417,0.21,0.101,0.137:
0000
0000
0000
0000
,
0000
0000
0000
0000
,
0000
0000
0000
0000
,
0000
0000
0000
0000
,
1000
0000
1001
0000
0001
0100
0001
1000
,
0001
0000
1100
0000
1000
0010
1000
0001
,
0100
0000
0101
0000
0001
0010
0001
0100
,
1000
0000
0000
0000
1100
0000
0000
0000
0001
0000
0000
1000
0000
0000
0001
0000
,
0100
0000
1001
0000
1000
0001
0100
1000
,
0100
0000
0110
0000
1000
0001
0100
0001
,
1000
0000
0001
0000
0100
0100
0001
0000
,
2000
0000
0000
3002
0000
0000
1003
0000
0001
0000
0100
0000
,
0001
0000
1000
0000
1000
0001
1000
0100
,
1000
0000
1010
0000
1000
1000
0001
0000
,
0100
0001
0100
0000
1000
0001
1000
0001
,
0100
2000
3200
2300
,
3001
0000
0001
1000
0000
0100
1000
0001
,
0010
0000
0010
1000
0000
0001
1000
1000
,
0100
0000
0010
1000
0000
1000
0100
1000
,
0001
0000
1000
0000
0010
1000
0000
0000
0001
0000
0000
1000
0000
0000
0001
0000
,
1001
0000
0001
0100
0000
0001
1000
1000
,
0001
0000
0001
1000
0000
0100
0100
1000
,
0010
0000
0010
1000
0000
0001
0100
0001
,
1000
0000
0001
0000
1000
0000
0000
0000
0100
0000
0000
0000
1000
0100
1000
0000
,
1010
0000
0000
1000
0000
0000
0001
0000
0100
0000
0001
0000
0100
0000
0000
0000
,
0001
0000
0000
0001
0000
0000
0001
0000
1000
0000
0100
0000
1000
0000
0000
0000
,
1000
0000
0000
0010
0000
0000
0100
0000
0010
0000
1000
0000
0001
0000
0000
0000
,
1000
0000
0000
0001
0000
0000
0100
0000
0001
0000
0010
0000
0010
0000
0000
0000
,
1001
0000
0000
0001
0000
0000
0001
0000
0100
0000
0001
0000
0100
0000
0000
0000
,
1000
0000
0000
0010
0000
0000
1000
0000
0001
0000
0100
0000
0001
0000
0000
0000
,
1010
1100
0011
0101
,
0001
1000
0000
0000
0000
0000
0001
1000
0000
0000
0000
0000
1000
0001
1000
0000
,
0001
0000
0101
0000
0001
1000
0001
0100
,
0001
0000
1100
0000
1000
0010
1000
0010
,
1000
1001
0100
0101
,
1000
0000
0000
0001
0000
0000
0100
0000
0000
0001
0000
0000
1000
0000
0000
0000
0001
0000
0000
0000
1000
0000
0000
0000
,
0001
0000
0101
0000
0001
0001
1000
0100
,
1000
0000
1001
0000
1000
0001
0100
0001
,
0100
0000
1100
0000
1000
0000
0001
1000
,
0001
2010
3200
0310
,
1001
0000
0001
1000
0000
0001
1000
0100
,
0001
0000
0100
0001
0000
1000
0010
1000
,
1000
0000
0100
1000
0000
0001
1000
0100
,
0001
0000
0100
0000
0001
0100
0000
0000
0010
0000
0000
0010
0000
0000
0000
0000
,
0001
0000
1000
0001
0000
0100
0001
0100
,
0010
0000
1000
0010
0000
0001
0001
0100
,
0100
0000
0001
0100
0000
1000
0001
0100
,
1000
0000
0000
0000
0001
0000
0100
0000
0000
0000
0100
0000
0001
0100
0001
0000
,
1000
0000
0000
1000
0000
0000
0001
0000
0100
0000
0001
0000
0100
0000
0000
0000
,
0010
0000
0000
0010
0000
0000
0001
0000
1000
0000
0100
0000
1000
0000
0000
0000
,
0001
0000
0000
0001
0000
0000
1000
0000
0100
0000
1000
0000
0100
0000
0000
0000
,
1000
0000
0000
1000
0000
0000
0001
0000
0100
0000
0001
0000
0100
0000
0000
0000
,
0010
0000
0000
0010
0000
0000
1000
0000
0001
0000
0100
0000
0001
0000
0000
0000
,
0100
0000
0000
0100
0000
0000
0100
0000
0001
0000
0100
0000
0001
0000
0000
0000
,
2000
0000
3020
0000
1030
0001
1000
0000
,
0001
1000
0000
0000
0000
0000
0001
1000
0000
0001
0000
0000
0001
0000
1000
0020
,
0200
0000
0000
0000
,
0330
0000
0000
0000
;

//--------------- dance-single - ----------------
#NOTES:
     dance-single:
     :
     Challenge:
     13:
     0.503,0.495,0.247,0.082,0.302:
0000
0000
0000
0000
,
0000
0000
0000
0000
,
0000
0000
0000
0000
,
0000
0000
0000
0000
,
1000
0000
0001
0000
0100
0000
0001
0000
1000
0100
1000
0000
0001
0000
0000
0000
,
1000
0000
0010
0000
1000
0000
0100
0000
1000
0001
1000
0000
0100
0000
0000
0000
,
0001
0000
0100
0000
0001
0000
1000
0000
0100
1000
0100
0000
0001
0000
1000
0000
,
0001
0000
1000
0000
0100
0100
0010
0000
,
1000
0000
0100
0000
1000
0000
0001
0000
0100
0001
0100
0000
1000
0000
0000
0000
,
1000
0000
0100
0000
1000
0000
0010
0000
0100
0010
0100
0000
0001
0000
0000
0000
,
0001
1000
0001
0000
1000
0100
1000
0000
,
0002
0000
0000
2003
0000
0000
3001
0000
0100
0000
0001
0000
,
1000
0000
0001
0000
0100
0000
0001
0000
1000
0100
1000
0000
0001
0000
0000
0000
,
1000
0000
0010
0000
1000
0000
0001
0000
0100
0001
0100
0000
1000
0000
0000
0000
,
0001
1000
0001
0000
0001
0100
0001
0000
,
1000
0000
0000
0000
2010
0000
0000
0000
3100
1000
0100
0000
0001
1000
0001
0000
,
1000
0000
0000
0001
0000
0000
0100
0000
0000
0001
0000
0000
1000
0000
0001
0000
,
0001
0000
0000
1000
0000
0000
0100
0000
0000
1000
0000
0000
0010
0000
0010
0000
,
1000
0000
0000
0010
0000
0000
1000
0000
0000
0001
0000
0000
0100
0000
0001
0000
,
1000
0000
0001
0000
0100
0001
0000
0000
1000
0000
0010
1000
0000
0000
0000
0000
,
1000
0000
0000
0001
0000
0000
0100
0000
0000
0001
0000
0000
1000
0000
0001
0000
,
1000
0000
0000
0010
0000
0000
1000
0000
0000
0100
0000
0000
1000
0000
1000
0000
,
0001
0000
0000
0100
0000
0000
0001
0000
0000
1000
0000
0000
0010
0000
1000
0000
,
0010
0000
0100
0000
0010
0100
0000
0000
0001
0000
1000
0000
0100
1000
0100
0000
,
1001
0000
1001
0000
0001
0100
0001
0100
,
0101
0000
0000
0000
0101
0000
0000
0000
1000
0000
0000
0001
0000
0000
1000
0000
,
1100
0000
1100
0000
1000
0001
1000
0001
,
1001
0000
0000
0000
1001
0000
0000
0000
0001
0000
0000
1000
0000
0000
0100
0000
,
1100
0000
1100
0000
0001
1000
0001
1000
,
1001
0000
0000
0000
1001
0000
0000
0000
0001
0000
0000
0001
2000
0000
0000
0000
,
3001
0100
0001
1000
0001
1000
0010
1000
,
0010
1000
0000
0000
0010
0000
1000
0010
0000
0000
1000
0000
0001
1000
0001
1000
,
0001
0000
1000
0000
1000
0000
0001
0000
0100
0001
0100
0000
0010
0000
0000
0000
,
0001
0000
1000
0000
0100
0000
1000
0000
0010
1000
0010
0000
0100
0000
0000
0000
,
0001
1000
0001
0000
0001
0100
0001
0000
,
1000
0000
0000
0001
0000
0000
1000
0000
0000
0000
0000
0000
0001
0000
0000
0000
1000
0000
0000
0000
0100
0000
0000
0000
,
1000
0000
0001
0000
1000
0000
0100
0000
1000
0100
1000
0000
0001
0000
0000
0000
,
1000
0000
0001
0000
0100
0000
0001
0000
1000
0001
1000
0000
0001
0000
0000
0000
,
1000
1000
0100
0000
0001
0001
0100
0000
,
1001
0000
0000
0000
2000
0000
0000
0000
3001
0100
0001
0000
1000
0001
1000
0000
,
0001
0000
0000
1000
0000
0000
0100
0000
0000
1000
0000
0000
0010
0000
1000
0000
,
0010
0000
0000
0100
0000
0000
0010
0000
0000
1000
0000
0000
0001
0000
1000
0000
,
0001
0000
0000
0100
0000
0000
0001
0000
0000
1000
0000
0000
0001
0000
1000
0000
,
0001
0000
0100
0000
0001
0010
0000
0000
0001
0000
0100
0001
0000
0000
0000
0000
,
0001
0000
0000
1000
0000
0000
0100
0000
0000
1000
0000
0000
0001
0000
1000
0000
,
0001
0000
0000
1000
0000
0000
0100
0000
0000
1000
0000
0000
0010
0000
1000
0000
,
0010
0000
0000
1000
0000
0000
0001
0000
0000
0100
0000
0000
0001
0000
1000
0000
,
0001
0000
0100
0000
0001
0100
0000
0000
1000
0000
0000
1000
0100
1000
0100
0000
,
1001
0000
1001
0000
0001
1000
0001
0100
,
0101
0000
0000
0000
0101
0000
0000
0000
0001
0000
0000
0100
0000
0000
0001
0000
,
1001
0000
1001
0000
1000
0010
1000
0010
,
1010
0000
0000
0000
1010
0000
0000
0000
1000
0000
0000
0100
0000
0000
1000
0000
,
1100
0000
1100
0000
0001
1000
0001
1000
,
1001
0000
0000
0000
1001
0000
0000
0000
1000
0000
0000
0001
0000
0000
0100
0000
,
0002
1000
0103
0000
2000
0001
3100
0000
,
0001
1000
0000
0000
1001
0000
0001
1000
0000
0001
0000
0000
0001
0000
1000
0002
,
2000
0000
0000
0000
,
3003
0000
0000
0000
;
