#TITLE:Diamond Dust Zone Act 1;
#SUBTITLE:;
#ARTIST:T.Maeda, J. Senoue;
#TITLETRANSLIT:;
#SUBTITLETRANSLIT:;
#ARTISTTRANSLIT:;
#CREDIT:;
#BANNER:;
#BACKGROUND:;
#LYRICSPATH:;
#CDTITLE:;
#MUSIC:Diamond Dust Zone Act 1.ogg;
#OFFSET:-0.178;
#SAMPLESTART:44.001;
#SAMPLELENGTH:14.000;
#SELECTABLE:YES;
#BPMS:0.000=132.800;
#STOPS:;
#BGCHANGES:;

//---------------dance-single - ----------------
#NOTES:
     dance-single:
     :
     Challenge:
     15:
     0.723,0.652,0.162,0.171,0.672:
0000
0000
0000
0000
,
0000
0000
1000
0000
0100
0000
1000
0000
1100
0000
0000
0110
0000
0000
0010
0000
,
0001
0000
0100
0000
0010
0000
0000
1010
0000
0000
1000
0010
1000
0000
0001
0000
,
1000
0100
0010
0000
0001
0000
0100
0000
0010
0000
1000
0000
0002
0000
0000
0000
,
1003
0001
1000
0000
1001
0000
0000
0000
0001
0000
0100
0000
0001
0000
0000
0001
,
0000
0000
0001
0000
0010
0000
0100
0000
1000
0000
0000
1000
0000
0000
0001
0000
,
0100
0000
0001
0000
0100
0000
0000
0100
0000
0000
0100
0010
0000
0000
0010
0000
,
1000
0010
1000
0000
0001
0000
1000
0000
0100
0000
0010
0000
0001
0000
0000
0000
,
0001
1000
0001
0000
1000
0000
0100
0000
0010
0001
0000
0000
0000
0001
0100
0001
,
1000
0000
0100
0000
0001
0000
0100
0000
1000
0000
0001
0010
0000
0001
1000
0001
,
1000
0000
0100
0000
0001
0000
0100
0000
1000
0000
0001
0100
0000
0001
0100
0001
,
0100
0000
0010
0000
1000
0000
0010
0000
1000
0000
0100
0010
0000
0100
0010
0000
,
0001
0000
1000
0000
1001
0000
0010
0000
0100
0000
1000
0010
0000
0100
0001
1000
,
0010
0000
1000
0000
0100
0000
0010
0000
0001
0000
0010
0100
0000
1000
0100
0010
,
0100
0000
1000
0000
0100
0000
0010
0000
0001
0000
0010
0100
0000
1000
0100
0010
,
0001
0000
0001
0000
1000
0000
1000
0000
0010
0000
1000
0001
1000
0010
0100
0000
,
0001
0000
0001
0000
1000
0000
0100
1000
0100
1000
0000
0000
0100
0010
0001
0010
,
0200
0000
0000
0000
0300
0000
1000
0001
1000
0001
0000
0000
0010
0100
0010
0100
,
0010
0100
1000
0100
1000
0000
0001
1000
0001
0100
0000
0000
0001
1000
0001
1000
,
0010
0000
0100
0000
0001
0010
0001
0010
0000
0000
0010
0100
0010
0100
0000
0000
,
1000
1000
2001
0000
0000
0001
0002
0000
,
3000
0000
0000
0000
0003
0000
0100
0000
1000
0000
0100
0000
0001
0000
0000
0100
,
0000
0000
0010
0000
1000
0000
0000
0100
0000
0000
1000
0000
0200
0000
0301
0000
,
0100
0000
0010
0000
0001
0000
0100
0000
0001
0000
0100
0000
0010
0000
0000
0010
,
0000
0000
1000
0000
0100
0010
0100
0010
0001
0010
0100
0000
0110
0000
0000
1100
,
0000
0000
1001
0000
1000
0000
0100
0000
1000
0000
0100
0000
1000
0000
0000
0001
,
0000
0000
1000
0000
0100
0000
0000
0010
0000
0000
0200
0000
0010
0000
0000
0000
,
0301
0000
0010
0000
0100
1000
0100
1000
0001
0010
0001
0010
0100
1000
0100
1000
,
0001
0100
0001
0100
0010
1000
0010
1000
0001
0000
0100
0000
0010
1000
0010
1000
,
0002
0000
0000
0103
0001
0000
0200
0000
,
1300
0000
0100
0000
2000
0000
0000
3001
0100
0001
0100
0000
0001
0000
0000
0001
,
0000
0000
0001
0000
0010
0000
0100
0000
1000
0000
0100
0000
0110
0000
0000
0011
,
0000
0000
1001
0000
0110
0000
0000
0010
0000
0000
0010
0000
0011
0000
0000
0001
,
0000
0000
0001
0000
0200
0000
0000
0310
1000
0010
1000
0000
0100
0000
0010
0000
,
0001
0010
0002
0000
0203
0000
0320
0000
,
2030
0000
0000
0000
3100
0010
0100
0010
0001
0100
0001
0100
0001
1000
0001
1000
,
0001
0100
0001
0100
0001
0000
0001
0000
0010
0000
0010
0000
1000
0000
1000
0000
,
0010
0010
0001
0001
0100
0100
1000
1000
,
0100
0100
0010
0010
1000
1000
0100
0100
,
0010
0000
0010
0000
0001
0100
0001
0000
0010
0000
1000
0001
0100
0001
0100
0001
,
0000
1001
0000
1001
0000
0000
0000
0000
1000
0000
0100
0000
2000
0000
0000
0100
,
0000
0000
3100
0000
0010
0000
0100
0000
0010
0000
0000
0001
0000
0000
0001
0000
,
0100
0000
1000
0000
0100
0000
0000
0100
0000
0000
0100
0010
0000
0000
1000
0000
,
0100
0000
1000
0000
0100
0000
0010
0000
0001
0000
0100
0001
1000
0000
0000
0000
,
0010
1000
0010
0000
2002
0000
0003
0000
3001
0000
1000
0000
0001
0000
0000
0001
,
0000
0000
0100
0000
0010
0000
0100
0000
0010
0000
0000
0010
0000
0000
1000
0000
,
0100
0000
1000
0000
0100
0000
0000
0100
0000
0000
0100
0010
0001
0000
0010
0000
,
0001
0010
0001
0000
0010
0000
0100
0000
1000
0000
0100
0010
0001
0000
0000
0000
,
0001
1000
0001
0000
1000
0000
0010
0000
1000
0000
0010
0100
0000
0100
0001
0100
,
0001
0000
0010
0001
0010
0000
0100
0000
1000
0000
0001
0100
0000
0100
0010
1000
,
0010
0000
0100
0000
0001
0000
0010
0100
0010
0000
0001
0010
0000
0100
1000
0100
,
1000
0000
0100
0000
0010
0000
0001
0000
0100
0000
0010
1000
0010
1000
0010
0000
,
0100
0000
0001
0000
1000
0000
0100
0000
0001
0000
0100
1000
0000
1000
0001
1000
,
0010
0000
0100
0000
0001
0000
0010
0000
0100
0000
1000
0010
0000
0100
0001
0100
,
0001
0000
0001
0000
0010
0000
0100
0010
0001
0000
0010
0100
1000
0100
1000
0000
,
1000
0000
0001
0000
1000
0000
1000
0000
0010
0000
1000
0001
1000
0010
1000
0000
,
0001
0000
0010
0000
0001
0000
1000
0100
1000
0100
0000
0000
0100
1000
0100
1000
,
0100
0000
0010
0000
0001
0000
0010
0001
0010
0001
0000
0000
0001
1000
0001
1000
,
0001
0100
0001
0100
0010
0000
1000
0010
0100
0001
0000
0000
0010
0100
1000
0100
,
0010
0000
0000
0000
0001
0010
0001
0010
0000
0000
0100
1000
0100
0010
0000
0000
,
2002
3003
0000
0000
;

//---------------dance-single - Copied from----------------
#NOTES:
     dance-single:
     Copied from:
     Hard:
     11:
     0.519,0.598,0.126,0.550,0.262:
0000
0000
0000
0000
,
0000
0000
1000
0000
0100
0000
1000
0000
0100
0000
0000
0100
0000
0000
0100
0000
,
0010
0000
0100
0000
0010
0000
0000
0010
0000
0000
0020
0000
0000
0000
0031
0000
,
1000
0001
2000
0000
3002
0000
0023
0000
,
0031
0000
0000
0000
1001
0000
0000
0000
0001
0000
0100
0000
0001
0000
0000
0001
,
0000
0000
0001
0000
0010
0000
0100
0000
1000
0000
0000
1000
0000
0000
0001
0000
,
0100
0000
0001
0000
0100
0000
0000
0100
0000
0000
0200
0000
0000
0000
0310
0000
,
1000
0010
2000
0000
3002
0000
0203
0000
,
0310
2001
0000
0000
,
3001
0000
0000
0002
0000
0000
0000
0000
0000
0000
0000
0000
0000
0000
0103
0000
,
0010
0000
1000
0000
0001
0000
0000
0020
0000
0000
0000
0000
0000
0000
0000
0000
,
0230
2000
3000
0020
,
0330
1002
0000
0000
,
1000
0000
0000
2000
0000
0000
0000
0000
0000
0000
0003
0000
3000
0000
0010
0000
,
0100
0000
0001
0000
1000
0000
0000
1000
0000
0000
2000
0000
0000
0000
3100
0000
,
0010
0001
2000
0000
3020
0000
0230
0000
,
0302
0000
0000
0000
1003
0000
0100
1000
0100
1000
0000
0000
0100
1000
0100
1000
,
0200
0000
0000
0000
0300
0000
0010
0001
0010
0001
0000
0000
0010
0001
0010
0001
,
0010
0000
0010
0000
0100
0000
1000
0001
1000
0001
0000
0000
0001
1000
0001
1000
,
0000
0000
0100
0000
0010
0000
0000
0001
0000
0000
0010
0000
0000
0100
0000
0000
,
1000
1000
2001
0000
0000
0001
0002
0000
,
3000
0000
0000
0000
0003
0000
0100
0000
1000
0000
0100
0000
0001
0000
0000
0100
,
0000
0000
0010
0000
1000
0000
0000
0100
0000
0000
2000
0000
0000
0000
3001
0000
,
0010
0000
1000
0000
0010
0000
0100
0000
1000
0000
0100
0000
0010
0000
0000
0001
,
0000
0000
1000
0000
0100
0000
0000
0100
0000
0000
0100
0000
0010
0000
0000
0010
,
0000
0000
0010
0000
0000
0000
0001
0000
1000
0000
0001
0000
1000
0000
0000
1000
,
0000
0000
1000
0000
0100
0000
0000
0100
0000
0000
0200
0000
0000
0000
0000
0000
,
0310
0001
0010
0001
0010
0100
1000
0001
,
1000
0010
1000
2000
0000
0100
3200
0000
,
0000
0000
0000
0001
0301
0000
0200
0000
,
1300
0000
0100
0000
2000
0000
0000
0000
0000
0000
0010
0000
0000
0000
0000
0001
,
0000
3001
0010
0100
1000
0000
0100
0000
,
0010
0000
0100
0000
0110
0000
0000
0010
0000
0000
0010
0000
0011
0000
0000
0001
,
0000
0001
2002
0000
3003
0000
0220
0000
,
0330
0002
0203
0320
,
2030
0000
3100
0010
0100
0010
0001
0100
,
0001
0100
0001
1000
0001
1000
0010
1000
,
0010
1000
0100
0010
0100
0010
0001
0100
,
1000
0100
0001
0010
1000
0010
0001
0100
,
0010
1000
0001
0100
0010
0100
0001
0100
,
0000
1001
0000
1001
0000
0000
0000
0000
1000
0000
0100
0000
2000
0000
0000
0100
,
0000
0000
3100
0000
0010
0000
0100
0000
0010
0000
0000
0001
0000
0000
0001
0000
,
0100
0000
1000
0000
0100
0000
0000
0100
0000
0000
0100
0000
0000
0000
0001
0000
,
0100
1000
0200
0000
0302
0000
0023
0000
,
0130
0000
0000
0000
0110
0000
0000
0000
0001
0000
1000
0000
0001
0000
0000
0001
,
0000
0000
0100
0000
0010
0000
0100
0000
0010
0000
0000
0010
0000
0000
1000
0000
,
0100
0000
1000
0000
0100
0000
0000
0100
0000
0000
0100
0000
0000
0000
0010
0000
,
0001
0010
0002
0000
0203
0000
2300
0000
,
3100
2001
0000
0000
,
0001
0000
0000
0002
0000
0000
0000
0000
0000
0000
3000
0000
0000
0000
0103
0000
,
1000
0000
0100
0000
0002
0000
0000
2000
0000
0000
0000
0000
0003
0000
0000
0000
,
0100
0200
0300
0020
,
3030
2001
0000
0000
,
3020
0000
0032
0000
0000
0000
0000
0013
,
1000
0000
0001
0000
1000
0000
0000
0001
0000
0000
0010
0000
0000
0000
0100
0000
,
1000
0001
2000
0000
3020
0000
0230
0000
,
0302
0000
0000
0000
0003
0000
1000
0100
1000
0100
0000
0000
0100
1000
0100
1000
,
0200
0000
0000
0000
0300
0000
0010
0001
0010
0001
0000
0000
0001
1000
0001
1000
,
0001
0000
0001
0000
0100
0000
0010
1000
0010
1000
0000
0000
0010
1000
0010
1000
,
0001
0000
0000
0000
0001
0000
0000
1000
0000
0000
0001
0000
0000
1000
0000
0000
,
2002
3003
0000
0000
;

//---------------dance-single - ----------------
#NOTES:
     dance-single:
     :
     Medium:
     7:
     0.367,0.380,0.090,0.505,0.153:
0000
0000
0000
0000
,
1000
0000
0000
0000
0100
0000
0000
0000
0010
0000
0000
0010
0000
0000
0000
0000
,
0001
0000
0000
0000
0100
0000
0000
0100
0000
0000
0100
0000
0000
0000
0000
0000
,
0010
2000
3002
0023
,
0031
0000
0000
0000
1001
0000
0000
0000
1000
0000
0000
0000
0100
0000
0000
0100
,
0000
0000
0000
0000
0010
0000
0000
0000
0001
0000
0000
0001
0000
0000
0000
0000
,
1000
0000
0000
0000
0100
0000
0000
0100
0000
0000
0100
0000
0000
0000
0000
0000
,
0010
0002
0023
0230
,
1300
2001
0000
0000
,
3001
0000
0000
0002
0000
0000
0000
0000
0000
0000
0000
0000
0000
0000
0003
0000
,
0010
0000
0000
0000
0001
0000
0000
0020
0000
0000
0000
0000
0000
0000
0000
0000
,
0230
0010
0000
0010
,
0300
1002
0000
0000
,
1000
0000
0000
2000
0000
0000
0000
0000
0000
0000
0003
0000
3000
0000
0000
0000
,
0100
0000
0000
0000
1000
0000
0000
1000
0000
0000
2000
0000
0000
0000
3000
0000
,
0010
2000
3020
0230
,
0302
1003
1000
0200
,
0300
0010
0001
0200
,
0300
0010
1000
0002
,
0003
0000
1100
0000
0000
1001
0000
0000
,
0001
1000
0200
0000
0000
0010
0320
0000
,
0000
0000
0000
0000
0000
0000
0030
0000
0001
0000
0000
0000
0001
0000
0000
0001
,
0000
0000
0001
0000
1000
0000
0000
1000
0000
0000
2000
0000
0000
0000
3000
0000
,
0010
0000
0000
0000
0010
0000
0000
0000
0100
0000
0001
0000
0100
0000
0000
0010
,
0000
0000
1000
0000
0010
0000
0000
0100
0000
0000
0001
0000
0010
0000
0000
0100
,
0000
0000
0010
0000
0000
0000
0001
0000
0010
0000
0000
0000
0100
0000
0000
1000
,
0000
0000
0100
0000
0010
0000
0000
0001
0000
0000
0200
0000
0000
0000
0000
0000
,
0310
2000
0000
0000
0000
0000
3100
0000
,
0010
0000
0120
0000
0000
0100
0230
0000
,
0000
0000
0000
1000
2300
0000
0000
0000
,
0000
0000
3100
0000
2000
0000
0000
0000
0000
0000
0010
0000
0000
0000
0000
0001
,
0000
3001
0010
0000
0100
0000
1000
0000
,
0100
0020
0000
0032
,
0000
2003
0000
3020
,
0000
0230
0302
0023
,
0230
0000
1300
0001
1000
0000
0100
0010
,
0100
0010
0001
0010
,
0100
0000
0000
1000
0000
0000
0000
0000
1000
0000
0000
0000
1000
0000
0000
0000
,
0001
0100
0001
0010
,
0100
0000
0000
1000
0000
0000
0000
0000
0000
0000
0000
0000
0001
0000
0000
1000
,
0000
0001
0000
0001
0000
0000
0000
0000
1000
0000
0000
0000
1000
0000
0000
0100
,
0000
0000
0100
0000
0010
0000
0000
0000
0001
0000
0000
0001
0000
0000
0001
0000
,
0010
0000
0000
0000
0100
0000
0000
0100
0000
0000
0100
0000
0000
0000
0000
0000
,
1000
0200
0320
0032
,
0103
0000
0000
0000
0110
0000
0000
0000
0001
0000
0000
0000
0001
0000
0000
0001
,
0000
0000
0100
0000
0010
0000
0000
0000
0010
0000
0000
0010
0000
0000
1000
0000
,
0100
0000
0000
0000
0100
0000
0000
0100
0000
0000
0100
0000
0000
0000
0000
0000
,
0001
0002
0023
0032
,
0103
2001
0000
0000
,
0001
0000
0000
0002
0000
0000
0000
0000
0000
0000
3000
0000
0000
0000
0003
0000
,
0010
0000
0000
0000
0002
0000
0000
2000
0000
0000
0000
0000
0003
0000
0000
0000
,
0100
0100
0000
0010
,
3000
2001
0000
0000
,
3020
0230
0000
0000
,
1300
0000
0000
0000
1000
0000
0000
0001
0000
0000
0010
0000
0000
0000
0000
0000
,
0001
2000
3020
0230
,
0302
0000
0103
1000
0100
0000
0100
0000
,
0010
0000
0001
0010
0001
0000
1000
0000
,
0001
0000
0000
0000
0100
0000
0010
0000
0001
0000
0000
0000
0100
0000
0000
0100
,
0000
0000
0000
0000
0001
0000
0000
1000
0000
0000
0001
0000
0000
1000
0000
0000
,
2002
3003
0000
0000
;

//---------------dance-single - ----------------
#NOTES:
     dance-single:
     :
     Easy:
     5:
     0.229,0.329,0.054,0.370,0.009:
0000
0000
0000
0000
,
0000
0000
0000
0000
,
0000
0000
2000
0000
0000
3010
0000
0000
,
0000
0002
0203
0320
,
1030
1001
0000
1000
,
0000
0100
0010
0000
,
0001
0000
2000
0000
0000
3001
0000
0000
,
0001
0200
0320
2030
,
3002
2003
0000
0000
,
0002
0000
3000
0000
,
0100
0203
0000
0000
,
0010
0320
0000
2000
,
0030
0002
0000
3000
,
0200
0000
0003
0000
,
0010
0320
0000
0000
,
0000
2030
3002
0203
,
0301
1001
0000
0000
,
1000
0000
0000
0000
,
0100
0000
0000
0000
,
0000
0000
0010
0000
0000
0001
0000
0000
,
1002
1003
0000
0100
,
0000
0000
0010
0001
,
0000
0000
1000
0000
0000
0001
0000
0000
,
0000
0100
0000
0010
,
0000
0000
1000
0000
0000
0100
0000
0000
,
0000
0000
0010
0001
,
0000
0000
1000
0000
0000
0100
0000
0000
,
0001
0000
0000
0001
,
1000
0200
0000
0000
,
0000
0000
0000
0320
,
0000
0032
0000
0203
,
0000
0000
0000
0000
0000
0000
0000
0000
0000
0000
0000
0000
0000
0000
0000
0000
0000
0000
0000
0000
0000
0000
0000
0000
0000
0000
0000
0000
0000
0000
0000
0000
0000
0000
0000
0000
0000
0000
0000
0000
0000
0000
0000
0000
0000
0000
0000
0000
0320
0000
0000
0000
0000
0000
0000
0000
0000
0000
0000
0000
0000
0000
0000
0000
0000
0000
0000
0000
0000
0000
0000
0000
0000
0000
0000
0000
0000
0000
0000
0000
0000
0000
0000
0000
0000
0000
0000
0000
0000
0000
0000
0000
0000
0000
0000
0000
0000
0000
0000
0000
0000
0000
0000
0000
0000
0000
0000
0000
0000
0000
0000
0000
0000
0000
0000
0000
0000
0000
0000
0000
0000
0030
0000
0000
0000
0000
0000
0000
0000
0000
0000
0000
0000
0000
0000
0000
0000
0000
0000
0000
0000
0000
0000
0000
1000
0000
0000
0000
0000
0000
0000
0000
0000
0000
0000
0000
0000
0000
0000
0000
0000
0000
0000
0000
0000
0000
0000
0000
0000
0000
0000
0000
0000
0000
0000
0000
0000
0000
0000
0000
0000
0000
0000
0000
0000
0000
0000
0000
0000
0000
0000
0000
,
0001
0200
0000
0320
,
0000
2030
0000
3002
,
0000
0103
0010
1000
,
0001
1000
0000
0001
,
0000
2001
0000
0001
,
0000
0100
0000
0010
,
0000
0001
0000
0100
,
0000
0010
0000
3001
,
0000
0010
0000
0100
0000
0000
0000
0000
1000
0000
0000
0000
0100
0000
0000
0000
,
0000
0010
0001
0100
,
0000
0010
1000
0100
,
0000
0010
0001
0100
,
0001
1001
0000
0100
,
0000
0010
0000
0001
,
0000
1000
0100
0001
,
0000
0001
0100
1000
,
0010
2000
0000
0000
,
3002
0000
0000
0000
,
0100
0203
0000
0000
,
0010
0320
0000
2030
,
0000
3002
0000
0000
,
0203
0000
0000
0000
,
0010
0320
0000
0000
,
0000
1030
0100
0010
,
0001
1000
0001
0000
,
0100
0000
0010
0000
,
1000
0000
0001
0000
,
1000
0000
0001
0000
0000
0001
0000
0000
,
0220
0000
0000
0330
;

//---------------dance-single - Copied from----------------
#NOTES:
     dance-single:
     Copied from:
     Beginner:
     3:
     0.149,0.191,0.036,0.054,0.000: // measure 1
0000
0000
0000
0000
,  // measure 2
0000
0000
0000
0000
,  // measure 3
0000
1000
0000
0000
,  // measure 4
0000
0100
0000
0010
,  // measure 5
0000
1001
0000
0100
,  // measure 6
0000
0010
0000
1000
,  // measure 7
0000
0001
0000
0100
,  // measure 8
0000
0010
0000
1000
,  // measure 9
0000
0002
0000
0000
,  // measure 10
0000
0000
0000
0003
,  // measure 11
2000
0000
0000
0000
,  // measure 12
0000
0000
0000
3000
,  // measure 13
0000
0200
0000
0000
,  // measure 14
0000
0000
0000
0300
,  // measure 15
0000
0020
0000
0000
,  // measure 16
0000
0000
0000
0000
,  // measure 17
0030
0001
0000
1000
,  // measure 18
0000
0100
0000
0010
,  // measure 19
0000
0001
0000
0100
,  // measure 20
0000
0010
0000
0000
,  // measure 21
1001
0001
0000
0000
,  // measure 22
0000
0000
1000
1000
,  // measure 23
0000
0100
0000
0010
,  // measure 24
0000
0001
0000
1000
,  // measure 25
1000
1000
0000
0100
,  // measure 26
0000
0000
0000
0010
,  // measure 27
0000
0001
0000
0000
,  // measure 28
1000
0000
0000
0100
,  // measure 29
0100
0100
0000
0010
,  // measure 30
0000
0000
0000
0001
,  // measure 31
0000
1000
0000
0100
,  // measure 32
0000
0010
0000
0001
,  // measure 33
0000
1000
0000
0100
,  // measure 34
0000
0010
0000
0001
,  // measure 35
0000
0100
0100
0100
,  // measure 36
0100
0010
0000
0010
,  // measure 37
0000
1001
0000
1000
,  // measure 38
0000
0100
0000
0010
,  // measure 39
0000
0001
0000
0100
,  // measure 40
0000
0010
0000
1000
,  // measure 41
0000
0000
0001
0000
,  // measure 42
1000
0000
0100
0000
,  // measure 43
0010
0000
0001
0000
,  // measure 44
0100
0100
0100
0100
,  // measure 45
0100
0100
0000
0010
,  // measure 46
0000
1000
1000
0000
,  // measure 47
0001
0000
0100
0000
,  // measure 48
0010
0010
0010
0010
,  // measure 49
0010
0010
0000
0000
,  // measure 50
1000
0000
0000
0000
,  // measure 51
0100
0100
0000
0000
,  // measure 52
0010
0010
0000
0001
,  // measure 53
0000
0100
0000
0000
,  // measure 54
0010
0000
0000
0000
,  // measure 55
1000
1000
0000
0000
,  // measure 56
0001
0001
0000
1000
,  // measure 57
0000
0001
0000
0100
,  // measure 58
0000
0010
0000
1000
,  // measure 59
0000
0001
0000
0100
,  // measure 60
0000
0010
0000
0000
,  // measure 61
2002
0000
3003
0000
;
