#TITLE:Cruel Summer;
#SUBTITLE:;
#ARTIST:Ace of Base;
#TITLETRANSLIT:;
#SUBTITLETRANSLIT:;
#ARTISTTRANSLIT:;
#GENRE:Pop;
#CREDIT:L33tAliceIp;
#MUSIC:Cruel Summer.ogg;
#BANNER:Cruel Summer-jacket.png;
#BACKGROUND:;
#CDTITLE:;
#SAMPLESTART:51.755;
#SAMPLELENGTH:16.160;
#SELECTABLE:YES;
#OFFSET:-0.260;
#BPMS:0.000=109.914
,128.000=117.157
,129.000=109.799
,144.000=110.005
;
#STOPS:;
#BGCHANGES:16.000=seaweed1.avi=1.200=1=0=1===CrossFade==,
24.000=kaliedoscope4.avi=1.200=0=0=1,
32.000=ring12.avi=0.900=0=0=1,
40.000=bluey1.avi=1.400=0=0=1,
48.000=ring12.avi=0.900=0=0=1,
56.000=bluey1.avi=1.400=0=0=1,
64.000=ring8.avi=1.200=0=0=1,
80.000=ring12.avi=0.900=0=0=1,
88.000=lady2.avi=0.800=0=0=1,
96.000=spiral2.avi=1.000=0=0=1,
104.000=bluey1.avi=1.400=0=0=1,
112.000=spiral2.avi=1.000=0=0=1,
120.000=bluey1.avi=1.400=0=0=1,
128.000=fireworks2.avi=0.900=0=0=1,
136.000=fireworks1.avi=1.000=0=0=1,
144.000=face2.avi=0.900=0=0=1,
152.000=face1.avi=1.000=0=0=1,
160.000=spiral2.avi=1.000=0=0=1,
168.000=bluey1.avi=1.400=0=0=1,
176.000=spiral2.avi=1.000=0=0=1,
184.000=bluey1.avi=1.400=0=0=1,
192.000=Cruel Summer-jacket.png=1.000=0=0=1,
99999.000=-nosongbg-=1.000=0=0=0=StretchNoLoop====
;
#FGCHANGES:;

//--------------- dance-single - ----------------
#NOTES:
     dance-single:
     :
     Beginner:
     2:
     0.094,0.134,0.093,0,0:
0000
0000
0000
0000
,
0000
0000
0000
0000
,
1000
0000
0000
0000
,
1000
0000
0000
0000
,
0001
0000
0000
0000
,
0001
0000
0000
0000
,
1000
0000
0000
0000
,
1001
0000
0000
0000
,
0001
0000
0000
0000
,
1000
0000
0000
0000
,
0010
0000
0000
0000
,
0100
0000
0000
0000
,
1001
0000
0000
0000
,
0001
0000
0000
0000
,
0100
0000
0000
0000
,
0100
0000
0000
0000
,
0110
0000
0000
0000
,
1000
0000
0000
0000
,
0001
0000
0001
0000
,
0001
0000
0000
0000
,
1001
0000
0000
0000
,
1000
0000
0000
0000
,
0100
0000
0100
0000
,
0100
0000
0000
0000
,
1001
0000
0000
0000
,
0100
0000
0100
0000
,
0100
0000
0000
0000
,
1000
0000
0000
0000
,
1001
0000
0000
0000
,
0001
0000
0001
0000
,
0001
0000
0000
0000
,
0100
0000
0000
0000
,
1000
0000
1000
0000
,
0001
0000
0001
0000
,
1000
0000
1000
0000
,
0001
0000
0001
0000
,
1001
0000
0000
0000
,
0100
0000
0100
0000
,
0100
0000
0000
0000
,
0001
0000
0001
0000
,
1001
0000
0000
0000
,
0010
0000
0010
0000
,
0010
0000
0000
0000
,
1000
0000
0001
0000
,
1001
0000
0000
0000
,
0001
0000
1000
0000
,
0100
0000
0000
0000
,
1000
0000
0001
0000
,
1001
0000
0000
0000
;

//--------------- dance-single - ----------------
#NOTES:
     dance-single:
     :
     Easy:
     5:
     0.159,0.179,0.102,0,0:
0000
0000
0000
0000
,
0000
0000
0000
0000
,
0001
0000
0001
0000
,
1000
0000
1000
0000
,
0001
0000
1000
0000
,
0001
0000
1000
0000
,
0001
0000
0100
0000
,
0001
0000
0100
0000
,
1001
0000
1000
0000
,
0001
0000
0001
0000
,
1000
1000
1000
0000
,
0001
0001
0001
0000
,
1001
0000
0100
0000
,
0001
0000
0100
0000
,
1000
1000
1000
0000
,
0001
0001
0001
0000
,
1001
0000
1000
0000
,
0001
0000
0100
0000
,
0001
0001
0001
0000
,
0100
0100
0100
0000
,
1001
0000
0100
0000
,
0010
0000
0100
0000
,
1000
1000
1000
0000
,
0001
0001
0001
0000
,
1001
0000
0010
0000
,
0100
0000
0010
0000
,
1000
1000
0000
0000
,
0001
0001
0000
0000
,
1001
0000
0100
0000
,
1000
1000
1000
0000
,
0001
0000
0100
0000
,
0010
0010
0010
0000
,
1001
0000
1000
0000
,
0001
0000
0001
0000
,
1000
1000
1000
0000
,
0001
0001
0001
0000
,
1001
0000
1000
0000
,
0001
0000
0100
0000
,
1000
0000
0001
0000
,
1000
0000
0001
0000
,
1001
0000
0000
0000
,
0100
0100
0100
0000
,
0010
0010
0010
0000
,
0001
0001
0001
0000
,
1001
0000
0100
0000
,
1000
1000
1000
0000
,
0001
0000
1000
0000
,
0001
0001
0001
0000
,
1001
0000
0000
0000
;

//--------------- dance-single - ----------------
#NOTES:
     dance-single:
     :
     Medium:
     8:
     0.328,0.317,0.112,0.205,0.023:
0000
0000
0000
0000
,
0000
0000
0000
0000
,
1000
0001
0100
0100
,
0001
1000
0100
0100
,
1001
1000
0001
1000
,
0100
0001
0100
0000
0010
0100
0010
0000
,
1000
0001
0001
1000
,
2000
3002
0203
0310
,
1001
0000
1000
0000
0001
1000
0001
0000
,
1000
0000
0100
0000
1000
0010
1000
0000
,
0001
1000
0001
0000
0001
0100
0001
0000
,
0010
1000
0010
0000
1000
0001
1000
0000
,
1001
0000
0001
0000
1000
1000
0001
0000
,
0100
0100
0010
0010
,
1000
0100
1000
0000
1000
0001
1000
0000
,
1000
0010
1000
0000
1000
0001
1000
0000
,
1001
1000
0001
0100
,
0001
0000
0010
0000
1000
0001
1000
0001
,
1000
0000
1100
0000
1000
0001
1000
0000
,
1000
0000
0100
0000
1000
0010
1000
0000
,
1000
0000
1000
0000
0100
0010
0100
0000
,
0010
1000
0010
0000
0010
0100
0010
0000
,
2000
0000
3002
0000
,
2003
0000
0000
0000
3002
0000
0000
0003
,
1001
0000
0000
0000
0001
0001
0001
0000
,
1000
0000
0100
0000
1000
0010
1000
0000
,
1000
0000
0001
0000
1000
0001
1000
0000
,
0100
0100
0010
1000
,
1001
0000
0000
0000
0001
1000
0001
0000
,
1000
0100
0001
0100
,
1000
0000
1000
0000
0010
0010
0010
0000
,
1000
0001
1000
0000
1000
0000
0001
0000
,
1001
1000
0100
0001
,
0100
1000
0100
0001
,
1000
0000
0000
1000
0000
0000
1000
0000
0001
0000
0000
0001
0000
0000
0001
0000
,
1000
0000
0000
1000
0000
0000
1000
0000
0001
0000
0000
0001
0000
0000
0001
0000
,
1001
0000
0100
0000
0010
0010
0010
0000
,
1000
0000
1000
0000
0001
0100
0010
0000
,
1000
1000
0001
0001
,
2000
0000
0000
0002
0000
0000
0000
3003
,
1001
0000
1000
0000
0001
1000
0001
0000
,
2000
3200
2300
3001
,
1000
0000
0001
0000
1000
1000
0001
0000
,
0002
0203
0302
0013
,
1001
0000
1000
0000
0001
0001
0001
0000
,
2000
3200
2300
3001
,
1000
0000
0001
0000
1000
0100
1000
0000
,
2000
0000
0000
0000
3200
0000
0000
0000
1300
0000
0000
0001
0000
0000
2002
0000
,
0000
0000
0000
3003
;

//--------------- dance-single - ----------------
#NOTES:
     dance-single:
     :
     Hard:
     10:
     0.433,0.408,0.279,0.167,0.135:
0000
0000
0000
0000
,
0000
0000
0000
0000
,
1000
0000
0001
0000
1000
0001
1000
0000
,
0100
0010
0100
0000
1000
0010
1000
0000
,
1001
0000
0001
0000
1000
0010
1000
0000
,
1000
0100
1000
0000
1000
0100
0010
0000
,
0011
0000
0010
0000
1000
0001
1000
0001
,
2000
0000
0000
0000
0000
0000
0000
0000
3002
0000
0000
0000
0000
0000
0000
0003
,
1001
0000
0100
0000
1000
0001
1000
0000
,
1000
0010
1000
0000
1000
0100
1000
0000
,
0001
1000
0001
1000
0001
0100
0001
0100
,
0001
0010
0001
0010
0100
0010
0100
0000
,
1001
0000
0100
0000
1000
1000
1000
0000
,
0001
1000
0100
0000
1000
0100
1000
0000
,
1000
0001
1000
0001
1000
0100
1000
0100
,
1000
0010
1000
0010
1000
0001
1000
0000
,
1001
0000
1000
0000
0001
0001
0001
2000
,
0000
3200
0000
0320
0000
0001
0031
1000
,
1001
0000
1001
0000
1000
0001
1000
0000
,
1000
0100
1000
0000
1000
0010
1000
0000
,
1001
0000
1000
0000
0001
1000
0001
0000
,
0100
0100
0010
0000
0001
0001
0100
0010
,
1000
0000
0000
0001
0000
0000
1000
0000
1000
0000
0000
0100
0000
0000
0001
0000
,
0200
0000
0000
0000
0310
1000
0001
1000
,
1001
0000
1000
0000
0100
1000
0001
0000
,
1001
0000
0000
1000
0100
0000
0000
1000
0001
0000
0000
1000
0010
0000
0000
0000
,
1001
0000
0000
0001
0000
0000
0001
0000
0000
0000
1000
0000
0000
1000
0000
0000
,
1000
0000
0001
0000
1000
0000
0001
0000
1000
0000
1100
0000
0000
1010
0000
0000
,
1001
0001
1000
0001
0000
1000
0000
0001
,
1001
0000
0000
0001
0010
0000
0000
0010
0100
0000
0000
0100
1000
0000
0000
0000
,
1020
0000
0000
1000
0000
0000
1030
0000
0000
0000
0100
0000
0000
0100
0000
0000
,
0001
0000
1000
0000
0001
0000
1000
0000
0000
0000
0011
0000
0000
1100
0000
0000
,
1001
1000
0100
1000
0100
0010
1000
0010
,
1000
0001
1000
0001
1000
0001
0100
0001
,
0200
0000
0000
0010
0000
0000
0310
0000
0020
0000
0000
1000
0000
0000
1030
0000
,
2000
0000
0000
0001
0000
0000
3001
0000
0002
0000
0000
0100
0000
0000
0103
0000
,
1001
0000
0001
0000
1000
0000
0001
0000
0100
0000
0000
0100
0000
0000
0010
0000
,
0100
0000
0010
0000
0100
0000
0001
0000
0200
0000
0000
0020
0000
0000
0330
0000
,
1001
0000
0000
0000
1001
0000
0000
0000
1001
0000
0000
0100
0000
0000
1000
0000
,
0001
0000
0000
0001
1000
0001
1000
0001
,
1001
0000
0100
0000
1000
1000
1000
0000
,
1001
0000
0000
0010
0001
0000
0000
0001
0100
0000
0000
0100
0010
0000
0000
0000
,
1000
0001
1000
0001
1000
0100
1000
0000
,
2000
0000
0000
0000
3200
0000
0000
0000
1300
0000
0000
0010
0000
0000
1000
0000
,
1001
0001
1000
0001
1000
0100
1000
0000
,
1001
0000
0000
1000
0100
0000
0000
1000
0010
0000
0000
0100
0010
0000
0000
0000
,
0001
1000
0001
1000
0100
1000
0001
1000
,
0002
0000
0000
0000
0103
0000
0000
0000
1010
0000
0000
1100
0000
0000
2002
0000
,
0000
0000
0000
3003
;

//--------------- dance-single - ----------------
#NOTES:
     dance-single:
     :
     Challenge:
     13:
     0.519,0.545,0.344,0.139,0.274:
0000
0000
0000
0000
,
0000
0000
0000
0000
,
1000
0000
0001
0100
0001
0100
0000
0000
0010
0000
0000
0010
0000
0000
0010
0000
,
1000
0000
1000
0010
0000
0010
1000
0000
1000
0000
0001
1000
0000
1000
0001
0000
,
1001
0000
0001
1000
0001
1000
0000
0000
0010
0000
0000
0010
0000
0000
0010
0000
,
0001
0000
1000
0100
0000
0100
1000
0000
0010
0000
1000
0010
0000
0010
0100
0000
,
1000
0000
0001
1000
0001
1000
0000
0000
0010
0000
0000
0010
0000
0000
0010
0000
,
1000
0000
0010
0100
0000
0010
0100
0000
0001
0000
0010
1000
0000
0010
1000
0000
,
1001
1000
0100
0000
0001
1000
0100
0000
,
1000
0100
1000
0010
1000
0001
0100
0000
,
1000
0001
1000
0100
1000
0001
0100
1000
,
0001
1000
0200
0010
0010
0010
0310
0100
,
1001
0000
0100
0000
1000
0001
1000
0000
,
1000
0100
1000
0001
1000
0010
1000
0000
,
1000
0100
1000
0100
1000
0010
0001
1000
,
0100
1000
0020
0100
0100
0100
0130
0010
,
1001
0000
1100
0000
1000
0001
1000
0002
,
0000
1003
0001
1000
0000
1000
1000
0010
,
1010
0010
0101
0000
0110
0110
1000
0000
,
0001
1000
0100
1000
0001
1000
0100
0000
,
1010
1000
0100
0000
0010
0001
0100
0000
,
0010
1000
0100
1000
0010
0001
0001
0100
,
0010
0000
1000
0010
0000
0010
1000
0000
1000
0000
1000
0001
0000
0001
1000
0000
,
1000
0000
1000
0100
0000
0100
1000
0000
1000
0000
1001
0000
1001
0000
1001
0000
,
1001
0000
0000
1000
0100
0000
1000
0000
0001
0000
1000
0000
0001
0000
0000
0000
,
1001
0000
0000
0100
1000
0000
0000
1000
0001
0000
0000
1000
0010
0000
0000
0000
,
1001
0000
0000
1001
0000
0000
1001
0000
1000
0000
0100
0000
1000
0000
0001
0000
,
1000
0000
0010
0000
1000
0000
0010
0000
0000
0000
0110
0000
0000
0110
0000
0000
,
0110
0000
1000
0001
1000
0001
1000
0000
,
1010
0000
0000
1000
0100
0000
0000
0100
1000
0000
0000
1000
0100
0000
0000
0000
,
1001
0000
0000
1001
0000
0000
1001
0000
0000
0000
1000
0000
0000
1000
0000
0000
,
0001
1000
0100
1000
0001
1001
1001
1000
,
0001
1000
0001
1000
0010
1000
0010
1000
,
0100
0010
0001
0010
0100
1000
0100
0010
,
0001
0000
1000
0100
0000
0100
0010
0000
0001
0000
0010
0100
0000
0100
1000
0000
,
0100
0000
0010
0001
0000
0010
0100
0000
1000
0000
0100
0010
0000
0001
0010
0000
,
1100
0000
1000
0000
0001
0000
0000
0000
1000
0000
0000
0001
0000
0000
0100
0000
,
0010
0000
0100
0000
0010
0000
1000
0000
2000
0000
0000
0002
0000
0000
3003
0000
,
1001
0000
0000
0000
1001
0000
0000
0000
1000
0000
0000
0010
0000
0000
1001
0000
,
1001
0000
1000
0001
1000
0110
0110
0011
,
1001
0000
0000
0001
1000
0000
0001
0000
0100
0000
0010
0000
0100
0010
0000
0000
,
1000
0000
0000
0100
0010
0000
0000
0001
0100
0000
0000
0100
0010
0000
0000
0000
,
1000
0001
1000
0100
1000
0001
0010
0100
,
0002
0000
0000
0000
0203
0000
0000
0000
0320
0000
0000
1000
0000
0000
1030
0000
,
1001
0000
0001
0000
1000
0000
0100
0000
1000
0000
1000
0000
0001
1000
0000
0000
,
0200
0000
0000
0000
0320
0000
0000
0000
0230
0000
0000
0010
0000
0000
0310
0000
,
1000
0001
1000
0100
1000
0010
0100
0001
,
2000
0000
0000
0000
3002
0000
0000
0000
0103
0000
0010
1000
0000
2000
0001
0000
,
0002
0000
0000
0000
0000
0000
0000
3003
;
