#TITLE:Can't Help Falling in Love;
#SUBTITLE:;
#ARTIST:UB40;
#TITLETRANSLIT:;
#SUBTITLETRANSLIT:;
#ARTISTTRANSLIT:;
#GENRE:;
#CREDIT:;
#MUSIC:Can't Help Falling in Love.ogg;
#BANNER:bn.png;
#BACKGROUND:bg.png;
#CDTITLE:;
#SAMPLESTART:13.960;
#SAMPLELENGTH:15.000;
#SELECTABLE:YES;
#OFFSET:-0.093;
#BPMS:0.000=86.172;
#STOPS:;
#BGCHANGES:12.000=fireworks2.avi=1.000=1=0=1===CrossFade==,
20.000=room1.avi=1.000=0=0=1,
36.000=fish1.avi=1.000=0=0=1,
48.000=tropical1.avi=1.000=0=0=1,
52.000=room1.avi=1.000=0=0=1,
68.000=fish1.avi=1.000=0=0=1,
80.000=tropical2.avi=1.000=0=0=1,
84.000=spark1.avi=1.000=0=0=1,
88.000=text17.avi=1.000=0=0=1,
92.000=dance10.avi=1.000=0=0=1,
96.000=sea1.avi=1.000=0=0=1,
104.000=room1.avi=1.000=0=0=1,
120.000=fish1.avi=1.000=0=0=1,
132.000=tropical1.avi=1.000=0=0=1,
136.000=fish1.avi=1.000=0=0=1,
148.000=tropical2.avi=1.000=0=0=1,
152.000=fireworks2.avi=1.000=0=0=1,
156.000=dance10.avi=1.000=0=0=1,
164.000=Can't Help Falling in Love-jacket.png=1.000=1=0=1===CrossFade==,
99999.000=-nosongbg-=1.000=0=0=0=StretchNoLoop====
;
#FGCHANGES:;

//--------------- dance-single - ----------------
#NOTES:
     dance-single:
     :
     Beginner:
     1:
     0.102,0.138,0.033,0,0:
0000
0000
0000
0000
,
0000
0000
0000
0000
,
1000
0000
0000
0000
,
1000
0000
1000
0000
,
0001
0000
0001
0000
,
1001
0000
0100
0000
,
0001
0000
0000
0000
,
1000
0000
1000
0000
,
0001
0000
0000
0000
,
0100
0000
0100
0000
,
0010
0000
0010
0000
,
1000
0000
1000
0000
,
0001
0000
0001
0000
,
1001
0000
1000
0000
,
0001
0000
0000
0000
,
0100
0000
0001
0000
,
1000
0000
0000
0000
,
1000
0000
1000
0000
,
0001
0000
0001
0000
,
0100
0000
0100
0000
,
0001
0000
0001
0000
,
1000
0000
1000
1000
,
1000
0000
0001
0001
,
0001
0000
0100
0100
,
0100
0000
0010
0000
,
1000
0000
0001
0000
,
1000
0000
0001
0000
,
1000
1000
1000
0000
,
0100
0000
0100
0000
,
0010
0010
0010
0000
,
0001
0000
1000
0000
,
0001
0000
0100
0000
,
0001
0000
1000
0000
,
0001
0000
0000
0000
,
1001
0000
0001
0000
,
1000
0000
0100
0000
,
1000
0000
0001
0000
,
1000
0000
0001
0000
,
1000
0000
0001
0000
,
1000
1000
1000
0000
,
0001
0001
0001
0000
,
1000
1000
1000
0000
,
1001
0000
0000
0000
;

//--------------- dance-single - ----------------
#NOTES:
     dance-single:
     :
     Easy:
     5:
     0.199,0.226,0.049,0.336,0:
0000
0000
0000
0000
,
0000
0000
0000
0000
,
2000
3000
0200
0300
,
1000
1000
1000
0000
,
1000
0100
1000
0001
,
2002
3003
0002
0003
,
1000
0100
1000
0000
,
2000
3000
0002
0003
,
0100
0001
0100
0000
,
2000
0001
3001
0000
,
2000
0010
3010
0000
,
2000
0100
3100
0000
,
2000
3001
0020
0130
,
2002
3003
0002
0003
,
1000
0010
1000
0000
,
0002
0003
2000
3000
,
0001
1000
0001
0000
,
2000
0010
3010
0000
,
2000
0001
3001
0000
,
0200
0001
0301
0000
,
2000
3001
0002
1003
,
1001
1000
0001
0001
,
0110
0100
0001
0000
,
1001
1000
0001
0001
,
1000
0100
1000
0000
,
0001
1000
0001
1000
,
0001
1000
0020
0030
,
2000
3000
0002
0003
,
1000
1000
0001
0100
,
0002
0003
2000
3000
,
0002
0100
0103
0000
,
2000
0001
3001
0000
,
2000
0010
3010
0000
,
0002
1003
2000
3001
,
0002
0100
0103
0000
,
0002
1000
1003
0000
,
2000
0010
3010
0000
,
0002
1003
0200
0310
,
2000
3000
0002
0003
,
1000
0010
1000
0010
,
0001
0000
0001
0000
,
0100
0001
0100
0001
,
2002
0000
3003
0000
;

//--------------- dance-single - ----------------
#NOTES:
     dance-single:
     :
     Medium:
     8:
     0.303,0.317,0.279,0.361,0:
0000
0000
0000
0000
,
0000
0000
0000
0000
,
1000
0000
0010
0000
1000
0001
1000
0000
,
0002
1003
2000
3100
,
2000
3010
0002
1003
,
1001
1000
0001
0100
,
0001
0100
0001
0000
1000
0000
0010
0000
,
2000
3010
0002
1003
,
1000
0100
1000
0000
0001
0000
1000
0000
,
1020
1030
2001
3001
,
0102
0103
2001
3001
,
1002
1003
1020
1030
,
1010
0101
0101
1100
,
2000
3001
2000
3010
,
1000
0001
1000
0000
0001
0000
0100
0000
,
0002
1003
2000
3010
,
0001
1000
0001
0000
1000
0000
0100
0000
,
1002
1003
2100
3100
,
2010
3010
2001
3001
,
0102
0103
2010
3010
,
0001
1000
0001
0000
1000
0000
0100
0000
,
1001
0000
0001
0000
1000
0010
0001
0000
,
1001
0000
0100
0000
0001
0010
1000
0000
,
1001
0000
0100
0000
1000
0100
0001
0000
,
0002
1003
2000
3010
,
1000
0001
1000
0000
0001
1000
0001
0000
,
1001
1000
0020
1030
,
2000
3001
0002
0103
,
0001
1000
0001
0000
0020
0000
1030
0000
,
1000
0001
1000
0000
0001
0000
0100
0000
,
2001
3001
0102
0103
,
2010
3010
1002
1003
,
0021
0031
1002
1003
,
1000
0001
1000
0000
0001
0000
0100
0000
,
2001
3001
1020
1030
,
1002
1003
1200
1300
,
2001
3001
0201
0301
,
1000
0001
1000
0000
0010
1000
0010
0000
,
0002
0000
2000
3003
,
1000
0001
1000
0000
0001
0100
0001
0000
,
1000
0001
1000
0000
0010
0010
0010
0000
,
1000
0001
1000
0000
0001
0100
0001
0000
,
2002
0000
0000
0000
,
3003
0000
0000
0000
;

//--------------- dance-single - ----------------
#NOTES:
     dance-single:
     :
     Hard:
     9:
     0.303,0.317,0.172,0.246,0.041:
0000
0000
0000
0000
,
0000
0000
0000
0000
,
1001
0000
0001
0000
1000
0010
1000
0000
,
0001
1000
0001
0000
0001
0100
0001
0000
,
1000
0001
1000
0000
1000
0010
1000
0000
,
1001
0000
0001
0000
1000
0100
1000
0000
,
0002
1003
2000
3001
,
1000
0010
1000
0000
0001
1000
0001
0000
,
2000
3100
0002
0103
,
1000
0001
1000
0000
1020
0000
1030
0000
,
1002
0000
1003
0000
1000
0000
0001
1000
,
0001
0000
1000
0000
0020
0000
1030
1000
,
0002
1003
2000
3001
,
1000
0001
1000
0000
0002
0000
0103
0000
,
1000
0001
1000
0000
1000
0010
1000
0000
,
0002
1003
2000
3010
,
1000
0001
1000
0000
0001
0000
0001
0000
,
1000
0001
1000
0000
0012
0000
0103
0000
,
2010
0000
3100
0000
0001
0000
1000
0001
,
0100
0001
2010
3010
,
1000
0001
1000
0000
0001
0100
0001
0000
,
0000
1000
0100
0010
0001
0000
1001
0000
,
0000
0001
0010
0100
1000
0000
0110
0000
,
0000
0001
0100
0010
1000
0000
0110
0000
,
1001
0000
0100
0000
0001
1000
0001
1000
,
0200
0310
0002
1003
,
1001
0000
0000
0000
1000
0000
0000
1000
0020
0000
0000
0000
1030
0000
0000
0000
,
1001
0000
0000
0000
0001
0000
0000
0001
0200
0000
0000
0000
0301
0000
0000
0000
,
1000
0010
1000
0000
0001
1000
0001
0000
,
2010
0010
0100
3100
,
0001
1000
0001
0000
1020
0000
1030
0000
,
1002
0000
0103
0000
1000
0000
0001
1000
,
0001
1000
1020
1030
,
1000
0001
1000
0000
0001
0100
0001
0000
,
1000
0001
1000
0000
1002
0000
0013
0000
,
1002
0000
0103
0000
1000
0000
0001
0100
,
0001
1000
1020
1030
,
1000
0001
1000
0001
0100
0001
0100
0000
,
2000
0000
0002
3003
,
0000
0001
1000
0000
0000
0100
0001
0000
0000
0001
1000
0000
0000
0100
0001
0000
,
0000
0001
1000
0000
0001
0000
1000
0000
0100
1000
0100
0000
0001
0000
0000
0000
,
0000
0001
1000
0000
0001
0000
0100
0000
0001
0100
0001
0000
1000
0000
0000
0000
,
2002
0000
0000
0000
,
3003
0000
0000
0000
;

//--------------- dance-single - ----------------
#NOTES:
     dance-single:
     :
     Challenge:
     13:
     0.418,0.423,0.205,0.189,0.213:
0000
0000
0000
0000
,
0000
0000
0000
0000
,
2001
0000
3100
0000
0001
1000
0001
1000
,
0002
0100
0103
0000
2000
0100
3100
0000
,
0001
1000
0100
1000
0001
0010
1000
0000
,
1001
1000
1000
0000
0101
0100
0100
0000
,
0001
0000
1000
0000
0001
0000
0100
0000
0010
1000
0010
0000
0001
0000
0000
0000
,
1010
1000
1000
0000
1001
0001
0001
0000
,
1000
0000
0100
0000
1000
0000
0001
0000
0100
0000
0001
0000
1000
0001
1000
0001
,
2000
0001
3001
0000
0002
1000
1003
0010
,
2001
0000
0000
0000
0000
0000
0010
0000
0000
0000
0000
0000
3010
0000
0000
0000
0000
0000
0000
0000
0000
0000
0000
0000
0001
0000
0000
0000
0000
0000
0000
0000
1000
0000
0000
0000
0000
0000
0000
0100
0000
0000
0000
0000
0000
0000
0000
0000
,
1001
1000
0001
0000
2010
0000
0001
0001
,
3001
0000
0010
0000
1000
0000
0010
0000
1000
0100
1000
0001
1000
0000
0001
0000
,
1001
1000
0001
0000
0002
0000
1003
0010
,
1010
0000
0100
0000
1000
0000
0001
0000
1000
0001
1000
0000
0100
0000
0000
0000
,
0101
0000
0100
0000
0001
0000
0000
0000
1001
0000
0001
0000
1000
0000
0010
1000
,
0010
0000
1000
0000
1000
0000
0100
0000
0002
0000
0100
0000
0103
0000
0000
1000
,
0001
0000
1000
0000
0001
0000
0000
0000
0001
0000
0100
0000
0001
0100
0001
0000
,
1002
0000
0000
0000
0000
0000
0100
0000
0000
0000
0000
0000
0103
0000
0000
0000
0000
0000
0000
0000
0000
0000
0000
0000
1000
0000
0000
0000
0000
0000
0000
0000
0001
0000
0000
0000
0000
0000
0000
0100
0000
0000
0000
0000
0000
0000
0000
0000
,
1001
0000
1000
0000
0001
0000
1000
0010
2000
0000
0000
0000
3001
0000
0001
0000
,
0001
0000
0100
0000
0001
0000
1000
0000
0010
1000
0010
0000
1000
0000
0000
0000
,
1000
0000
0000
0000
0000
0000
0001
0000
0000
0000
0000
0000
1000
0000
0000
0000
0100
0000
0000
0000
0000
1000
0000
0000
0100
0000
0000
1000
0000
0000
0100
0000
0000
0001
0000
0000
1000
0000
0000
0000
0000
0000
0000
0000
0000
0000
0000
0000
,
1001
0000
0000
0000
0000
0000
0001
0000
0000
0000
0000
0000
0100
0000
0000
0000
0001
0000
0000
0000
0000
0100
0000
0000
0001
0000
0000
1000
0000
0000
0001
0000
0000
1000
0000
0000
0001
0000
0000
0000
0000
0000
0000
0000
0000
0000
0000
0000
,
1001
0000
0000
0000
0000
0000
1000
0000
0000
0000
0000
0000
0010
0000
0000
0000
1000
0000
0000
0000
0000
0010
0000
0000
1000
0000
0000
0010
0000
0000
1000
0000
0000
0100
0000
0000
1000
0000
0000
0000
0000
0000
0000
0000
0000
0000
0000
0000
,
1000
0001
0100
0001
1000
0010
1000
0001
,
1000
1100
0001
0101
1000
1010
1100
1001
,
1001
0000
0000
0000
0001
0000
0000
0010
2000
0000
0001
0000
3001
0000
1000
0000
,
0002
0000
1003
0000
1000
0001
1000
1000
,
0002
0000
1003
0010
0020
0000
1030
0001
,
1000
0000
0001
0000
1000
0000
0100
0000
1000
0000
0001
0000
1000
0000
0001
1000
,
0001
1000
0100
0000
2000
0000
3010
0010
,
1000
0000
0000
0000
0000
0000
0000
0000
0000
0000
0000
0000
0001
0000
0000
0000
0000
0000
1000
0000
0000
0000
0000
0000
0001
0000
0000
0000
0000
0000
0000
0000
0100
0000
0000
0000
0000
0000
0000
0001
0000
0000
0000
0000
0000
0000
0000
0000
,
1000
0000
0000
1000
0001
0000
1000
0000
0200
0000
0000
0000
1300
0000
0010
0000
,
1000
0000
0001
0000
1000
0000
0100
0000
1000
0000
0001
0000
1000
0000
0001
0100
,
0002
0000
1003
0000
1000
0010
0010
0001
,
1001
0000
0000
0000
0000
0000
1000
0000
0000
0000
0000
0000
0100
0000
0000
0000
0000
0000
0000
0000
0000
0000
0000
0000
1000
0000
0000
0000
0000
0000
0000
0000
0001
0000
0000
0000
0000
0000
0000
0100
0000
0000
0000
0000
0000
0000
0000
0000
,
0001
1000
0001
0000
2010
0000
3100
1000
,
0100
1000
0100
1000
0100
0000
0001
0000
1000
0001
1000
0000
0100
0000
0000
0000
,
2000
0000
0002
3003
,
0001
0000
1000
0001
1000
0000
0000
0000
0001
0000
0100
0001
0100
0000
0000
0000
0001
0000
1000
0010
1000
0000
0000
0000
0001
0000
1000
0001
1000
0000
0000
0000
,
0001
1000
0100
1000
0001
0000
1000
0000
0010
1000
0010
0000
1000
0000
0001
0000
,
1000
0001
1000
0001
0100
0000
0010
0000
1000
0001
1000
0000
0001
0000
0100
0000
,
2002
0000
0000
0000
,
3003
0000
0000
0000
;

//--------------- dance-solo - ----------------
#NOTES:
     dance-solo:
     :
     Beginner:
     1:
     0,0,0,0,0:
;

//--------------- dance-solo - ----------------
#NOTES:
     dance-solo:
     :
     Easy:
     1:
     0,0,0,0,0:
;

//--------------- dance-solo - ----------------
#NOTES:
     dance-solo:
     :
     Medium:
     1:
     0,0,0,0,0:
;

//--------------- dance-solo - ----------------
#NOTES:
     dance-solo:
     :
     Hard:
     1:
     0,0,0,0,0:
;

//--------------- dance-solo - ----------------
#NOTES:
     dance-solo:
     :
     Challenge:
     1:
     0,0,0,0,0:
;
