#TITLE:Can You Feel It;
#SUBTITLE:;
#ARTIST:Matrix;
#TITLETRANSLIT:;
#SUBTITLETRANSLIT:;
#ARTISTTRANSLIT:;
#GENRE:;
#CREDIT:;
#MUSIC:Can You Feel It.ogg;
#BANNER:Can You Feel It.png;
#BACKGROUND:Can You Feel It-bg.png;
#CDTITLE:;
#SAMPLESTART:76.494;
#SAMPLELENGTH:14.200;
#SELECTABLE:YES;
#OFFSET:-0.847;
#BPMS:0.000=135.532;
#STOPS:32.000=2.656
,98.000=0.880
;
#BGCHANGES:16.000=geometry1.avi=1.200=1=0=1===CrossFade==,
32.000=geometry1.avi=0.000=0=0=1,
32.063=geometry1.avi=1.200=0=0=1,
34.000=light2.avi=1.400=0=0=1,
66.000=amoeba1.avi=1.400=0=0=1,
82.000=blackhole1.avi=1.400=0=0=1,
98.000=blackhole1.avi=0.000=0=0=1,
98.063=blackhole1.avi=1.400=0=0=1,
100.000=bunny1.avi=1.200=0=0=1,
108.000=taiqi1.avi=1.200=0=0=1,
116.000=bunny2.avi=1.200=0=0=1,
124.000=taiqi2.avi=1.200=0=0=1,
132.000=bunny1.avi=1.200=0=0=1,
140.000=taiqi3.avi=1.200=0=0=1,
148.000=bunny2.avi=1.200=0=0=1,
156.000=taiqi1.avi=1.200=0=0=1,
160.000=girl1a.avi=1.400=0=0=1,
164.000=amoeba1.avi=1.400=0=0=1,
180.000=heat1.avi=1.400=0=0=1,
196.000=light2.avi=1.200=0=0=1,
212.000=piston1.avi=1.400=0=0=1,
228.000=Can You Feel It-bg.png=1.000=0=0=1,
99999.000=-nosongbg-=1.000=0=0=0=StretchNoLoop====
;
#FGCHANGES:;

//--------------- dance-single - ----------------
#NOTES:
     dance-single:
     :
     Beginner:
     2:
     0.16,0.154,0.18,0,0:
0000
0000
0000
0000
,
0000
0000
0000
0000
,
0000
0000
0000
0000
,
0000
0000
0000
0000
,
1001
0000
0000
0000
,
0100
0000
1000
0000
,
0001
0000
0000
0000
,
0001
0000
0001
0000
,
1001
0000
1000
0000
,
1000
0000
1000
0000
,
1000
0000
0001
0000
,
0100
0000
0001
0000
,
0100
0000
1000
0000
,
0001
0000
1000
0000
,
0001
0000
0001
0000
,
0100
0000
0010
0000
,
0001
0000
1001
0000
,
0000
0100
0100
0000
,
0001
0000
0110
0000
,
0000
0001
0001
0000
,
1000
0000
1001
0000
,
0000
1000
1000
0000
,
0010
0000
1001
0000
,
0000
0001
0001
0000
,
0100
0000
1001
0000
,
1000
0000
1000
0000
,
1000
0000
0001
0000
,
0100
0000
0010
0000
,
0001
0000
1000
0000
,
0001
0000
1000
0000
,
0001
0000
1000
0000
,
0001
0000
0100
0000
,
1000
0000
0001
0000
,
1001
0000
0000
1000
,
1000
0000
0001
0000
,
0110
0000
0000
0001
,
0001
0000
0100
0000
,
1001
0000
0000
1000
,
1000
0000
0100
0000
,
1001
0000
0000
0001
,
0001
0000
0000
0000
,
1001
0000
0100
0000
,
1000
0000
0001
0000
,
1001
0000
0001
0000
,
0001
0000
1000
0000
,
1001
0000
0100
0000
,
1000
0000
0001
0000
,
1001
0000
0010
0000
,
1000
0000
0001
0000
,
1001
0000
0100
0000
,
1000
0000
0100
0000
,
1001
0000
0010
0000
,
0001
0000
0100
0000
,
1001
0000
0001
0000
,
1000
0000
0001
0000
,
1001
0000
0010
0000
,
1000
0000
0001
0000
,
1001
0000
0000
0000
;

//--------------- dance-single - ----------------
#NOTES:
     dance-single:
     :
     Easy:
     6:
     0.205,0.209,0.126,0.108,0:
0000
0000
0000
0000
,
0000
0000
0000
0000
,
0000
0000
0000
0000
,
0000
0000
0000
0000
,
1000
1000
0000
0001
,
0002
0000
0203
0000
,
0301
0000
1000
0000
,
0001
1000
0001
0000
,
1001
0000
1000
0001
,
1000
0000
0010
0000
,
0100
0000
0001
0010
,
0001
0000
1000
0000
,
0100
0000
1000
0010
,
0001
0000
0100
0000
,
1000
0000
0001
1000
,
0001
0000
0010
0000
,
0100
0000
1001
0000
,
0001
0000
1000
0000
,
0100
0000
0110
0000
,
1000
0000
0001
0000
,
0010
0000
1001
0000
,
1000
0000
0100
0000
,
0001
0000
0110
0000
,
1000
0000
0001
0000
,
0100
0000
0110
0000
,
1000
0000
0001
0000
,
1000
0100
0010
0000
,
1001
0000
0100
0000
,
0001
0010
0001
0000
,
0110
0000
0100
0000
,
1000
0001
0010
0000
,
1001
0000
0100
0000
,
0001
1000
0001
0000
,
1001
0000
1000
0000
,
0010
1000
0001
0000
,
0110
0000
0010
0000
,
1000
1000
0010
0000
,
1001
0000
0100
0000
,
0001
0001
0001
0000
,
0110
0000
0100
0000
,
0001
0010
1000
0000
,
0001
1000
0001
0000
,
0020
0000
0130
0000
,
1000
0010
1000
0000
,
2000
0000
3001
0000
,
0010
1000
0001
0000
,
0200
0000
0310
0000
,
1000
0001
0010
0000
,
0002
0000
1003
0000
,
0001
1000
0001
0000
,
2000
0010
3010
0000
,
0001
1000
0001
0000
,
0002
0100
0103
0000
,
0001
0010
1000
0000
,
2000
0100
3100
0000
,
1000
0010
1000
0000
,
0002
0010
0013
0000
,
2002
0000
0000
0000
,
3003
0000
0000
0000
;

//--------------- dance-single - ----------------
#NOTES:
     dance-single:
     :
     Medium:
     11:
     0.399,0.366,0.225,0.397,0:
0000
0000
0000
0000
,
0000
0000
0000
0000
,
0000
0000
0000
0000
,
0000
0000
0000
0000
,
0002
0000
2000
0000
3003
0000
1000
1000
,
0002
1000
0200
0303
,
1000
0000
0001
0010
0000
1000
0000
0001
,
2000
3002
0200
0303
,
1001
0000
2000
0001
,
0001
3001
2000
0010
,
0001
3010
0002
0103
,
2000
3100
0020
1000
,
1000
0000
1030
0000
1000
0001
0010
0000
,
0010
0000
0101
0000
1000
0010
1000
0000
,
0020
0000
1030
0000
0010
1000
0001
0000
,
1000
0100
1000
0000
0001
0000
0010
0000
,
0010
0001
1000
0100
0001
0000
1000
0000
,
0001
0000
1000
0000
0001
1000
0100
0000
,
0001
0010
1000
0000
1000
0000
0001
0000
,
0100
0000
0001
0000
1000
0001
0010
0000
,
1000
0010
0100
0000
0100
0000
0001
0000
,
1000
0000
0010
0000
1000
0010
1000
0000
,
0001
0100
0001
0000
1000
0000
0001
0000
,
0010
0000
0001
0000
1000
0100
1000
0000
,
0001
0100
0001
0000
1001
0000
0000
0000
,
1000
0000
0001
0000
0001
0001
0010
0000
,
1000
0000
0100
0000
1000
0010
1000
0000
,
1001
0000
0011
0000
1000
0010
1000
0000
,
0001
0000
0100
0000
1000
0001
0100
0000
,
1010
0000
1010
0000
0001
0100
1000
0000
,
1000
0000
0001
0000
1000
0010
1000
0000
,
1001
0000
0110
0000
0001
1000
0010
0000
,
1000
1000
0100
0000
0002
0000
0103
0000
,
1001
0000
1001
0000
0010
0000
1000
0001
,
0200
0301
2000
3010
,
1001
0000
1001
0000
0100
0000
0001
1000
,
0020
1030
0002
0103
,
1010
0000
1100
0000
0001
0000
1000
0010
,
0002
1003
0200
0310
,
1001
0000
0011
0000
1000
0000
0100
1000
,
0002
0000
2000
3003
,
1001
0000
0100
0000
0001
0000
1000
0010
,
2000
3001
0002
1003
,
0010
0000
1000
0001
0000
0100
0000
0001
,
2000
3020
2030
3001
,
1001
0000
0100
0000
0001
0000
1000
0010
,
2000
3010
0002
1003
,
0110
0000
1000
0001
0000
0001
0000
1000
,
0020
2030
3002
1003
,
1001
0000
0001
0000
0010
0000
1000
0010
,
2000
3001
0002
0103
,
1001
0000
1000
0001
0000
0001
0000
1000
,
0200
2300
3020
1030
,
1001
0000
0001
0000
0100
0000
0001
1000
,
0020
1030
2000
3001
,
1001
0000
1000
0010
0000
0001
0000
0010
,
2000
3002
0203
0300
,
2002
0000
0000
0000
,
3003
0000
0000
0000
;

//--------------- dance-single - ----------------
#NOTES:
     dance-single:
     :
     Hard:
     13:
     0.511,0.523,0.397,0.144,0.108:
0000
0000
0000
0000
,
0000
0000
0000
0000
,
0000
0000
0000
0000
,
0000
0000
0000
0000
,
1010
0000
0101
0000
0000
0000
0001
1000
,
0020
0000
1030
0100
0002
0000
1003
0000
,
1001
0000
1000
0011
0000
1100
0000
1000
,
1010
0000
0101
0000
1001
0000
1000
0100
,
1001
0000
0000
0000
1000
0010
1000
0000
,
0001
1000
0001
0000
0010
0001
1000
0000
,
1000
0001
0010
0000
1000
0100
0001
0000
,
0001
0010
1000
0000
1000
0010
1000
0000
,
0001
0010
0100
0000
0001
1000
0010
1000
,
0001
0000
1001
0000
1000
0100
0010
0001
,
0010
0000
0011
0000
1000
0100
1000
0000
,
0001
0000
0100
0000
0001
0000
0000
0000
1000
0010
0000
0010
1000
0000
0001
0000
,
1000
0000
0100
0000
1000
0100
1000
0000
0001
0000
0000
1000
0010
0000
1000
0000
,
0001
0000
0000
1000
0100
0000
1000
0000
0001
0100
0001
0000
1000
0000
0001
0000
,
1000
0000
0000
0000
1001
0000
0000
0000
0100
0000
0000
1000
0001
0000
0010
0000
,
0001
0000
0000
1000
0100
0000
1000
0000
0001
0100
0001
0000
1000
0000
0001
0000
,
0010
0000
0000
0000
1100
0000
0000
0000
0001
0000
0000
0010
1000
0000
0001
0000
,
0100
0000
0000
0001
0010
0000
1000
0000
0010
1000
0010
0000
1000
0000
0100
0000
,
0010
0000
0000
0000
0101
0000
0000
0000
0010
0000
0000
1000
0001
0000
0100
0000
,
0001
0000
0000
0010
0001
0000
1000
0000
0100
1000
0100
0000
1000
0000
0001
0000
,
0100
0000
0000
0001
0100
0000
1000
0000
2002
0000
0000
0000
3003
0000
0000
0000
,
1000
0000
0000
1000
0010
0000
1000
0000
0001
0000
0100
0000
0001
0000
0000
0000
,
0001
0100
1000
0010
0001
0000
0100
0001
,
1001
0000
1100
0000
0100
0100
0101
0000
,
1000
0100
0001
0000
1000
0010
1000
0001
,
0100
1000
0000
0000
0100
1000
0000
0000
0001
0000
0010
0000
0100
0000
0000
0000
,
1000
0001
1000
0010
1000
0001
0100
0000
,
0001
1000
0100
1000
0010
1000
0001
0000
,
0010
1000
1100
0001
0101
1000
1100
0011
,
1001
0000
0110
0000
1000
0010
1000
0000
,
0010
1000
0001
0100
0001
0010
1000
0000
,
0011
0000
0000
0000
0101
0000
0000
0000
1000
0000
0010
1000
0000
0000
0001
0000
,
1000
0100
1000
0010
0001
0010
1000
0000
,
0001
0000
0000
0000
1000
0000
0000
0010
0000
1000
0000
0000
0100
0000
0000
0000
,
1000
0001
1000
0001
0010
1000
0001
0000
,
0001
0000
1000
0000
0100
0000
0000
0001
0000
0000
0001
0000
0100
0000
0001
0010
,
0002
0010
2000
3003
,
1000
0001
1000
0010
1000
0000
0001
0010
,
0200
0000
0301
1000
0020
0000
1030
0000
,
0001
0010
0001
1010
0000
1100
0000
1000
,
0011
0000
1100
0000
1100
0000
0001
1000
,
0010
1000
0001
0100
0001
0000
1000
0010
,
0002
0000
0013
1000
2000
0000
3001
0000
,
1000
0001
1000
1100
0000
0101
0000
1000
,
0001
0100
0001
1000
1001
0000
0001
0010
,
1000
0100
1000
0100
1000
0100
0010
0001
,
0200
0000
0301
0010
2000
0000
3100
0000
,
1000
0001
1000
0010
1000
0100
1000
0001
,
1100
0000
1010
0000
0101
0000
0010
1000
,
0001
0100
0001
1000
0100
0010
1000
0001
,
0020
0000
0031
1000
2000
0000
3100
0000
,
0001
1000
0010
1100
0000
0101
0000
1010
,
1001
0000
1100
0000
0101
0000
1000
0001
,
2002
0000
0000
0000
,
3003
0000
0000
0000
;

//--------------- dance-single - ----------------
#NOTES:
     dance-single:
     :
     Challenge:
     15:
     0.622,0.601,0.316,0.153,0.325:
0000
0000
0000
0000
,
0000
0000
0000
0000
,
0000
0000
0000
0000
,
0000
0000
0000
0000
,
2000
0000
3020
0000
1030
0000
1000
0001
,
0101
0000
1000
0010
1010
0000
1100
0000
,
1000
0001
0100
0101
0000
1100
0000
1010
,
1000
0001
1000
0100
0101
0000
0100
0010
,
2002
0000
0000
3003
1000
0010
1000
0010
,
1000
0001
1000
0001
0100
0001
0100
0001
,
0100
0010
0001
0010
0001
1000
0001
1000
,
0001
1000
0100
1000
0100
1000
0010
1000
,
0010
0100
0010
0100
0010
0001
1000
0001
,
1000
0100
1000
0100
1000
0010
1000
0001
,
0100
0001
0010
0001
0100
1000
0001
1000
,
0001
0000
0100
0000
0001
0000
0100
0000
0001
1000
0010
1000
0001
0100
0010
1000
,
0001
0100
0010
0100
1000
0010
0100
0000
1001
0000
0000
1000
0010
0000
0100
0000
,
0101
0000
0000
0001
0010
0000
0100
0000
1000
0010
1000
0000
0100
0000
1000
0000
,
0001
0000
0000
0100
1000
0000
0010
0000
0110
0000
0000
0001
0100
0000
0001
0000
,
0110
0000
0000
0010
1000
0000
0100
0000
1000
0001
0100
0000
0001
0000
0010
0000
,
0100
0000
0000
1000
0001
0000
0100
0000
0101
0000
0000
1000
0010
0000
0100
0000
,
1100
0000
0000
0001
0010
0000
0001
0000
0100
0001
0100
0000
0010
0000
0010
0000
,
1000
0000
0000
0100
1000
0000
0001
0000
1001
0000
0000
0100
0010
0000
0001
0000
,
1001
0000
0000
0100
1000
0000
0100
0000
0001
0010
0001
0000
1000
0000
0100
0000
,
1000
0000
0000
0001
0100
0000
0001
0000
2002
0000
0000
0000
3003
0000
0000
0000
,
1000
0000
0010
0000
1000
0000
0000
0000
1000
0010
1000
0000
0101
0000
0000
0000
,
0001
0000
1000
0010
0100
0000
0001
0000
1000
0000
0001
0000
0100
0000
0010
0000
,
1001
0000
0000
0000
0101
0000
0000
1000
0010
0000
1000
0001
1000
0000
0001
0000
,
0100
0010
0100
0010
0100
0000
0001
0000
0010
0000
1000
0001
0000
1000
0000
0001
,
0010
0001
0000
0000
0001
1000
0000
0001
0100
0001
0100
0000
0100
0000
0001
0000
,
1000
0000
0010
0000
1000
0000
0001
0000
1000
0010
1000
0010
0000
0100
0000
0001
,
0100
0001
0100
0000
0001
0000
1000
0010
0000
0010
0000
1000
0010
0000
1000
0010
,
1000
0000
0001
0100
0001
0000
1000
0001
1000
0000
0010
1000
0010
0000
0100
0000
,
1001
0000
0000
0000
0110
0000
0000
0001
1000
0000
0000
0100
0000
0000
1000
0000
,
0001
0000
0011
0000
1000
0000
1010
0000
0001
0000
0000
0100
0000
0000
0010
0000
,
1001
0000
0000
0000
0110
0000
0000
0000
0101
0000
0010
2000
0000
0000
0001
0000
,
3001
0100
0000
0100
0001
0000
1000
0000
0010
0000
1000
0010
0000
0010
1000
0000
,
1001
0000
0000
0000
0010
0000
1000
0010
0000
1000
0000
0001
0100
0000
0001
0100
,
0001
0000
0001
0000
0010
0000
1000
0010
1000
0000
0001
0000
0100
0000
0010
0000
,
1000
0000
0100
0010
1000
0000
1000
0100
0000
0000
0010
0000
0001
0000
1000
0100
,
1000
0000
0001
0000
0010
0000
1000
0001
0000
0000
1000
0010
1000
0010
1000
0010
,
1000
0010
1000
0001
0100
0001
1000
0010
,
2000
0000
3010
0001
0002
0000
0103
0100
,
0001
1000
0010
1000
0100
1000
0001
0100
,
1010
0000
1100
0000
0101
0000
0001
1000
,
0010
0100
0001
1000
0100
0001
0100
0001
,
2000
0000
3010
0100
0002
0000
0100
0103
,
0100
0010
0100
1000
0001
0100
0001
0100
,
0101
0000
1100
0000
1010
0000
0001
1000
,
0001
0100
1000
0010
1000
0001
0100
0001
,
2000
0010
0010
3010
0200
0010
0010
0310
,
1000
0001
0100
0001
1000
0010
0100
0001
,
1000
0010
1000
0000
0010
0000
0100
0000
0001
0000
0000
1000
0001
0000
0100
0000
,
0010
1000
0001
0100
0001
0010
0100
1000
,
0002
1000
1000
1003
0020
1000
1000
1030
,
0001
0100
0001
1000
0010
1000
0001
0100
,
0001
0100
0001
0000
1000
0010
1000
0000
0010
0000
1000
0000
0001
0000
0001
0000
,
2002
0000
0000
0000
,
3003
0000
0000
0000
;
