#TITLE:Brimful of Asha;
#SUBTITLE:(Norman Cook Remix Edit);
#ARTIST:Cornershop;
#TITLETRANSLIT:;
#SUBTITLETRANSLIT:;
#ARTISTTRANSLIT:;
#GENRE:;
#CREDIT:;
#MUSIC:Brimful Of Asha (Norman Cook Remix Edit).ogg;
#BANNER:Brimful Of Asha (Norman Cook Remix Edit).png;
#BACKGROUND:Brimful Of Asha (Norman Cook Remix Edit)-bg.png;
#CDTITLE:;
#SAMPLESTART:46.088;
#SAMPLELENGTH:15.000;
#SELECTABLE:YES;
#OFFSET:-4.114;
#BPMS:0.000=125.695;
#STOPS:;
#BGCHANGES:8.000=geometry1.avi=1.000=1=0=1===CrossFade==,
24.000=rotation5.avi=1.200=0=0=1,
40.000=face1.avi=1.200=0=0=1,
56.000=text29.avi=1.200=0=0=1,
72.000=text27.avi=1.200=0=0=1,
88.000=star1.avi=1.000=0=0=1,
104.000=wheel2.avi=1.000=0=0=1,
120.000=star3.avi=1.000=0=0=1,
124.000=star2.avi=1.400=0=0=1,
128.000=star1.avi=1.200=0=0=1,
144.000=wheel2.avi=1.000=0=0=1,
160.000=square2.avi=1.200=0=0=1,
176.000=rotation5.avi=1.200=0=0=1,
192.000=text17.avi=1.000=0=0=1,
208.000=wheel2.avi=1.200=0=0=1,
224.000=Brimful Of Asha (Norman Cook Remix Edit)-jacket.png=1.000=1=0=1===CrossFade==,
99999.000=-nosongbg-=1.000=0=0=0=StretchNoLoop====
;
#FGCHANGES:;

//--------------- dance-single - ----------------
#NOTES:
     dance-single:
     :
     Beginner:
     2:
     0.145,0.191,0.076,0,0:
0000
0000
0000
0000
,
0000
0000
0000
0000
,
1000
0000
0001
0000
,
1000
0000
0000
0000
,
0001
0000
1000
0000
,
0001
0000
0000
0000
,
1000
0000
0100
0000
,
1000
0000
0100
0000
,
1000
0000
0001
0000
,
1000
0000
0001
0000
,
1000
0000
0010
0000
,
1000
0000
0010
0000
,
1000
0000
0100
0000
,
1000
0000
0100
0000
,
1001
0000
0000
0000
,
0001
0000
1000
0000
,
0001
0000
0000
0000
,
0100
0000
0001
0000
,
0100
0000
0000
0000
,
1000
0000
0001
0000
,
1000
0000
0000
0000
,
0010
0000
1000
0000
,
0010
0010
0010
0000
,
1000
0000
0001
0000
,
0100
0100
0100
0000
,
0001
0000
1000
0000
,
0001
0001
0001
0000
,
1000
0000
0010
0000
,
1000
1000
1000
0000
,
0001
0000
0100
0000
,
1001
0000
0000
0000
,
1000
0000
0001
0000
,
1001
0000
0100
0000
,
0001
0001
0001
0000
,
1000
0000
0100
0000
,
1000
1000
1000
0000
,
0010
0000
0100
0000
,
1000
1000
1000
0000
,
0001
0000
0100
0000
,
0001
0001
0001
0000
,
1000
0000
1000
0000
,
0100
0000
0100
0000
,
1000
0000
1000
0000
,
0001
0000
0001
0000
,
1000
0000
0010
0000
,
1000
0000
0010
0000
,
1000
0000
0001
0000
,
0100
0000
0001
0000
,
1001
0000
0010
0000
,
1000
0000
0100
0000
,
1001
0000
0001
0000
,
0100
0000
0001
0000
,
1001
0000
0001
0000
,
1001
0000
0100
0000
,
1001
0000
0010
0000
,
1001
0000
0100
0000
,
1000
0001
0000
0000
;

//--------------- dance-single - ----------------
#NOTES:
     dance-single:
     :
     Easy:
     6:
     0.219,0.242,0.093,0.169,0:
0000
0000
0000
0000
,
0000
0000
0000
0000
,
1000
0001
0100
0000
,
0001
1000
0100
0000
,
1000
1000
0001
0000
,
0001
0100
0001
0000
,
2000
0000
3002
0000
,
2003
0000
3002
0000
,
0203
0000
0302
0000
,
0203
0000
0302
0000
,
1003
0001
1000
0000
,
0100
0001
0100
0000
,
1000
0001
1000
0000
,
1000
0010
1000
0000
,
1001
1000
0000
0001
,
0000
0100
0000
0001
,
1001
0001
0000
1000
,
0000
0001
0000
0100
,
0001
0100
0001
1000
,
0001
0000
1000
0000
,
1000
0100
1000
0010
,
0010
0000
0010
0000
,
1001
1000
1000
0000
,
0001
0000
0100
0000
,
1001
0001
0001
0000
,
1000
0000
0100
0000
,
1001
1000
1000
0000
,
0001
0000
0100
0000
,
1001
0001
0001
0000
,
1000
0000
0100
0000
,
2002
0000
0000
3003
,
1000
1000
0001
0001
,
1001
0000
0100
0000
,
1000
1000
0010
1000
,
1001
0000
0001
0000
,
0100
0001
0100
0000
,
1001
1000
1000
0000
,
1000
0010
1000
0000
,
1001
0001
0001
0000
,
0100
0100
0100
0000
,
0001
1000
0001
0000
,
1000
0010
1000
0000
,
1000
0001
1000
0000
,
0100
0010
0100
0000
,
0001
1000
0001
0000
,
1000
0100
1000
0000
,
1000
0010
1000
0000
,
0001
1000
0001
0000
,
2000
0000
3002
0000
,
0203
0000
0302
0000
,
2003
0000
3020
0000
,
2030
0000
3200
0000
,
1300
1000
0001
0000
,
0001
0100
0001
0000
,
0010
0010
1000
0010
,
1000
0001
0100
0001
,
2000
0002
0000
0000
,
3003
0000
0000
0000
;

//--------------- dance-single - ----------------
#NOTES:
     dance-single:
     :
     Medium:
     11:
     0.356,0.338,0.305,0.136,0.068:
0000
0000
0000
0000
,
0000
0000
0000
0000
,
2000
3001
0002
0103
,
0020
1030
2000
3100
,
0001
1010
1000
1100
,
1000
0000
1010
0000
1000
0100
0010
0000
,
1000
0001
1000
0000
0001
0000
0100
0000
,
0001
1000
0001
0000
1000
0000
0010
0000
,
0100
0010
0100
0000
0001
0000
0100
0000
,
0001
0010
0100
0000
1000
0000
0001
0000
,
1000
0100
1000
0000
0002
0000
1003
0000
,
0001
0100
0001
0000
0020
0000
0130
0000
,
1000
0100
1000
0000
0002
0000
1003
0000
,
1000
0010
1000
0000
2000
0000
3001
0000
,
1000
0100
0001
0100
,
1000
0010
1000
0010
0000
0000
1001
0000
,
0001
0100
1000
0100
,
1000
0000
1000
0010
1000
0000
1001
0000
,
0001
0100
1000
0100
,
1000
0010
1000
0010
0000
0000
1001
0000
,
0001
1000
0000
1000
0001
0000
1001
0000
,
1000
0010
1000
0010
0000
0000
0001
0000
,
1001
0000
1000
0000
0001
0000
0100
0001
,
0000
0101
0000
0101
0000
0000
1000
0000
,
1001
0000
1000
0000
0010
0000
1000
0010
,
0000
1010
0000
1010
0000
0000
1000
0000
,
1001
0000
1000
0000
0001
0000
0100
0001
,
0000
0101
0000
0101
0000
0000
1000
0000
,
1001
0000
0001
0000
0100
0000
0001
1000
,
0000
1001
0000
1001
0000
0000
1000
0000
,
2002
0000
0000
3003
,
1000
0001
1000
0001
1000
0010
1000
0000
,
1001
0000
0100
0000
0001
0000
1000
0010
,
0000
1010
0000
1010
0000
0000
0001
0000
,
1001
0000
1000
0000
0100
0000
1000
0010
,
0000
1010
0000
1010
0000
0000
0001
0000
,
1001
0000
0100
0000
0001
0000
1000
0010
,
0000
1001
0000
1001
0000
0001
0100
0000
,
1001
0000
1000
0000
0001
0000
0100
0001
,
0000
0011
0000
0011
0000
0000
0100
0000
,
1000
0001
1000
0000
0020
0000
1030
0000
,
1000
0001
1000
0000
0001
0000
0101
0000
,
1000
0001
1000
0000
0002
0000
0013
0000
,
1000
0100
1000
0000
0001
0000
1010
0000
,
1000
0001
1000
0000
0002
0000
0103
0000
,
1000
0100
0010
0000
1000
0000
1001
0000
,
1000
0001
0100
0000
0020
0000
0130
0000
,
0001
1000
0001
0000
1000
0000
1001
0000
,
0001
0000
0000
1000
0000
0000
0000
0000
0001
0000
0000
1000
0000
0000
0000
0000
,
0001
0000
0000
1000
0000
0000
0000
0000
0001
0000
0000
1000
0000
0000
0000
0000
,
1000
0000
0000
0001
0000
0000
0000
0000
1000
0000
0000
0001
0000
0000
0000
0000
,
1000
0000
0000
0001
0000
0000
0000
0000
1000
0000
0000
0001
0000
0000
0000
0000
,
0100
0000
0000
0100
0000
0000
0000
0000
0010
0000
0000
0010
0000
0000
0000
0000
,
1000
0000
0000
1000
0000
0000
0000
0000
0001
0000
0000
0001
0000
0000
0000
0000
,
1000
0000
0000
0100
0000
0000
0000
0000
0001
0000
0000
0100
0000
0000
0000
0000
,
1000
0000
0000
0010
0000
0000
0000
0000
0001
0000
0000
0010
0000
0000
1000
0000
,
0002
2000
0000
0000
,
3003
0000
0000
0000
;

//--------------- dance-single - ----------------
#NOTES:
     dance-single:
     :
     Hard:
     13:
     0.466,0.442,0.364,0.042,0.174:
0000
0000
0000
0000
,
0000
0000
0000
0000
,
1000
0000
0010
1000
0001
0000
0100
0001
,
1000
0000
0010
1000
0100
0000
1000
0001
,
0100
0000
0001
1000
0010
0000
1000
0001
,
1000
0000
0100
0000
0001
0000
0100
0000
0001
0000
0100
0001
0100
0000
0000
0000
,
0001
1000
0001
0000
1000
0010
1000
0000
,
0001
0100
0001
0000
1000
0001
1000
0000
,
0001
0010
0001
0000
1000
0010
0001
0000
,
1000
0100
1000
0000
0001
1000
0001
0000
,
1000
0010
1000
0010
0000
1000
0100
1000
,
0000
0001
0100
0001
0000
1000
0010
1000
,
0000
0001
1000
0100
0000
1000
0010
0001
,
0000
0000
1000
0000
0100
0000
1000
0000
0001
0010
0001
0010
0100
0000
1000
0000
,
0002
0000
0103
0000
1000
0001
1000
0000
,
1000
0100
1000
0010
0000
1000
0010
1000
,
1010
0000
0100
0000
1000
0100
0001
0100
,
0000
0001
0100
0001
1000
0001
1000
0000
,
0001
0000
0000
0000
1000
0000
0001
1000
0000
0000
1000
0000
0100
0000
1000
0000
,
0000
0000
0001
0000
0100
0000
0001
0000
0000
0000
1000
0000
0010
0000
1000
0010
,
0000
0000
1000
0000
0001
0000
0100
0001
0000
0000
1000
0000
0001
0000
0100
0000
,
0001
1000
0010
1000
0000
0001
1000
0000
,
1001
0000
0001
1000
0100
1000
0010
1000
,
0000
0101
0000
0101
0000
1000
0010
1000
,
1001
0000
1000
0100
1000
0001
0010
1000
,
0000
1001
0000
1001
0000
0001
0100
0000
,
1001
0000
1000
0010
1000
0001
0100
0001
,
0000
1001
0000
1001
0000
1000
0100
1000
,
1001
0000
0010
1000
0100
1000
0001
0100
,
0000
1001
0000
1001
0000
0001
0100
0001
,
2002
0000
0000
3003
,
1001
0000
0001
0010
0001
0000
0100
0000
0001
1000
0010
0000
1000
0010
0100
0000
,
1001
0000
1000
0010
1000
0001
0100
0001
,
0000
1001
0000
1001
0000
0001
1000
0010
,
1100
0000
0001
1000
0100
1000
0010
1000
,
0000
0011
0000
0011
0000
1000
0100
0000
,
1001
0000
0001
0100
1000
0010
1000
0100
,
0000
0110
0000
0110
0000
1000
0100
1000
,
0011
0000
1000
0100
1000
0001
0100
0001
,
0000
1100
0000
1100
0000
1000
0001
0000
,
1000
0001
1000
0000
0001
0000
0100
0001
0000
0000
0000
0000
1000
0000
0000
0000
,
1000
0010
1000
0000
0001
0000
0100
0001
0000
0000
0000
0000
0100
0000
0000
0000
,
1000
0001
1000
0000
0100
0000
0010
1000
0000
0000
0000
0000
0010
0000
0000
0000
,
1000
0001
1000
0000
0100
0000
1000
0100
0000
0000
0000
0000
0001
0000
0000
0000
,
1000
0001
1000
0000
0001
0000
0100
0001
0000
0000
0000
0000
0001
0000
0000
0000
,
0100
0001
0100
0000
0001
0000
1000
0001
0000
0000
0000
0000
0100
0000
0000
0000
,
0001
0010
0100
0000
0010
0000
0010
0001
0000
0000
0000
0000
0100
0000
0000
0000
,
1000
0001
1000
0000
0100
0000
1000
0001
0000
0000
0000
0000
0100
0000
0000
0000
,
1010
0000
0000
1000
0000
0000
0100
0000
1100
0000
0000
1000
0000
0000
0000
0000
,
0101
0000
0000
0010
0000
0000
1000
0000
1010
0000
0000
0100
0000
0000
0000
0000
,
1001
0000
0000
0100
0000
0000
0001
0000
0011
0000
0000
0010
0000
0000
0000
0000
,
1001
0000
0000
0100
0000
0000
0001
0000
1001
0000
0000
1000
0000
0000
0001
0000
,
1001
0000
0000
0100
0000
0000
1000
0000
0011
0000
0000
0100
0000
0000
0001
0000
,
1001
0000
0000
0100
0000
0000
1000
0000
1010
0000
0000
1000
0000
0000
0001
0000
,
1001
0000
0000
0100
0000
0000
0001
0000
0011
0000
0000
1000
0000
0000
0001
0000
,
1001
0000
0000
1000
0000
0000
0100
0000
1100
0000
0000
1000
0000
0000
0001
0000
,
0200
0020
0000
0000
,
0000
0000
0000
0000
,
0330
0000
0000
0000
;

//--------------- dance-single - ----------------
#NOTES:
     dance-single:
     :
     Challenge:
     15:
     0.576,0.614,0.271,0.11,0.415:
0000
0000
0000
0000
,
0000
0000
0000
0000
,
1000
0010
1100
0000
0010
0001
0101
0000
,
1000
0001
1001
0000
0001
0100
0101
0000
,
1000
0001
0100
0001
1000
0010
1000
0001
,
1000
0000
0001
0100
0001
0000
1000
0000
0010
0000
1000
0100
1000
0100
1000
0100
,
1000
0000
0001
1000
0001
0000
0000
0000
0001
0000
0001
0100
0010
0000
0000
0000
,
1000
0000
0001
0100
0001
0000
0000
0000
0010
0000
0100
0010
0100
0000
0000
0000
,
1000
0000
0100
1000
0100
0000
0000
0000
0001
0000
1000
0010
0100
0000
0000
0000
,
1000
0000
0001
0100
0001
0000
0000
0000
0100
0000
0010
0100
0010
0000
0000
0000
,
0001
0000
1000
0100
1000
0000
0000
0000
0010
0000
0001
0100
0001
0000
0000
0000
,
1000
0000
0001
0100
0001
0000
0000
0000
0001
0000
1000
0100
1000
0000
0000
0000
,
0100
0000
1000
0001
0010
0000
0000
0000
0001
0000
0001
0100
0010
0000
0000
0000
,
0001
0000
1000
0100
1000
0000
0000
0000
0001
0100
0010
0100
0010
0000
1000
0000
,
0001
0000
0000
1000
0000
0000
0001
0010
0001
0000
0100
0000
1000
0000
0010
0000
,
1000
0000
0001
0000
1000
0000
0001
0100
0001
0000
1000
0000
1000
0000
0001
0000
,
1001
0000
0000
0000
0110
0000
0000
0010
1000
0000
0001
0000
0100
0000
0001
0000
,
1000
0010
0100
1000
0001
0100
0001
0100
,
1001
0000
0000
0000
1000
0000
0100
1000
0000
1000
0100
0000
1000
0000
0001
0000
,
2000
0000
0010
0000
3010
0000
0001
0000
0000
0000
1000
0000
0001
0000
1000
0100
,
0000
0100
1000
0000
0001
0000
0100
0001
0000
0001
0100
0000
1000
0000
0001
0000
,
1000
0000
0010
0000
1000
0000
0001
0000
1000
0000
0001
0100
0001
0000
0100
0000
,
1001
0000
0000
1000
0010
0000
1000
0000
0001
0000
0100
0000
0001
0000
1000
0000
,
0020
1000
1030
0100
0000
0001
1000
0001
,
1001
0000
0000
0001
0100
0000
0001
0000
1000
0000
0010
0000
1000
0000
0100
0000
,
2000
0001
3001
0100
0000
1000
0001
0100
,
1001
0000
0000
1000
0010
0000
1000
0000
0100
0000
1000
0000
0001
0000
0010
0000
,
0002
0100
0103
0010
0000
1000
0001
0100
,
1001
0000
0000
0001
0100
0000
1000
0000
0010
0000
0100
0000
1000
0000
0001
0000
,
2000
0001
3001
0010
0000
1000
0001
0100
,
2002
0000
0000
3003
,
1001
0000
0001
0100
0001
0000
1000
0000
0010
1000
0010
1000
0010
1000
0010
0000
,
1001
0000
0000
0001
0100
0000
0100
0000
0010
0000
1000
0000
0001
0000
0100
0000
,
2000
0010
3010
0100
0000
0001
0100
0010
,
0011
0000
0000
1000
0100
0000
0001
0000
0010
0000
1000
0000
0001
0000
0100
0000
,
0002
1000
1003
0100
0000
0001
0010
0000
,
1001
0000
0000
1000
0100
0000
1000
0000
0001
0000
0010
0000
0100
0000
1000
0000
,
0002
0010
0013
1000
0000
0001
0100
0010
,
1001
0000
0000
1000
0100
0000
1000
0000
0001
0000
0100
0000
0001
0000
0010
0000
,
0200
0000
0010
0000
0310
0000
0001
0000
1000
0010
1000
0000
0001
0000
0000
0000
,
1000
0001
1000
0001
1000
0000
1000
0010
0000
0010
1000
0000
0000
1000
0000
0000
,
1000
0100
1000
0100
1000
0000
0001
0100
0000
0100
0000
0000
0001
0000
0000
0000
,
1000
0010
1000
0010
1000
0000
0001
0010
0000
0010
0100
0000
0000
0100
0000
0000
,
0001
1000
0001
1000
0001
0000
0100
0001
0000
0001
0000
0000
0010
0000
0000
0000
,
0001
0010
0001
0010
0001
0000
1000
0010
0000
0010
1000
0000
0000
0100
0000
0000
,
0010
0100
0010
0100
0010
0000
1000
0001
0000
0001
0000
0000
0100
0000
0000
0000
,
0100
0001
0100
0001
0100
0000
0001
1000
0000
1000
0100
0000
0000
0010
0000
0000
,
1000
0100
1000
0100
1000
0000
0010
0100
0010
0100
0010
0000
0100
0000
0001
0000
,
1000
0000
0000
0001
0000
0000
0100
0000
0001
0000
0000
0100
0000
0000
0010
0000
,
1000
0000
0000
0001
0000
0000
1000
0000
0100
0000
0000
0010
0000
0000
1000
0000
,
0001
0000
0000
0100
0000
0000
0010
0000
0010
0000
0000
1000
0000
0000
0010
0000
,
0001
0000
0000
0100
0000
0000
0001
0000
1000
0000
0000
0100
0000
0000
1000
0000
,
1100
0000
0000
1100
0000
0000
0001
0000
0011
0000
0000
0011
0000
0000
0001
0000
,
1001
0000
0000
1001
0000
0000
1000
0000
1100
0000
0000
1100
0000
0000
0001
0000
,
1001
0000
0000
1001
0000
0000
1010
0000
1010
0000
0000
1100
0000
0000
1100
0000
,
1100
0000
0001
0010
0001
0000
0100
0001
0100
0001
0010
0000
1000
0000
0001
0000
,
2000
0002
0000
0000
,
0000
0000
0000
0000
,
3003
0000
0000
0000
;
