#TITLE:Better The Devil You Know;
#SUBTITLE:;
#ARTIST:Kylie Minogue;
#TITLETRANSLIT:;
#SUBTITLETRANSLIT:;
#ARTISTTRANSLIT:;
#CREDIT:;
#BANNER:Better The Devil You Know.png;
#BACKGROUND:Better The Devil You Know-bg.png;
#LYRICSPATH:;
#CDTITLE:;
#MUSIC:Better the Devil You Know.ogg;
#OFFSET:-0.187;
#SAMPLESTART:59.340;
#SAMPLELENGTH:12.000;
#SELECTABLE:YES;
#BPMS:0.000=120.210;
#STOPS:;
#BGCHANGES:;

//---------------dance-single - Copied from----------------
#NOTES:
     dance-single:
     Copied from:
     Challenge:
     12:
     0.577,0.559,0.294,0.034,0.479:
0000
0000
0000
0000
,
0000
0000
0000
0000
,
0000
0000
0000
0000
,
0000
0000
0000
0000
,
0000
0000
1000
0100
1000
0100
1000
0100
0000
0100
0000
0010
0000
0001
0010
0000
,
0000
0000
0010
0001
0010
0001
0010
0100
0000
1000
0000
0010
0000
1000
0010
0000
,
1000
0100
0000
1000
0100
0010
0001
1000
0000
0000
0001
0000
1000
0000
0000
0000
,
0001
1000
0000
0001
0100
0010
1000
0001
0000
0000
0000
0000
1000
0000
0001
0000
,
1000
0000
0010
0000
0100
0000
0001
0010
0000
0010
0100
0000
1000
0000
0010
0000
,
1000
0000
0100
0000
0010
0000
0001
1000
0000
1000
0010
0000
0100
0000
0001
0000
,
0010
0000
0100
0000
1000
0100
0000
1000
0001
0000
1000
0010
0000
1000
0001
0000
,
1000
0000
0010
0000
0000
0100
0000
0000
0001
0000
0000
0010
0000
0000
0100
0000
,
1100
0000
0001
0000
0100
0000
0010
0100
0000
0100
0010
0000
1000
0000
0001
0000
,
0100
0000
0001
0000
0010
0001
0000
1000
0001
0000
0100
0001
0000
1000
0001
0000
,
0100
0010
0000
1000
0100
0010
0001
1000
0000
0000
0001
0000
1000
0000
0001
0000
,
1000
0010
0000
0100
0001
0010
0100
1000
0001
0000
0000
1000
0000
0000
0100
0000
,
0110
0000
1001
0000
0110
0000
1000
0010
,
0101
0000
0001
0010
1100
0000
1000
1001
,
0001
0000
1000
0000
1001
0000
0000
0000
2000
0000
0000
3020
0000
0000
0130
0000
,
0001
0000
0000
0000
0010
0000
0100
0010
0000
0100
0010
0000
0001
0000
0001
0000
,
1000
0000
0001
0000
0001
0000
1000
0100
0000
0010
0001
0000
1000
0000
0001
0000
,
0100
0010
1000
0001
0100
0100
0010
0010
,
1001
0000
1000
0000
0001
0000
0000
0000
0002
0000
0000
0203
0000
0000
0310
0000
,
1000
0000
0100
0000
0010
0000
0001
1000
0000
0010
1000
0000
0001
0000
0101
0000
,
0100
0000
0001
0000
0001
0000
1000
0010
0000
0100
0010
0000
1000
0000
1100
0000
,
0000
1000
0001
0000
0001
0100
0010
1000
,
0100
0000
0010
0000
0010
0000
0001
0010
0000
0100
0010
0000
0001
0000
1000
0000
,
0010
0000
1000
0000
1000
0000
0100
0010
0000
0001
0010
0000
0100
0000
1000
0000
,
0001
0000
1000
0000
1000
0000
0001
0100
0000
1000
0100
0000
0001
0000
1000
0000
,
0001
0000
0010
0000
0010
0000
0001
1000
0000
1000
0001
0000
0001
0100
0000
0100
,
0010
0000
1000
0000
1000
0000
0100
0010
0000
0010
0001
0000
1000
0000
0001
0000
,
1001
0000
0001
0000
1000
0000
0010
0100
0000
0100
0001
0000
0010
0000
0100
0000
,
0110
0000
1001
0000
1010
1000
0100
0011
,
0001
0000
1000
0000
1000
0010
0000
0010
0100
0000
0001
0010
0000
0010
0100
0000
,
0110
0000
0100
0000
0100
0000
0100
0010
0000
0100
1000
0000
1000
0001
0000
0000
,
1001
0000
0001
0000
0001
0000
1000
0010
0000
0100
0001
0000
0010
0000
0001
0000
,
0011
0000
0000
0001
0000
0000
1000
0000
1010
0000
0000
1000
0000
0000
0001
0000
,
0001
1000
0000
1000
0100
0010
0001
0100
0010
0000
0010
0000
1000
0000
1000
0000
,
1001
0000
1000
0000
0010
0000
0100
0001
0000
0001
1000
0000
0100
0000
0010
0000
,
1001
0000
0001
0000
0100
0000
0100
0010
0000
0010
1000
0000
0100
0000
0110
0000
,
0110
0000
0010
0001
0100
1000
0010
0001
,
0100
0000
0010
0000
0000
1000
0000
0000
0100
0000
0000
0010
0000
0000
0001
0000
,
1001
0000
1000
0000
1000
0000
1000
0001
0000
0100
0001
0000
0010
0000
0100
0000
,
1100
1000
0001
0100
0010
1000
0100
0010
,
0001
0000
0000
0001
0000
0000
0001
0000
1000
0000
0000
1000
0000
0000
1000
0000
,
0100
0010
0000
0100
0010
0001
0100
0010
1000
0000
0000
0000
0110
0000
0000
0000
,
1001
0000
1100
0000
0101
0000
0001
0100
,
1010
0000
1000
0100
0011
0000
0001
1001
,
1000
0010
0100
0001
0001
0100
0100
0010
,
1000
0000
1000
0000
0100
1000
0000
0100
1000
0000
1000
0100
0000
1000
0001
0000
,
0000
0100
0010
1000
0100
0100
0010
0010
,
0000
0001
0010
0001
0000
0100
1000
0100
,
0000
0001
0010
0001
1000
1000
0001
0001
,
1000
0000
0001
0000
0100
0001
0000
0100
0001
0000
0001
0100
0000
0001
0100
0000
,
0000
0010
1000
0001
0100
0100
0010
0010
,
0000
1000
0010
1000
0000
0100
0001
0100
,
0000
0000
1001
0000
1000
0100
0000
0100
0010
0000
0010
0001
0000
0001
1000
0000
,
0000
0000
1001
0000
0001
0100
0000
0100
0010
0000
0010
1000
0000
1000
0001
0000
;

//---------------dance-single - ----------------
#NOTES:
     dance-single:
     :
     Medium:
     8:
     0.357,0.389,0.126,0.042,0.134:
0000
0000
0000
0000
,
0000
0000
0000
0000
,
0000
0000
0000
0000
,
0000
0000
0000
0000
,
1000
0100
0010
0001
,
0100
0010
1000
0001
,
0100
0000
0000
0000
0100
0000
0000
0100
0000
0000
0000
0000
0000
0000
0000
0000
,
0010
0000
0000
0000
0010
0000
0000
0010
0000
0000
0000
0000
1000
0000
0001
0000
,
1000
0100
0010
0000
0010
0001
1000
0000
,
1000
0001
0100
0000
0100
0010
1000
0000
,
0000
0000
1000
0000
0000
1000
0000
0000
1000
0000
0000
0100
0000
0000
0100
0000
,
0000
0000
0010
0000
0000
0001
0000
0000
0100
0000
0000
0010
0000
0000
1000
0000
,
0100
1000
0100
0000
0100
0001
0100
0000
,
1000
0010
1000
0000
1000
0100
1000
0000
,
0020
0000
0000
0000
1000
0000
0000
1030
0000
0000
0000
0000
1000
0000
0000
0000
,
0200
0000
0000
0000
0001
0000
0000
0301
0000
0000
0100
0000
0000
1000
0000
0000
,
0010
0000
1000
0000
0100
0000
0010
0001
,
0001
0000
0100
1000
1000
0000
1000
0100
,
0001
0000
0000
0000
0010
0000
0000
0000
0100
0000
0000
0100
0000
0000
0100
0000
,
1000
0000
0001
0000
1000
0000
0100
0100
,
0100
0010
0001
0100
,
0010
1000
0100
1000
0010
1000
0100
1000
,
0010
0000
0000
0000
0100
0000
0000
0000
0001
0000
0000
0010
0000
0000
0100
0000
,
1000
0000
2000
0000
0000
3100
0000
0100
,
0010
0000
0001
0000
0100
1000
0100
0001
,
1000
0000
0100
0000
0010
0000
0001
1000
,
0001
0000
0100
0000
0010
0000
1000
0100
,
0000
0000
0010
0001
0000
0000
0100
0020
,
0000
0000
0000
0001
0000
0100
0000
2030
,
0000
0000
0000
0000
0100
0000
0000
0000
0001
0000
0010
0000
0000
0010
0000
0000
,
3010
0000
1000
0000
0001
0000
0000
0000
0001
0000
1000
0000
0000
0010
0000
0000
,
0100
0001
1000
0000
1000
0000
1000
0001
,
0100
0000
0001
0000
0010
0100
0000
1001
,
0000
0000
1000
0000
0000
0010
0000
0000
0100
0000
0001
0000
0000
0010
0000
0000
,
0100
0000
1000
0000
0001
0000
0000
0000
0001
0000
1000
0000
0000
0100
0000
0000
,
0010
0000
0001
0100
0000
0010
0000
1000
,
0100
0000
0000
0100
0000
0000
0100
0000
0010
0000
0000
0010
0000
0000
0010
0000
,
0001
0101
1100
1010
,
0011
0000
0001
0000
1000
0000
0000
0000
1000
0000
0010
0000
0000
1000
0000
0000
,
0001
1000
0100
0000
0100
0000
1000
0010
,
0000
0010
1000
0100
1000
0010
0000
0100
,
0000
0000
0001
0000
0000
0010
0000
0000
0100
0000
1000
0000
0000
0010
0000
0000
,
0100
0000
0000
0000
0100
0000
0000
0000
0100
0000
0001
0000
0000
1000
0000
0000
,
0100
0001
0100
1000
0100
0000
0010
0001
,
0010
0000
0000
0010
0000
0000
0010
0000
0001
0000
0000
0001
0000
0000
0001
0000
,
0100
0101
1100
1010
,
0011
1001
1001
0110
,
0110
0000
1001
0000
1001
0000
1000
0001
,
0000
0000
0001
0100
0001
0000
0001
0000
,
0000
0000
0001
0000
0000
0001
0000
0000
0001
0000
0000
0100
0000
0000
0010
0000
,
0000
0000
1000
0000
0100
1000
0100
0000
,
0010
0001
0010
0000
0100
1000
0100
0000
,
0010
0000
0001
0010
0100
0000
0100
0000
,
0000
0000
0100
0000
0000
0100
0000
0000
0100
0000
0000
1000
0000
0000
0001
0000
,
0000
0001
1000
0001
0010
0001
1000
0001
,
0000
0001
0010
0001
0000
0100
1000
0100
,
0000
0000
0001
0000
0000
0001
0000
0000
0001
0000
0000
0100
0000
0000
0100
0000
,
0000
0000
0010
0000
0000
0010
0000
0000
0010
0000
0000
1000
0000
0000
1000
0000
;

//---------------dance-single - ----------------
#NOTES:
     dance-single:
     :
     Hard:
     11:
     0.492,0.535,0.294,0.017,0.273:
0000
0000
0000
0000
,
0000
0000
0000
0000
,
0000
0000
0000
0000
,
0000
0000
0000
0000
,
0000
0000
1000
0000
0100
0000
0010
0001
0000
1000
0000
0001
0000
1000
0010
0000
,
0000
0000
0010
0000
1000
0000
0100
0010
0000
0001
0000
0100
0000
0001
0010
0000
,
0100
1000
0000
1000
0100
0010
0100
1000
0000
0000
0000
0000
0000
0000
0000
0000
,
0001
0100
0000
0001
0100
0010
0100
0001
1000
0000
0000
0000
0100
0000
0010
0000
,
0001
1000
0001
0100
0001
0010
0100
1000
,
0010
1000
0100
0010
0001
1000
0001
0100
,
0010
0000
1000
0000
0000
0100
0000
0000
0010
0000
0000
0001
0000
0000
1000
0000
,
0000
0000
0001
0000
0000
0100
0000
0000
0010
0000
0000
1000
0000
0000
0100
0000
,
0010
0100
1000
0010
0100
0001
0010
1000
,
0010
0000
0001
0000
0000
0100
0000
0000
0010
0000
0000
1000
0000
0000
0100
0000
,
1000
0010
0000
0010
0100
0001
0100
0010
0000
0000
1000
0000
1000
0000
0000
0000
,
0001
0010
0000
0010
0100
0010
0001
0100
0010
0000
0000
1000
0000
0000
0100
0000
,
0110
0000
1001
0000
0110
0000
1000
0010
,
0110
0000
0001
0010
0110
0000
1001
1001
,
0100
0000
0000
0000
0100
0000
0000
0000
0001
0000
0000
0100
0000
0000
0001
0000
,
1000
0000
2000
0000
0100
0000
3001
0100
,
1000
0000
0100
0000
0001
0000
0000
0001
0000
0000
0001
0000
0001
0000
0001
0000
,
1000
0100
0001
0001
0100
1000
1000
0001
,
1000
0000
0000
0000
1010
0000
0000
0000
1000
0000
0000
0010
0000
0000
0100
0000
,
0002
0000
1000
0000
0003
0101
0000
1100
,
1000
0000
0010
0000
0100
0000
0000
0001
0000
0000
0100
0000
0010
0000
1001
0000
,
0000
0000
1100
0000
0101
0000
0001
1000
,
0100
0000
0010
0000
0010
0000
0000
0010
0000
0000
0010
0000
0100
0000
0010
0000
,
0001
1000
0010
1000
0000
0100
0010
0001
,
0100
1000
0100
0001
0010
0100
1000
0010
,
0001
0010
1000
0100
0010
0001
1000
0001
,
1001
0000
0001
0000
0100
0000
0010
1000
0000
0100
0010
0000
0001
0000
1000
0000
,
1001
0000
0001
0000
0010
0000
0100
1000
0000
1000
0010
0000
0100
0000
0001
0000
,
0101
0000
1001
0000
1100
1000
0010
1000
,
0100
0000
0010
0000
0000
0001
0000
0000
0100
0000
0010
0000
0000
1000
0000
0000
,
1100
0000
1000
0000
0010
0000
0100
0001
0000
0010
0100
0000
1000
0000
0010
0000
,
1000
0100
0010
0001
0100
1000
0100
0001
,
0010
0000
0000
0010
0000
0000
0010
0000
0100
0000
0000
0100
0000
0000
0100
0000
,
1001
0000
1100
0000
0101
0001
1001
0000
,
1010
0000
1000
0000
0010
0000
0100
0001
0000
0001
1000
0000
0001
0000
0100
0000
,
0110
0000
0010
0000
1000
0000
0100
0010
0000
0001
0100
0000
0010
0000
0110
0000
,
0000
0010
1000
0100
0001
0100
1000
0010
,
0100
0000
0001
0000
0000
0010
0000
0000
0100
0000
0000
1000
0000
0000
0010
0000
,
1010
0000
1000
0000
0100
0000
0010
0001
0000
0001
0100
0000
0010
0000
1000
0000
,
0100
0010
0001
0100
0010
0100
0001
0010
,
0001
0000
0000
0001
0000
0000
0001
0000
1000
0000
0000
1000
0000
0000
1000
0000
,
1001
0000
0000
0000
0101
0000
0000
0000
1100
0000
0000
1000
0001
0000
1000
0000
,
0001
0000
0101
0000
1100
0000
1000
0010
,
0110
0000
0001
0010
0110
0000
0100
1000
,
1100
1000
0010
0100
0001
0001
0001
0010
,
0100
0000
1000
0000
0000
0010
0000
0000
1000
0000
0000
0100
0000
0000
0010
0000
,
0001
0100
0001
0010
0100
0100
0100
0100
,
0010
0001
0010
0001
0000
0100
1000
0100
,
0000
0001
0010
0100
1000
1000
1000
0010
,
1000
0000
0100
0000
0000
0100
0000
0000
0100
0000
0000
1000
0000
0000
0010
0000
,
0000
0010
0100
0001
0010
0010
0010
0000
,
0000
0001
0010
0001
0000
0100
1000
0100
,
0001
0000
0001
0000
0000
0001
0000
0000
0001
0000
0000
0010
0000
0000
0010
0000
,
0000
0000
1000
0000
0000
1000
0000
0000
1000
0000
0000
0010
0000
0000
0010
0000
;

//---------------dance-single - ----------------
#NOTES:
     dance-single:
     :
     Easy:
     6:
     0.270,0.340,0.227,0.059,0.004:
0000
0000
0000
0000
,
0000
0000
0000
0000
,
0000
0000
0000
0000
,
0000
0000
0000
0000
,
1000
0100
1000
0000
,
0001
0010
0001
0000
,
2000
0000
0000
0000
0000
0000
0000
3000
0000
0000
0000
0000
0000
0000
0000
0000
,
0002
0000
0000
0000
0000
0000
0000
0003
0100
0000
0000
0000
0010
0000
0000
0000
,
1001
1000
0100
0001
,
0100
1000
0010
0100
,
0001
0010
0010
0100
,
1000
0010
1000
0100
,
0110
0010
0001
0100
,
0001
0010
0100
1000
,
0010
0000
0000
0000
2000
0000
0000
3000
0100
0000
0000
0000
0010
0000
0000
0000
,
0001
0000
0000
0000
0200
0000
0000
0300
0001
0000
0000
0000
0010
0000
0000
0000
,
0110
1000
1100
0001
,
0101
0000
1000
0000
1010
0000
0001
0001
,
0000
0000
1000
0100
,
1000
0000
0100
0000
0000
0000
0010
0010
,
0000
0000
0000
0000
,
0000
0001
0100
1000
,
0000
0000
1000
0100
,
0001
0000
0002
0000
0000
1003
0000
1000
,
0000
0000
0000
1000
,
0100
0010
0001
1000
,
1001
0000
0000
0000
0000
0000
1000
1000
,
0000
0000
0100
0100
0000
0000
0010
0020
,
0000
0000
0000
0001
0000
0100
0000
1000
,
0000
1000
0100
0031
,
1001
0001
1000
0100
,
0110
0010
0001
0100
,
0010
0010
1000
1000
,
0100
1000
0010
0100
,
0101
0001
0010
0100
,
1100
1000
0001
1000
,
0010
0010
0100
0100
,
1001
1001
0110
0110
,
1001
1000
0100
0010
,
0011
0000
0001
0000
0100
0000
0010
1000
,
0000
0000
1000
0000
0200
0000
0000
0310
,
0000
0001
0100
0010
,
1010
1000
0100
0010
,
0011
0001
0100
0010
,
1000
1000
0001
0001
,
1001
1001
0110
0110
,
1001
1000
1100
0001
,
0101
0000
1000
0000
1010
0000
1000
0001
,
0000
0001
0100
0100
,
0010
1000
0100
0010
,
0001
1000
0100
0100
,
0000
0010
0000
0100
,
1000
0001
1000
0100
,
1000
0010
0010
0100
,
0001
0010
0001
1000
,
0001
0010
0000
0100
,
0000
1000
1000
1000
,
0000
0000
0000
0000
0001
0000
0000
0000
0001
0000
0000
1000
0000
0000
0001
0000
;

//---------------dance-single - ----------------
#NOTES:
     dance-single:
     :
     Beginner:
     4:
     0.149,0.218,0.034,0.000,0.000:
0000
0000
0000
0000
,
0000
0000
0000
0000
,
0000
0000
0000
0000
,
0000
0000
0000
0000
,
1000
0000
0000
0000
,
0001
0000
0000
0000
,
0100
0000
0000
0000
,
0100
0000
0000
0000
,
1001
0000
1000
0000
,
0100
0000
0100
0000
,
0010
0000
0010
0000
,
0001
0000
0001
0000
,
1001
0000
0001
0000
,
0100
0000
0100
0000
,
0010
0000
0010
0000
,
1000
0000
1000
0000
,
0001
1000
1000
0001
,
0001
1000
1000
0001
,
0001
0000
0100
0000
,
0010
0000
0010
0000
,
0100
0000
0000
0000
,
0100
0100
0100
0000
,
0001
0000
0010
0000
,
0100
0000
1000
1000
,
1000
0000
0100
0000
,
0010
0000
0001
0000
,
0100
0000
1000
0000
,
0100
0000
0100
0000
,
0100
0000
0001
0001
,
0001
0000
0010
0010
,
0010
0000
0000
0100
,
0100
0000
0000
1000
,
1000
0100
0100
0010
,
0010
0000
0000
0001
,
0001
0000
0000
0100
,
0100
0000
0000
0000
,
0010
0000
1000
0000
,
0001
0000
0001
0001
,
0001
0000
0000
0100
,
0100
0000
0000
0000
,
0010
0010
0010
0000
,
1000
0000
1000
0000
,
1001
0000
0000
0001
,
1001
0000
0000
0000
,
0001
0000
0100
0000
,
1000
1000
1000
0000
,
0100
0000
0001
0000
,
1000
0000
0001
0000
,
1000
0000
1000
1000
,
1000
0000
1000
0000
,
0100
0000
0001
0001
,
0001
0000
0001
0000
,
0100
0000
0001
0001
,
0001
0000
0001
0000
,
0010
0000
0010
0010
,
0010
0000
0100
0000
,
1000
1000
1000
0000
,
0001
0001
0001
0001
;

//---------------dance-double - ----------------
#NOTES:
     dance-double:
     :
     Easy:
     7:
     0.289,0.365,0.210,0.000,0.034: // measure 1
00000000
00000000
00000000
00000000
,  // measure 2
00000000
00000000
00000000
00000000
,  // measure 3
00000000
00000000
00000000
00000000
,  // measure 4
00000000
00000000
00000000
00000000
,  // measure 5
00010000
00001000
00010000
00001000
,  // measure 6
00100000
00010000
00100000
00010000
,  // measure 7
10000000
00000000
00000000
00000000
10000000
00000000
00000000
10000000
00000000
00000000
00000000
00000000
01000000
00000000
00000000
00000000
,  // measure 8
00010000
00000000
00000000
00000000
00001000
00000000
00000000
00001000
00000000
00000000
00000000
00000000
00000100
00000000
00000000
00000000
,  // measure 9
00000001
00000010
00000100
00000010
,  // measure 10
00000001
00000100
00001000
00000100
,  // measure 11
00000001
00000100
00001000
00010000
,  // measure 12
01000000
10000000
00100000
00010000
,  // measure 13
00001000
00000010
00000001
00001000
,  // measure 14
00001000
00000001
00000010
00000100
,  // measure 15
00000100
00000000
00000000
00000000
00010000
00000000
00000000
00001000
00000000
00000000
00000000
00000000
00100000
00000000
00000000
00000000
,  // measure 16
00100000
00000000
00000000
00000000
00010000
00000000
00000000
10000000
00000000
00000000
00000000
00000000
00100000
00000000
00000000
00000000
,  // measure 17
10000000
01000000
01000000
00010000
,  // measure 18
00010000
00000000
00001000
00000000
00001000
00000000
00010000
00001000
,  // measure 19
00010000
00000000
00010000
00000100
,  // measure 20
00000010
00000000
00000010
00000000
00000000
00000000
00000010
00000010
,  // measure 21
00000000
00000001
00000100
00001000
,  // measure 22
00000000
00010000
01000000
11000000
,  // measure 23
00000000
00000000
10000000
00100000
,  // measure 24
01000000
00000000
01000000
00000000
00000000
00001000
00000000
00010000
,  // measure 25
00000000
00000100
00000010
00000001
,  // measure 26
00000100
00000000
00001000
00000000
00010000
00001000
00010000
00000000
,  // measure 27
00001000
00010000
00001000
00100000
,  // measure 28
01000000
10000000
00100000
10000000
,  // measure 29
01000000
00100000
00001000
00010000
,  // measure 30
00000100
00000001
00000100
00000010
,  // measure 31
00000110
00000001
00000100
00001000
,  // measure 32
00011000
00001000
00100000
00010000
,  // measure 33
00110000
00000000
00110000
00000000
10100000
00000000
00000000
10010000
,  // measure 34
00000000
10000000
01000000
00100000
,  // measure 35
10010000
10000000
00010000
01000000
,  // measure 36
01010000
01000000
00001000
00010000
,  // measure 37
00011000
00011000
00001100
00001100
,  // measure 38
00001000
00000001
00000100
00000100
,  // measure 39
00000110
00000010
00010000
00001000
,  // measure 40
00011000
00001000
00100000
00010000
,  // measure 41
10010000
00000000
10000000
00000000
01000000
00100000
00000000
00110000
,  // measure 42
00000000
00100000
00001000
00010000
,  // measure 43
00011000
00010000
00000100
00000010
,  // measure 44
00000110
00000001
00000100
00001000
,  // measure 45
00011000
00011000
00110000
00110000
,  // measure 46
10010000
01000000
00100000
10000000
,  // measure 47
01100000
00100000
00001000
00000100
,  // measure 48
00001000
00000000
00010000
00000000
00001000
00000000
00000010
00000001
,  // measure 49
00001000
00000001
00000100
00000100
,  // measure 50
00001000
00010000
01000000
10000000
,  // measure 51
00100000
00000000
10000000
00000000
00010000
00010000
00010000
00000000
,  // measure 52
10000000
01000000
00010000
00001000
,  // measure 53
00000100
00000001
00000010
00000010
,  // measure 54
00000001
00000100
00001000
00010000
,  // measure 55
01000000
00000000
10000000
00000000
00100000
00100000
00100000
00000000
,  // measure 56
10000000
01000000
00010000
00001000
,  // measure 57
00000000
00000000
00010000
00000000
00000000
00010000
00000000
00000000
00010000
00000000
00000000
00010000
00000000
00000000
00010000
00000000
,  // measure 58
00000000
00000000
00001000
00000000
00000000
00001000
00000000
00000000
00001000
00000000
00000000
00001000
00000000
00000000
00001000
00000000
;

//---------------dance-double - ----------------
#NOTES:
     dance-double:
     :
     Medium:
     9:
     0.414,0.413,0.185,0.000,0.122:
00000000
00000000
00000000
00000000
,
00000000
00000000
00000000
00000000
,
00000000
00000000
00000000
00000000
,
00000000
00000000
00000000
00000000
,
10000000
00000000
01000000
00000000
01000000
00000000
00000000
00100000
00000000
00000000
00100000
00000000
00001000
00000000
00010000
00000000
,
00000100
00000000
00000010
00000000
00000010
00000000
00000000
00000001
00000000
00000000
00000001
00000000
00000100
00000000
00000010
00000000
,
00001000
00001100
00011000
00000000
,
10010000
00000000
00110000
00000000
00011000
00000000
00010000
00000100
,
00001000
00000000
00001000
00000000
00001000
00000010
00000100
00000001
,
00000010
00000000
00000010
00000000
00000010
00000100
00010000
00001000
,
00100000
00000000
00100000
00000000
00100000
00010000
10000000
00100000
,
01000000
00000000
00000000
00001000
00000000
00000000
00010000
00000000
00000100
00000000
00000000
00010000
00000000
00000000
00001000
00000000
,
00100000
00000000
00100000
00000000
00100000
01000000
10000000
00100000
,
01000000
00000000
01000000
00000000
00010000
00100000
00001000
00010000
,
00000010
00000000
00000000
00000000
00000010
00000000
00000000
00000010
00000000
00000000
00000000
00000000
00000000
00000000
00000000
00000000
,
00001000
00000000
00000000
00000000
00001000
00000000
00000000
00000100
00001000
00000000
00000000
00000100
00000000
00000000
00010000
00000000
,
00011000
00000000
10010000
00000000
11000000
00000000
10000000
00100000
,
00010000
00000000
00001000
00000010
00000001
00000000
00000001
00001000
,
00000001
00000000
00000000
00000000
00000001
00000000
00000000
00000000
00000100
00000000
00000000
00000010
00000000
00000000
00010000
00000000
,
00001000
00000000
00010000
00000000
01000000
10000000
00100000
00100000
,
10000000
01000000
00010000
00001000
,
00000100
00000001
00000100
00001000
00010000
00010000
00001000
00001000
,
00010000
00000000
00000000
00000000
01000000
00000000
00000000
00000000
10000000
00000000
00000000
00100000
00000000
00000000
01000000
00000000
,
00010000
00000000
00110000
00000000
00000000
00011000
00000000
00000100
,
00001000
00000010
00000010
00000000
00000100
00000001
00000010
00001000
,
00000000
00000000
00010000
00000000
01000000
00000000
10000000
01000000
,
10000000
00010000
01000000
00000000
00001000
00000000
00010000
00000100
,
00001000
00000000
00001000
00000001
00000100
00000000
00000100
00000010
,
00001000
00000000
00000100
00010000
00000000
00001000
00000000
00100000
,
00010000
10000000
00100000
01000000
00010000
10000000
01000000
00100000
,
00001000
00000000
00000000
00000000
00010000
00000000
00000000
00000000
00000100
00000000
00000000
00000010
00000000
00000000
00000001
00000000
,
00001000
00000000
00001000
00000000
00000001
00000100
00001000
00010000
,
00011000
00000000
10010000
00000000
10000000
01000000
00100000
00010000
,
10000000
00000000
00100000
00000000
00000000
01000000
00000000
00000000
00001000
00000000
00000000
00010000
00000000
00000000
00000100
00000000
,
00001100
00000000
00000000
00000000
00001000
00000000
00000000
00000000
00001000
00000000
00000010
00000000
00000000
00000100
00000000
00000000
,
00000001
00000010
00000100
00000010
00000001
00000100
00001000
00010000
,
01000000
00000000
00000000
01000000
00000000
00000000
01000000
00000000
10000000
00000000
00000000
10000000
00000000
00000000
10000000
00000000
,
00010000
10000000
01000000
00100000
00001000
00001000
00010000
00010000
,
00001100
00000000
00000000
00000000
00001000
00000000
00000000
00000000
00000001
00000000
00000100
00000000
00000000
00000010
00000000
00000000
,
00001100
00000000
00000100
00010000
00000000
00001000
00100000
00000000
,
00100000
00010000
01000000
00100000
10000000
01000000
00100000
00001000
,
00010000
00000000
00000100
00000000
00000000
00000010
00000000
00000000
00000001
00000000
00000000
00000100
00000000
00000000
00001000
00000000
,
00011000
01000000
01000000
00000000
10000000
00100000
10000000
01000000
,
00100000
00010000
01000000
00001000
00000000
00010000
00001000
00010000
,
00010100
00000000
00000000
00010000
00000000
00000000
00000100
00000000
00000010
00000000
00000000
00000001
00000000
00000000
00000100
00000000
,
00001000
00000000
00010000
00000000
01000000
00000000
10000000
00000000
01000000
00000000
00000000
00100000
00000000
00000000
00010000
00000000
,
10010000
00000000
01100000
00000000
10010000
00000000
10000000
00100000
,
01010000
00000000
01000000
00001000
00011000
00000000
00010000
00000100
,
00001000
00000010
00000100
00000001
00000010
00000010
00000100
00000100
,
00010000
00000000
00001000
00000000
00000000
00001000
00000000
00000000
00001000
00000000
00000000
01000000
00000000
00000000
00100000
00000000
,
00000000
00100000
10000000
01000000
10000000
01000000
00010000
00001000
,
00010000
00001000
00000010
00001000
00000000
00010000
01000000
00010000
,
00000000
00001000
00000100
00000001
00001000
00000001
00000010
00000001
,
00000100
00000000
00000010
00000000
00000000
00000010
00000000
00000000
00000010
00000000
00000000
00000100
00000000
00000000
00010000
00000000
,
00000000
01000000
00100000
10000000
01000000
00010000
01000000
10000000
,
00100000
00010000
00001000
00010000
00000000
00010000
00001000
00000100
,
00000000
00000000
00000001
00000000
00000000
00000010
00000000
00000000
00000001
00000000
00000000
00000100
00000000
00000000
00000100
00000000
,
00000000
00000000
00001000
00000000
00000000
00010000
00000000
00000000
00001000
00000000
00000000
00100000
00000000
00000000
00100000
00000000
;

//---------------dance-double - ----------------
#NOTES:
     dance-double:
     :
     Hard:
     12:
     0.529,0.511,0.227,0.000,0.227:
00000000
00000000
00000000
00000000
,
00000000
00000000
00000000
00000000
,
00000000
00000000
00000000
00000000
,
00000000
00000000
00000000
00000000
,
00010000
01000000
10000000
00100000
10000000
01000000
00010000
00001000
,
00000100
00000001
00000010
00000001
00000100
00001000
00010000
00001000
,
00100000
00010000
00000000
00010000
10000000
00000000
10000000
01000000
00000000
00000000
00010000
00000000
00001000
00000000
00000000
00000000
,
00000100
00000001
00000000
00000001
00001000
00000000
00001000
00000010
00001000
00000000
00000000
00000000
00000100
00000000
00000010
00000000
,
00000001
00000100
00001000
00000001
00001000
00000100
00000001
00000010
,
00000100
00010000
00001000
00010000
00000100
00010000
00001000
00100000
,
00010000
00000000
10000000
00000000
00000000
00100000
00000000
00000000
01000000
00000000
00000000
00010000
00000000
00000000
00100000
00000000
,
00001000
00000000
00010000
00000000
00000000
00000100
00000000
00000000
00001000
00000000
00000000
00000010
00000000
00000000
00000100
00000000
,
00000001
00000010
00000001
00000100
00000010
00010000
00001000
00100000
,
00010000
00000000
01000000
00000000
00000000
10000000
00000000
00000000
01000000
00000000
00000000
00010000
00000000
00000000
00100000
00000000
,
00001000
00010000
00000100
00001000
00001100
00000000
00001001
00000000
,
00000001
00000000
00000100
00000000
00000001
00000000
00000010
00000000
00000010
00000000
00000000
00001000
00000000
00000000
00010000
00000000
,
00011000
00000000
10010000
00000000
00011000
00000000
00100000
00001000
,
00011000
00000000
00000010
00010000
00011000
00000000
00011000
00011000
,
01000000
00000000
00000000
00000000
01000000
00000000
00000000
00000000
10000000
00000000
00000000
00100000
00000000
00000000
01000000
00000000
,
00010000
00000000
10010000
00000000
10000000
01000000
00100000
00100000
,
00001000
00000000
00001000
00000000
00010000
00000100
00001000
00000100
,
00000010
00000001
00000100
00001000
00000100
00000100
00000100
00000000
,
00000101
00000000
00000000
00000000
00001001
00000000
00000000
00000000
00001000
00000000
00000100
00000000
00000000
00000010
00000000
00000000
,
00001000
00000000
00001000
00000000
00010000
00001000
00100000
00010000
,
10000000
00100000
10000000
01000000
00010000
00001000
00000100
00000001
,
00000101
00000000
00000011
00000000
00001001
00000100
00000010
00010000
,
00001000
00010000
00000100
00010000
01000000
10000000
00100000
01000000
,
00001000
00010000
00001000
00000100
00000001
00000010
00000100
00001000
,
00000100
00000001
00000100
00001000
00000010
00010000
01000000
10000000
,
01000000
00000000
00100000
00000000
00010000
00000000
01000000
00000000
10000000
00000000
01000000
00000000
00010000
00100000
00000000
00100000
,
00001000
00000000
00010000
00000000
00000100
00000000
00001000
00000000
00000100
00000000
00000010
00000000
00000001
00000100
00000000
00000100
,
00000010
00010000
00001000
00100000
00010000
01000000
00100000
10000000
,
10010000
00000000
01100000
00000000
11000000
10000000
01000000
00100000
,
00001000
00000000
00010000
00000000
00000100
00000000
00001000
00000000
00000010
00000000
00000100
00000000
00000001
00000010
00000000
00000010
,
00000100
00000000
00010000
00000000
00001000
00000000
00010000
00000000
01000000
00000000
10000000
00000000
00100000
01000000
00000000
01000000
,
00010000
00100000
01000000
00100000
00010000
01000000
00100000
10000000
,
10000000
01000000
00010000
00001000
00000100
00000001
00000100
00001000
,
00010000
00001000
00000000
00001000
00010000
00000000
00001000
00000000
00100000
00000000
00100000
00000000
01000000
00000000
01000000
00000000
,
10010000
00000000
10000000
00000000
00100000
00000000
10000000
00000000
01000000
00000000
00010000
00000000
00001000
00000100
00000000
00000100
,
00000001
00000010
00000010
00000100
00010000
00001000
00100000
00110000
,
00110000
00010000
01000000
00100000
10000000
01000000
00010000
00001000
,
00000100
00000000
00000001
00000000
00000010
00000100
00000000
00000100
00010000
00000000
00010000
00001000
00000000
00001000
00100000
00000000
,
00010000
00000000
01000000
00000000
00100000
00000000
10000000
00000000
01000000
00000000
00010000
00000000
00001000
00010000
00000000
00010000
,
00001000
00000100
00000001
00000010
00001000
00000010
00000001
00000100
,
00000010
00001000
00000100
00001000
00000010
00010000
01000000
10000000
,
00100000
10000000
00000000
10000000
00010000
10000000
00010000
10000000
00010000
00000000
00000000
10000000
00000000
00000000
00010000
00000000
,
00100000
00000000
00110000
00000000
00011000
00000000
00010000
00000010
,
00001010
00000000
00001000
00000001
00000011
00000000
00001001
00001001
,
00000100
00000001
00000010
00000100
00010000
00010000
00001000
00001000
,
00100000
00000000
00010000
00000000
01000000
00100000
00000000
01000000
00100000
00000000
10000000
01000000
00000000
00100000
00010000
00000000
,
00100000
00001000
00010000
00000100
00000010
00000010
00000010
00000010
,
00000100
00000010
00000001
00000010
00000000
00000100
00001000
00000100
,
00000010
00000001
00000100
00000010
00001000
00001000
00000100
00000100
,
00001000
00000000
00000010
00000000
00000100
00000010
00000000
00000100
00000010
00000000
00001000
00000100
00000000
00000010
00000001
00000000
,
00000100
00000001
00000100
00001000
00010000
00010000
00010000
01000000
,
10000000
00100000
10000000
00100000
00000000
01000000
00010000
01000000
,
00001000
00000000
00010000
00000000
00000100
00001000
00000000
00001000
00000100
00000000
00000100
00010000
00000000
00010000
00001000
00000000
,
00100000
00000000
00100000
00000000
00100000
00001000
00000000
00001000
00010000
00000000
00010000
00000100
00000000
00000100
00010000
00000000
;

//---------------dance-double - ----------------
#NOTES:
     dance-double:
     :
     Challenge:
     13:
     0.595,0.584,0.311,0.000,0.496:
00000000
00000000
00000000
00000000
,
00000000
00000000
00000000
00000000
,
00000000
00000000
00000000
00000000
,
00000000
00000000
00000000
00000000
,
10000000
00000000
01000000
00100000
00010000
01000000
00100000
10000000
00000000
01000000
00000000
00010000
00000000
00001000
00000100
00000000
,
00000001
00000000
00000010
00000100
00001000
00000010
00000100
00000001
00000000
00000010
00000000
00001000
00010000
00000000
00001000
00000000
,
00010000
01000000
00000000
01000000
10000000
00100000
10000000
01000000
00100000
00000000
00100000
00010000
00000000
10000000
01000000
00010000
,
01000000
10000000
00000000
10000000
00100000
01000000
00010000
00100000
01000000
00000000
00000000
00000000
10000000
00000000
00100000
00000000
,
00010000
00000000
00001000
00000000
00010000
00000000
00000100
00001000
00000000
00001000
00000010
00000000
00000100
00000000
00000001
00000000
,
00000010
00000000
00001000
00000000
00010000
00000000
01000000
10000000
00000000
10000000
00010000
00000000
01000000
00000000
00100000
00000000
,
10000000
00000000
01000000
00000000
01000000
00010000
00000000
00010000
00001000
00000000
00001000
00000100
00000000
00000100
00001000
00000000
,
00000100
00000000
00000001
00000000
00000000
00000010
00000000
00000000
00001000
00000000
00000000
00010000
00000000
00000000
00100000
00000000
,
10000000
00000000
01000000
00000000
01000000
00000000
00100000
00001000
00000000
00001000
00010000
00000000
00000100
00000000
00001000
00000000
,
00000010
00000000
00001000
00000000
00000010
00010000
00000000
00010000
00001000
00000000
00001000
00100000
00000000
00100000
00010000
00000000
,
00010000
10000000
00000000
10000000
00100000
01000000
00001000
00010000
00000000
00000000
00010000
00000000
00010000
00000000
00000100
00000000
,
00001000
00000100
00000000
00000010
00000001
00000100
00000010
00010000
00001000
00000000
00000000
00100000
00000000
00000000
00010000
00000000
,
10010000
00000000
11000000
00000000
01010000
00000000
00010000
00000100
,
00001100
00000000
00001000
00000001
00000101
00000000
00000001
00001000
,
00001100
00000000
00000000
00000000
00011000
00000000
00000000
00000000
00001000
00000000
00000000
00100000
00000000
00000000
00010000
00000000
,
10000000
00000000
10100000
00000000
10000000
01000000
00010000
00001000
,
00000100
00000000
00000001
00000000
00000001
00000000
00000010
00000100
00000000
00001000
00000100
00000000
00000010
00000000
00000001
00000000
,
00000000
00000001
00000100
00001000
00010000
00010000
01000000
01000000
,
10000000
00000000
00000000
00000000
11000000
00000000
00000000
00000000
10000000
00000000
00000000
00100000
00000000
00000000
00010000
00000000
,
00001000
00000000
00011000
00000000
00010000
00000100
00001000
00001000
,
00000001
00000000
00000100
00000000
00000100
00000000
00000010
00001000
00000000
00000100
00001000
00000000
00000100
00000000
00010000
00000000
,
00011000
00000000
00110000
00010000
10000000
00100000
01000000
00001000
,
00011000
00000000
00010000
00000000
00010000
00000000
00001000
00100000
00000000
00010000
10000000
00000000
00100000
00000000
01000000
00000000
,
00100000
00000000
10000000
00000000
10000000
00000000
01000000
00100000
00000000
00010000
00100000
00000000
01000000
00000000
10000000
00000000
,
10010000
00000000
10000000
00000000
00100000
00000000
01000000
00001000
00000000
00001000
00010000
00000000
00000100
00000000
00001000
00000100
,
00000010
00000000
00000000
00000010
00000001
00000000
00000000
00000001
00000100
00000000
00000100
00001000
00010000
01000000
10000000
00000000
,
10010000
00000000
10000000
00000000
10000000
00000000
01000000
00100000
00000000
00001000
00010000
00000000
00000100
00000000
00001000
00000000
,
00001001
00000000
00000001
00000000
00000001
00000000
00000100
00000010
00000000
00001000
00000100
00000000
00010000
00000000
00001000
00000000
,
00011000
00000000
00110000
00000000
10010000
10000000
01000000
00100000
,
00001000
00000000
00011000
00000000
00000000
00010100
00000000
00000000
00001100
00000000
00001000
00000000
00000010
00000100
00000000
00000001
,
00000100
00000000
00000010
00000000
00000010
00000000
00001000
00000100
00000000
00010000
00001000
00000000
00100000
00010000
00000000
10000000
,
00100000
10000000
01000000
00010000
00001000
00000100
00000001
00000010
,
00000001
00000000
00000100
00001000
00000000
00000100
00001000
00000000
00010000
00000000
00001000
00010000
00000000
00001000
00010000
00000000
,
00001000
00100000
00000000
00100000
00010000
01000000
00100000
10000000
01000000
00000000
01000000
00000000
00100000
00000000
00100000
00000000
,
10010000
00000000
10000000
00000000
00100000
00000000
01000000
00001000
00000000
00001000
00010000
00000000
00000100
00000000
00001000
00000000
,
00001001
00000000
00001000
00000000
00000001
00000000
00000100
00000010
00000000
00000010
00001000
00000000
00000100
00000000
00001100
00000000
,
00000100
00010000
00001000
00100000
00010000
10000000
00100000
00010000
,
00001000
00000000
00011000
00000000
00000000
01010000
00000000
00000000
10010000
00000000
00000000
11000000
00000000
00000000
10010000
00000000
,
01010000
00000000
01000000
00000000
01000000
00000000
00100000
10000000
00000000
01000000
00100000
00000000
00001000
00010000
00000000
00000100
,
00001000
00000010
00000001
00000010
00001000
00000100
00000010
00000001
,
00000100
00000000
00001000
00010000
00000000
00001000
00010000
00000000
01000000
00000000
10000000
01000000
00000000
10000000
01000000
00000000
,
00100000
00010000
00000000
00010000
01000000
00100000
10000000
01000000
00100000
00000000
00000000
00001000
00000000
00000000
00010000
00000000
,
00011000
00000000
01010000
00000000
10010000
00000000
10000000
00010000
,
01100000
00000000
01000000
00100000
10010000
00000000
10000000
01000000
,
00011000
00010000
00000100
00001000
00000010
00000010
00000100
00000100
,
00000001
00000000
00000010
00000000
00001000
00010000
00000000
00010000
00001000
00000000
01000000
00010000
00000000
00010000
01000000
00000000
,
00100000
10000000
01000000
00010000
00001000
00001000
00000100
00000100
,
00000001
00000010
00000001
00000100
00000000
00001000
00010000
01000000
,
10000000
00100000
10000000
01000000
00010000
00010000
00001000
00001000
,
00010000
00000000
00000100
00000000
00001000
00000100
00000000
00000100
00001000
00000000
00000010
00000100
00000000
00000100
00000001
00000000
,
00000010
00000100
00010000
00001000
00100000
00100000
00010000
00010000
,
10000000
00100000
00010000
00001000
00000000
00000100
00001000
00010000
,
01000000
00000000
00010000
00000000
00001000
00010000
00000000
00000100
00001000
00000000
00000001
00000100
00000000
00000100
00000001
00000000
,
00000100
00000000
00001000
00000000
00010000
00001000
00000000
00100000
00010000
00000000
10000000
00100000
00000000
00100000
10000000
00000000
;
