#TITLE:Be With You;
#SUBTITLE:;
#ARTIST:Enrique Iglesias;
#TITLETRANSLIT:;
#SUBTITLETRANSLIT:;
#ARTISTTRANSLIT:;
#GENRE:;
#CREDIT:L33tAliceIp;
#MUSIC:Be With You.ogg;
#BANNER:bn.png;
#BACKGROUND:bg.png;
#CDTITLE:;
#SAMPLESTART:66.886;
#SAMPLELENGTH:14.000;
#SELECTABLE:YES;
#OFFSET:-0.500;
#BPMS:0.000=119.480
,1.500=127.535
,3.000=115.048
,4.000=108.205
,7.000=115.017
,7.750=95.029
,8.250=74.864
,8.750=140.663
,15.500=122.818
,16.000=120.903
,17.500=120.105
,18.500=123.420
,19.500=121.410
,23.500=131.004
,24.000=121.982
,40.000=121.968
;
#STOPS:;
#DISPLAYBPM:122.000;
#BGCHANGES:24.000=fireworks1.avi=0.700=1=0=1===CrossFade==,
40.000=blackhole1.avi=1.000=0=0=1,
56.000=ring3.avi=1.000=0=0=1,
72.000=blackhole1.avi=1.000=0=0=1,
88.000=light3.avi=1.000=0=0=1,
104.000=ring12.avi=1.200=0=0=1,
120.000=bluey1.avi=1.400=0=0=1,
124.000=kaliedoscope4.avi=1.400=0=0=1,
128.000=fireworks1.avi=1.000=0=0=1,
136.000=blackhole1.avi=1.000=0=0=1,
144.000=bluey1.avi=1.400=0=0=1,
152.000=ring12.avi=1.200=0=0=1,
160.000=bluey1.avi=1.400=0=0=1,
168.000=blackhole1.avi=1.000=0=0=1,
176.000=bluey1.avi=1.400=0=0=1,
184.000=ring12.avi=1.200=0=0=1,
192.000=bluey1.avi=1.400=0=0=1,
200.000=fireworks1.avi=1.000=0=0=1,
212.000=Be With You-jacket.png=1.000=1=0=1===CrossFade==,
99999.000=-nosongbg-=1.000=0=0=0=StretchNoLoop====
;
#FGCHANGES:;

//--------------- dance-single - ----------------
#NOTES:
     dance-single:
     :
     Beginner:
     2:
     0.123,0.192,0.08,0,0:
0000
0000
0000
0000
,
0000
0000
0000
0000
,
0000
0000
0000
0000
,
0000
0000
0000
0000
,
1000
0000
0000
0000
,
0001
0000
0000
0000
,
1000
0000
0000
0000
,
0001
0000
0001
0000
,
0001
0000
0000
0000
,
1000
0000
0000
0000
,
1001
0000
0000
0001
,
0001
0000
1000
0000
,
1001
0000
0000
1000
,
1000
0000
0001
0000
,
1001
0000
0000
0000
,
0100
0000
0100
0000
,
0100
0000
0000
0000
,
0010
0000
0010
0000
,
0010
0000
0000
0000
,
1000
0000
1000
0000
,
1000
0000
0000
0000
,
0001
0000
0001
0000
,
0001
0000
0000
0000
,
1000
0000
1000
0000
,
1000
0000
0000
0000
,
0100
0000
0100
0000
,
0100
0000
0000
0000
,
1000
0000
1000
0000
,
0010
0000
0000
0000
,
0100
0000
0100
0000
,
1000
1000
1000
0000
,
0001
0001
0001
0000
,
1001
0000
0000
0000
,
1000
0000
0001
0000
,
1001
0000
0000
1000
,
1000
0000
0000
0001
,
0001
0000
0000
1000
,
1000
0000
0000
0000
,
1001
0000
0000
1000
,
1000
0000
0000
0100
,
0100
0000
0000
0010
,
0010
0000
0001
0000
,
1001
0000
0000
1000
,
1000
0000
0000
0001
,
0001
0000
0000
0100
,
0100
0000
0100
0000
,
1001
0000
0000
0001
,
0001
0000
0000
1000
,
1000
0000
0000
0100
,
0100
0000
1000
0000
,
1001
0000
0000
1000
,
1000
0000
0000
0001
,
0001
0000
0000
1000
,
1000
0000
0001
0000
,
1000
0000
0000
0000
;

//--------------- dance-single - ----------------
#NOTES:
     dance-single:
     :
     Easy:
     5:
     0.253,0.338,0.151,0.355,0:
0000
0000
0000
0000
,
0000
0000
0000
0000
,
0000
0000
0000
0000
,
0000
0000
0000
0000
,
1000
0000
0000
0001
,
0002
0000
0003
0000
,
2000
0000
3001
0001
,
0002
0000
1003
1000
,
2000
0000
3001
0001
,
0002
0000
1003
1000
,
2002
3003
0000
0100
,
0002
1003
2000
3100
,
2002
3003
0000
0100
,
0200
0310
0020
0130
,
2002
3003
0100
0000
,
0001
1000
0001
1000
,
0100
0000
1000
0000
,
1000
0001
1000
0001
,
1000
0000
0001
0000
,
1000
0001
1000
0100
,
0001
0000
0001
0000
,
1000
0001
1000
0100
,
1001
0000
0001
0000
,
1000
0001
1000
0001
,
0100
0000
1000
0000
,
0001
1000
0001
1000
,
0001
0000
1000
0000
,
0100
1000
0100
1000
,
0001
0000
1000
0000
,
0001
1000
0001
0000
,
1001
1001
1001
0000
,
0110
0110
0110
0000
,
1001
0000
0002
0000
,
2003
0000
3001
0000
,
2002
3003
1000
1000
,
2000
0000
3001
0001
,
0002
0000
1003
1000
,
2000
0000
3100
0000
,
2002
3003
0001
1000
,
0002
0000
1003
1000
,
0200
0000
0310
1000
,
0002
0000
1003
0001
,
2002
3003
0001
0001
,
0002
0000
1003
1000
,
2000
0000
3001
0001
,
0002
0000
1003
0001
,
2002
3003
1000
0001
,
2000
0000
3001
1000
,
0002
0000
0103
0100
,
0002
0000
2003
3000
,
1001
0000
0100
0100
,
0100
0000
0010
0010
,
0010
1000
0001
0000
,
1000
0001
1000
0000
,
2002
0000
3003
0000
;

//--------------- dance-single - ----------------
#NOTES:
     dance-single:
     :
     Medium:
     8:
     0.328,0.342,0.186,0.311,0.009:
0000
0000
0000
0000
,
0000
0000
0000
0000
,
0000
0000
0000
0000
,
0000
0000
0000
0000
,
2000
0000
0000
0000
0000
0001
0000
0002
,
0000
0000
3003
0000
,
2001
0000
0000
0001
0000
3001
0000
1000
,
0200
0000
0000
0010
0000
0310
0000
0001
,
2000
0000
0000
0001
0000
3001
0000
0100
,
0002
0000
0000
1000
0000
1003
0000
0000
,
1001
0000
1000
0000
0001
0100
0001
0000
,
0002
1003
2000
3001
,
1001
0000
0100
0000
1000
0010
1000
0000
,
0002
1003
2000
3100
,
2002
0000
3003
0000
1000
0001
1000
0000
,
0001
0100
0001
1000
,
2002
0000
3003
0000
1000
0001
1000
0000
,
1000
0100
1000
0001
,
2002
0000
3003
0000
0001
1000
0001
0000
,
1000
0100
1000
0010
,
1000
0001
1000
0000
0001
0000
0100
0000
,
0001
1000
0001
0000
1000
0000
0100
0000
,
2002
0000
3003
0000
0001
1000
0001
0000
,
1000
0100
1000
0001
,
2002
0000
3003
0000
1000
0001
1000
0000
,
0001
0100
0001
1000
,
2002
0000
3003
0000
1000
0001
1000
0000
,
0100
1000
0100
0010
,
1000
0101
1000
1100
,
1000
1010
0010
0011
,
0001
0000
0000
0001
0000
0000
1000
0000
1001
0000
0000
0000
0001
0000
0000
0000
,
0100
0000
0000
0100
0000
0000
0010
0000
0110
0000
0000
0000
1000
0000
0001
0000
,
2000
0000
3002
0000
,
2003
0000
3200
1300
,
1002
0000
0000
2003
0000
0000
0100
0000
,
3100
1000
0100
0100
,
1000
0010
0000
0010
0000
1000
0001
0000
,
1000
0100
0000
0100
0000
0100
1000
0000
,
1002
0000
0000
0100
0000
0000
1000
0000
,
1003
0000
0001
0000
0001
1000
0001
0000
,
1000
0001
0000
0001
0000
0001
0010
0000
,
0100
0001
0000
0001
0000
0001
0100
0000
,
2001
0000
0000
3002
0000
0000
0100
0000
,
0103
0100
0001
1000
,
1000
0001
0000
0001
0000
0001
0100
0000
,
0001
1000
0000
1000
0000
1000
0100
0000
,
1002
0000
0000
2003
0000
0000
0001
0000
,
3001
0100
0001
1000
,
1000
0010
0000
0010
0000
0010
1000
0000
,
1000
0001
0000
0001
0000
0001
0100
0000
,
1001
0000
0000
0000
1000
0001
0000
0001
,
0000
0000
0100
0000
0001
1000
0000
1000
,
0000
0001
1000
0001
,
0100
0001
1000
0001
,
2002
0000
0000
0000
,
3003
0000
0000
0000
;

//--------------- dance-single - ----------------
#NOTES:
     dance-single:
     :
     Hard:
     10:
     0.394,0.512,0.275,0.098,0.164:
0000
0000
0000
0000
,
0000
0000
0000
0000
,
0000
0000
0000
0000
,
0000
0000
0000
0000
0000
0000
0000
0001
,
2000
0000
0000
3100
0000
0001
0100
0002
,
0000
0000
0000
0000
0000
0000
0000
1003
,
2000
0000
0000
0001
0000
0000
0001
0000
0000
0000
3001
0000
0000
0100
0000
0000
,
2000
0000
0000
0001
0000
0000
0001
0000
0000
0000
3001
0000
0000
0000
1000
0000
,
0020
0000
0000
0100
0000
0000
0100
0000
0000
0000
0130
0000
0000
1000
0000
0000
,
0002
0000
0000
1000
0000
0000
1000
0000
0000
0000
1003
0000
0000
0001
0000
0000
,
1001
0000
0001
0000
1000
0001
0100
0001
,
1000
0000
0000
0100
0001
0000
0000
0000
1000
0000
0000
1000
0010
0000
0000
0000
,
1001
0000
0001
0000
1000
0100
1000
0001
,
1000
0000
0000
0010
1000
0000
0000
0000
0001
0000
0000
1000
0001
0000
0000
0000
,
1001
0000
0001
1000
1000
0000
0001
0100
,
0001
0000
0100
0000
0000
0000
0010
0000
0000
0000
0010
0000
0000
1000
0000
0000
,
1001
0000
1000
0100
1000
0001
0000
1000
,
0001
0000
1000
0000
0000
0000
0100
0000
0000
0000
0100
0000
0000
1000
0000
0000
,
1001
0000
1010
0000
0011
0000
1000
0001
,
1000
0000
0000
0001
0000
0000
0100
0000
0001
0000
0000
0000
1000
0000
0001
0000
,
1000
0000
0001
0000
0000
0000
1000
0000
0000
0000
0100
0000
0000
1000
0000
0000
,
0100
0000
0000
1000
0000
0000
0010
0000
0000
0000
0001
0000
0000
1000
0000
0000
,
1001
0000
0001
0000
1000
0001
0100
0001
,
0010
0000
0000
0000
0100
0000
0000
1000
0000
0000
0001
0000
0000
1000
0000
0000
,
1001
0000
1000
0000
1000
0010
1000
0100
,
1000
0000
0000
0001
0000
0000
0100
0000
0000
0000
0001
0000
0000
1000
0000
0000
,
1001
0000
1000
0000
0001
0001
0001
0000
,
1000
0100
0000
0100
0000
1000
0010
0000
,
1000
0000
0001
0000
0000
0000
0001
0000
0000
0000
1000
0000
0000
0100
0000
0000
,
1000
0000
0000
0010
0000
0000
0010
0000
0000
0000
1000
0000
0000
0100
0000
0000
,
1001
0000
0000
1001
0000
0000
1001
0000
1001
0000
0000
0000
0100
0000
0000
0000
,
0110
0000
0000
0110
0000
0000
0110
0000
0110
0000
0000
0000
0001
0000
1000
0001
,
2000
0000
3002
0000
,
2003
0000
0001
3100
,
1001
0000
1000
0010
0000
0010
1000
0000
,
0001
0000
0000
1000
0000
0000
0100
0000
0000
0000
1000
0000
0001
0000
0001
1000
,
0001
0100
0000
1000
0000
0000
1000
0001
,
0001
0100
0000
1000
0000
0001
1000
0000
,
1001
0000
0001
0100
0000
0100
0001
0000
,
1000
0000
0000
0001
0000
0000
1000
0000
0000
0000
0010
0000
1000
0000
0001
1000
,
0001
1000
0000
1010
0000
1000
0001
0100
,
0001
1000
0010
1000
0001
0000
1000
0000
,
1001
0000
0001
1000
0000
1000
0010
0000
,
1000
0000
0000
0001
0000
0000
0100
0000
0000
0000
1000
0000
0010
0000
1000
0001
,
1000
0001
0000
0101
0000
1000
0010
0000
,
1000
0001
0000
1001
0000
1000
0100
0000
,
1001
0000
1000
0010
0000
0010
1000
0000
,
0001
0000
0000
1000
0000
0000
0100
0000
0000
0000
1000
0000
0010
0000
1000
0001
,
1000
0100
0000
0100
0000
1000
0001
0000
,
1000
0010
1000
0001
1000
0100
1100
0000
,
1001
0000
0000
0000
0001
0000
1000
0010
1000
0000
0001
0000
0000
0000
0100
0000
,
0000
0000
0001
0000
1000
0000
1000
0001
1000
0000
0010
0000
0000
0000
0010
0000
,
0000
0000
1000
0001
1000
0000
1010
0000
,
0101
0000
1000
0001
1000
0000
1100
0000
,
2002
0000
0000
0000
,
3003
0000
0000
0000
;

//--------------- dance-single - ----------------
#NOTES:
     dance-single:
     :
     Challenge:
     13:
     0.493,0.537,0.337,0.142,0.315:
0000
0000
0000
0000
,
0000
0000
0000
0000
,
0000
0000
0000
0000
,
0000
0000
0000
0000
0000
0000
0000
0001
,
0020
0000
0000
0130
0000
1000
0001
0200
,
0000
0000
0000
0000
0000
0000
0000
0000
0000
0000
0000
0000
0300
0000
1000
0001
,
1000
0000
0000
1010
0000
0000
0101
0000
0000
0000
1000
0000
0000
0001
0000
0000
,
1000
0000
0000
0101
0000
0000
1001
0000
0000
0000
1000
0000
0000
0000
0001
1000
,
0001
0000
0000
1000
0000
0000
1100
0000
0000
0000
1000
0000
0000
1000
0000
0000
,
1001
0000
0000
0001
0000
0000
0001
0000
0000
0000
1000
0000
0000
0001
0000
0000
,
1001
0000
1000
0000
0100
0000
1000
0000
0001
0000
1000
0000
1000
0010
1000
0000
,
1010
0000
0000
1000
0000
0000
0001
0000
1001
0000
0000
1000
0000
0000
0100
0000
,
1000
0000
0001
0000
0100
0000
0001
0000
1000
0000
0001
0000
1000
0001
1000
0000
,
1010
0000
0000
0001
0000
0000
1000
0000
1100
0000
0000
0001
0000
0000
0100
0000
,
1000
0000
0001
0000
1000
0000
0001
0000
1000
0000
0001
0000
1000
0000
0001
1000
,
0100
0000
0010
0000
0100
0000
1000
0000
0000
0000
0010
0000
0000
0100
0000
0000
,
1000
0000
0100
0000
1000
0000
0100
0000
1000
0000
0100
0000
1000
0000
0100
0010
,
0001
0000
1000
0000
0001
0000
1000
0000
0000
0000
1000
0000
0000
0001
0000
0000
,
1000
0000
0000
1000
0010
0000
0000
0000
2000
0000
0100
0000
3100
0000
0010
0000
,
0001
0000
0000
1000
0000
0000
0100
0000
1000
0000
0000
0000
0001
0000
1000
0000
,
0001
0000
0100
0000
0000
0000
0001
0000
0000
0000
1010
0000
0000
1000
0000
0000
,
1100
0000
0000
1000
0000
0000
1010
0000
0000
0000
1000
0000
0000
0001
0000
0000
,
0001
0100
0001
0100
0001
0100
0001
0100
,
1000
0000
0001
0000
1000
0000
0001
0000
0000
0000
0011
0000
0000
0100
0000
0000
,
1000
0000
0010
0000
1000
0000
0010
0000
1000
0000
0010
0000
1000
0000
0010
0100
,
0010
0000
0000
1000
0000
0000
0001
0000
0000
0000
1010
0000
0000
1000
0000
0000
,
0110
0000
0000
1000
0001
0000
1000
0000
0200
0000
0000
0000
0310
0000
0010
0100
,
0010
0000
0001
0000
0000
0000
0100
0000
0000
0000
0001
0000
1000
0000
0010
1000
,
0010
0000
2000
0000
0000
0000
3100
0000
0000
0000
0001
0000
0000
1000
0000
0000
,
0001
0000
0200
0000
0000
0000
0301
0000
0000
0000
1000
0000
0000
0001
0000
0000
,
1000
0001
0000
1000
0000
0001
1000
0000
1001
0000
0000
0000
1000
0000
0010
0000
,
1000
0010
0000
1000
0000
0010
1000
0000
1001
0000
0000
0000
1000
0000
0001
1000
,
0002
0000
0000
0000
0000
0000
1000
0000
0023
0000
0000
0100
0000
0000
0130
0000
,
0002
0000
0000
0010
0000
0000
0010
0000
2003
0000
0000
0000
3100
0000
0000
0000
,
1001
0001
0100
1001
1000
0100
1001
0100
,
1001
0000
0000
0010
1000
0000
0001
0000
0001
0000
0000
0000
0001
0000
1000
0001
,
1000
0000
0010
0000
0000
0000
0010
0000
0000
0000
1000
0000
0000
0001
0000
0000
,
0100
1000
0000
0002
0000
1000
1003
0000
,
1001
1000
0100
1001
0001
0100
1001
0010
,
1001
0000
0000
1000
0100
0000
1000
0000
0001
0000
0000
0000
0001
0000
1000
0100
,
1000
0000
0000
0010
0000
0000
0000
0000
0000
0010
0000
0000
1000
0000
0000
0000
0000
0000
0010
0000
1000
0000
0001
0000
,
2000
0001
0000
3001
0000
0100
1000
0000
,
1001
0001
0100
1001
1000
0100
1001
0100
,
1001
0000
0000
0001
1000
0000
0100
0000
1000
0000
0000
0000
0001
0000
1000
0100
,
1000
0000
0010
0000
0000
0000
1000
0000
0000
0000
0001
0000
0000
1000
0000
0000
,
0001
0000
0000
0001
1000
0001
1000
0000
0000
0001
0000
0000
,
1001
1000
0010
1001
0001
0010
1001
0010
,
1001
0000
0000
0001
1000
0000
0100
0000
1000
0000
0000
0000
0001
0000
1000
0100
,
1000
0100
1000
0100
1000
0100
1000
0001
1000
0001
1000
0001
,
1000
0001
0100
1000
0001
1000
1001
0000
,
1001
0000
0000
0000
0001
0000
0100
0001
0200
0000
0010
0000
0000
0000
0310
0000
,
0000
0000
1000
0000
0001
0000
1000
0100
2000
0000
0001
0000
0000
0000
3001
0000
,
1000
0000
0000
0000
0000
0000
0000
0000
0000
0010
0000
0000
0000
0000
0000
0000
0000
0000
1000
0000
0000
0000
0000
0000
0000
0000
0000
0000
0000
0000
0001
0000
0000
0000
0000
0000
1000
0000
0000
0000
0100
0000
0000
0000
1000
0000
0000
0000
,
0001
0000
0000
0100
0000
0000
0001
0000
0000
0000
1000
0000
0000
0001
0000
0000
,
2002
0000
0000
0000
,
3003
0000
0000
0000
;
