#TITLE:Be My Lover;
#SUBTITLE:;
#ARTIST:La Bouche;
#TITLETRANSLIT:;
#SUBTITLETRANSLIT:;
#ARTISTTRANSLIT:;
#GENRE:EURODANCE;
#CREDIT:;
#BANNER:Be My Lover.png;
#BACKGROUND:Be My Lover-bg.png;
#LYRICSPATH:;
#CDTITLE:CDTitle.png;
#MUSIC:Be My Lover.ogg;
#OFFSET:-1.793000;
#SAMPLESTART:65.834999;
#SAMPLELENGTH:14.220000;
#SELECTABLE:YES;
#BPMS:0.000000=134.899994
;
#STOPS:
;
#BGCHANGES:0.000=Be My Lover.avi=1.000=1=0=0=StretchNoLoop==CrossFade==,
99999=-nosongbg-=1.000=0=0=0 // don't automatically add -songbackground-
;
#KEYSOUNDS:;
#ATTACKS:;

//---------------dance-single - DDRDAIKENKAI----------------
#NOTES:
     dance-single:
     DDRDAIKENKAI:
     Hard:
     7:
     0.508004,0.542028,0.328502,0.205314,0.184782,433.000000,393.000000,40.000000,25.000000,0.000000,0.000000,0.508004,0.542028,0.328502,0.205314,0.184782,433.000000,393.000000,40.000000,25.000000,0.000000,0.000000:
0000
0000
0000
0000
,
0000
0000
0000
0000
,
0000
0000
0000
0000
,
0000
0000
0000
0000
,
1000
0000
0001
0100
0010
1000
0100
0000
,
0010
0000
0000
0000
0100
0000
1000
0000
0010
0000
0000
0100
0000
0000
0001
0000
,
0010
0100
1000
0010
,
1000
0100
0010
0001
0100
0010
1000
0000
,
1001
0000
0101
0000
0010
1000
0100
1000
,
1001
0000
0101
0000
0010
1000
0100
1000
,
0001
0000
1000
0000
0000
1000
0000
0000
1000
0000
0000
0001
0000
0000
0100
0000
,
0010
0000
0001
0000
0000
0001
0000
0000
0001
0000
0000
0010
0000
0000
1000
0000
,
0100
0000
0010
0000
0000
0001
0000
0000
1000
0000
0000
1000
0000
0000
0010
0000
,
0100
0000
0001
0000
0000
0100
0000
0000
0010
0000
0000
1000
0000
0000
0001
0000
,
1000
0100
1000
0100
0010
0001
0010
0001
,
1000
0100
0010
0001
0100
0010
0000
0010
,
1000
0010
1000
0010
0100
0001
0100
0001
,
1000
0010
0100
0001
0010
0001
0100
0010
,
1010
0000
0101
0000
0010
1000
0100
0000
,
0011
0000
1100
0000
1000
0001
0100
0100
,
0001
0010
0001
0010
0100
1000
0100
1000
,
0001
0010
0100
1000
0010
0100
0000
0100
,
0001
0100
0001
0100
0010
1000
0010
1000
,
0010
0100
0001
1000
0001
0100
0010
1000
,
1010
0000
1100
0000
0010
0001
0100
0001
,
0011
0000
0101
0000
0100
0010
0100
0001
,
1001
0000
0110
0000
0010
1000
0100
0000
,
0210
0000
0000
0310
0001
0001
1000
0001
,
1001
0000
1000
0001
0100
0000
0001
1000
,
0100
0000
1000
0001
0100
0010
1000
0100
,
0010
0000
0100
1000
0010
0000
0100
0001
,
0010
0000
0100
1000
0010
0100
0001
2000
,
0100
3000
0010
0001
0010
0100
1000
0020
,
1000
0000
0030
0000
0100
0000
0010
0000
0002
0000
0000
0203
0000
0000
0310
0000
,
1000
0000
1000
0001
0100
0000
0100
0010
,
1000
0000
0000
0000
1010
0000
0000
0000
0110
0000
0000
0100
0001
0000
1000
0000
,
1001
0000
1010
0000
0010
2000
0100
3000
,
0010
1000
0100
1000
0010
0100
0001
0000
,
1001
0000
0101
0000
0100
0002
0010
0003
,
0100
0001
0010
0100
1000
0001
1000
0000
,
1001
0000
0011
0000
0001
2000
0100
3000
,
0001
1000
0100
0010
0100
1000
0001
0000
,
1001
0000
1100
0000
1000
0002
0010
0003
,
1000
0001
0010
0001
0100
0010
1000
0100
,
0210
0000
2300
0000
3020
0000
0130
0001
,
0020
0000
0230
0000
1300
0001
0200
0000
,
0310
1010
0110
0101
,
1001
0000
1000
0100
0000
0000
0100
1000
0000
0000
1000
0001
0000
0000
0001
0010
,
0000
0000
0001
0100
0000
0000
0100
0010
0000
0000
0010
1000
0000
0000
1000
0001
,
1000
0000
1000
0100
0000
0000
0100
0010
0000
0000
0010
0001
0000
0000
0001
0100
,
0000
0000
0001
1000
0000
0000
1000
0010
0000
0000
0010
0100
0000
0000
0100
0010
,
0100
0000
0100
0001
0000
0000
1000
0001
0000
0000
0010
0001
0000
0000
1000
0001
,
0100
0000
0010
1000
0000
0000
0001
1000
0000
0000
0001
0010
0000
0000
0100
1000
,
0001
0000
0010
0100
0000
0000
0010
0001
0000
0000
0100
0010
0000
0000
1000
0100
,
1000
0000
0010
0100
0000
0000
0001
1000
0000
0000
0100
0010
0100
0000
1000
0000
,
1002
0000
0000
0000
0000
0000
2003
0000
0000
0000
0001
3000
0010
0000
0100
0000
,
1100
0000
1000
0002
0000
0103
0010
1000
,
1020
0000
1030
0002
0000
0013
0100
0010
,
0002
0000
1003
0001
0100
0010
0100
0001
,
0200
0000
0320
0000
0130
0001
1000
0100
,
0010
0000
0000
0100
0000
0000
1000
0000
0010
0000
0000
0100
0000
0000
0001
0000
,
0010
0000
0000
0100
0000
0000
1000
0000
0001
0000
0100
0000
0010
0000
1000
0000
,
1010
0000
0101
0000
1000
0001
0100
0010
,
1000
1010
0110
0101
,
2002
0000
0000
0000
,
0000
0000
0000
0000
,
3003
0000
0000
0000
;

//---------------dance-single - DDRDAIKENKAI----------------
#NOTES:
     dance-single:
     DDRDAIKENKAI:
     Medium:
     5:
     0.364871,0.379419,0.139613,0.271014,0.000000,311.000000,294.000000,17.000000,33.000000,0.000000,0.000000,0.364871,0.379419,0.139613,0.271014,0.000000,311.000000,294.000000,17.000000,33.000000,0.000000,0.000000:
0000
0000
0000
0000
,
0000
0000
0000
0000
,
0000
0000
0000
0000
,
0000
0000
0000
0000
,
1000
0100
1000
0100
,
0010
0001
0010
0001
,
0100
0010
0100
0010
,
1000
0000
0001
0000
1000
0001
1000
0000
,
1001
0000
0001
0000
1000
0001
1000
0000
,
0010
0000
0100
0000
0001
1000
0001
0000
,
0010
0100
1000
1000
,
0100
0010
0001
0001
,
0100
0010
1000
1000
,
0010
0100
0001
0001
,
1000
0100
1000
0000
0010
0000
0100
0000
,
0001
0000
0010
0000
0100
1000
0000
1000
,
0010
0000
1000
0000
0100
0000
0010
0001
,
0010
0000
0100
0000
1000
0001
1000
0000
,
0010
0000
1000
0000
0001
1000
0100
0000
,
0010
0000
0001
0000
0100
0001
1000
0000
,
0010
1000
0010
0000
0100
0000
0001
0010
,
0001
0000
0100
0010
0200
0000
0301
0000
,
1000
0100
1000
0000
0001
0000
0010
0100
,
1000
0000
1000
0100
0010
0000
0010
0001
,
0100
0000
0001
0000
1000
0010
0100
0000
,
0001
0000
1000
0000
0001
0100
0010
0000
,
0100
0000
0100
0000
0001
1000
0001
0000
,
2002
0000
0000
3003
,
1001
0001
1000
0100
,
0010
0000
0001
0000
1000
0100
1000
0100
,
1000
0010
0100
0001
,
0010
0000
0100
0000
0010
0001
0010
0002
,
0000
0003
1000
0000
0010
0100
0010
0200
,
0000
0300
0001
0000
1000
0000
0100
0010
,
0001
0100
0010
1000
,
0010
0100
0010
0000
1000
0001
1000
0000
,
1002
0000
0103
0000
0010
1000
0100
0000
,
0010
0001
0100
0010
2000
0000
3001
0000
,
1002
0000
0103
0000
0001
0010
0100
0000
,
1000
0001
0100
0010
2000
0000
3001
0000
,
1002
0000
1003
0000
0010
0100
0001
0000
,
0010
0100
1000
0001
0200
0000
0310
0000
,
0120
0000
0130
0000
0001
1000
0100
0000
,
1000
0001
1000
0001
2000
0000
3001
0000
,
1002
0203
0320
2030
,
3200
0320
0230
2300
,
3001
1000
0100
1100
,
1002
0000
0103
0000
0010
1000
0010
1000
,
0001
0000
0010
0000
0100
1000
0100
1000
,
0001
0000
0100
0000
0010
1000
0001
0000
,
1001
0000
1000
0000
0001
1000
0100
0000
,
1100
0000
0100
0000
0010
0001
0010
0100
,
1000
0000
0010
0000
0100
0001
0100
0010
,
1000
0000
0001
0000
0100
0010
0100
0010
,
0100
0000
0001
0000
1000
0001
1000
0002
,
2000
0000
0000
3003
,
1001
0000
1000
0000
0001
1000
0100
0000
,
1100
0000
1000
0000
0001
0100
0010
0000
,
0110
0000
0100
0000
0001
0010
0001
0000
,
0012
0000
1003
0000
0001
0000
0100
0010
,
2000
3200
0302
0203
,
2300
0000
3020
0000
0130
0001
0010
0100
,
1000
0000
0001
0000
0100
0010
1000
0000
,
0100
0010
0001
1000
,
2002
0000
0000
0000
,
0000
0000
0000
0000
,
3003
0000
0000
0000
;

//---------------dance-single - DDRDAIKENKAI----------------
#NOTES:
     dance-single:
     DDRDAIKENKAI:
     Easy:
     3:
     0.266321,0.325217,0.139613,0.106763,0.000000,227.000000,210.000000,17.000000,13.000000,0.000000,0.000000,0.266321,0.325217,0.139613,0.106763,0.000000,227.000000,210.000000,17.000000,13.000000,0.000000,0.000000:
0000
0000
0000
0000
,
0000
0000
0000
0000
,
0000
0000
0000
0000
,
0000
0000
0000
0000
,
2000
0001
0000
0001
,
0000
0100
0000
0100
,
0000
0010
0000
0010
,
0000
0001
0000
3001
,
1001
0001
1000
1000
,
0001
0001
2000
3000
,
0010
1000
0010
1000
,
0001
0010
0001
0010
,
0100
1000
0100
1000
,
0001
0001
0001
0000
,
1001
1000
0001
0001
,
1000
0001
0100
0000
,
0010
1000
0010
0010
,
1000
0100
0010
0100
,
1000
1000
0001
0000
,
0001
0001
1001
0000
,
0010
0010
1000
1000
,
0100
0001
0100
0000
,
0010
0010
0001
0001
,
0100
1000
0100
0100
,
0001
1000
0001
0001
,
1000
0001
1000
1000
,
0010
0010
0010
0000
,
0220
0000
0000
0330
,
0110
0010
1000
0000
,
0100
1000
0010
0100
,
0110
0100
0001
0000
,
0010
0001
0100
0001
,
2000
0001
3001
0001
,
0002
1000
1003
1000
,
0100
1000
0002
0003
,
0010
0001
1000
0001
,
1002
1003
0100
0100
,
1000
0001
1000
0001
,
0010
0001
0100
0100
,
0001
1000
0001
1000
,
0010
1000
0100
0100
,
1000
0001
1000
0001
,
0010
0001
0100
0100
,
0001
1000
0001
1000
,
1002
0000
1000
0000
,
0010
0000
0100
0000
,
0103
0100
0110
0110
,
1001
1000
0001
0001
,
1000
0001
1000
1000
,
0010
0100
0010
0010
,
0100
0001
1000
0001
,
0100
0010
1000
1000
,
0001
1000
0001
0001
,
0010
0010
0001
0001
,
0100
0100
1000
1000
,
2002
0000
0000
3003
,
1001
0000
0100
0100
,
0110
0000
0010
0010
,
1001
0000
1000
1000
,
1001
0000
0001
0001
,
1000
0100
0010
0001
,
1000
0001
0010
0100
,
1000
1000
0001
0001
,
0100
0100
0010
0010
,
0220
0000
0000
0000
,
0000
0000
0000
0000
,
0330
0000
0000
0000
;

//---------------dance-single - DDRDAIKENKAI----------------
#NOTES:
     dance-single:
     DDRDAIKENKAI:
     Beginner:
     1:
     0.156038,0.216811,0.106763,0.073913,0.000000,133.000000,120.000000,13.000000,9.000000,0.000000,0.000000,0.156038,0.216811,0.106763,0.073913,0.000000,133.000000,120.000000,13.000000,9.000000,0.000000,0.000000:
0000
0000
0000
0000
,
0000
0000
0000
0000
,
0000
0000
0000
0000
,
0000
0000
0000
0000
,
0002
0000
0003
0000
,
2000
0000
3000
0000
,
0020
0000
0000
0000
,
0030
0000
0000
0000
,
1001
0000
1000
0000
,
0001
0000
1000
0000
,
0100
0000
0000
0000
,
0010
0000
0000
0000
,
0001
0000
0000
0000
,
1000
0000
0000
0000
,
0001
0001
0001
0000
,
0100
0000
0100
0000
,
1000
1000
1000
0000
,
0100
0000
0100
0000
,
0010
0000
0010
0000
,
0010
0010
0010
0000
,
1000
0000
0001
0000
,
1000
1000
1000
0000
,
0001
0000
1000
0000
,
0001
0001
0001
0000
,
0100
0100
0100
0000
,
0100
0100
0100
0000
,
0100
0100
0100
0000
,
0220
0000
0330
0000
,
0100
0000
0001
0000
,
1000
0000
0100
0000
,
1000
0000
0001
0000
,
1000
0000
0001
0000
,
0100
0000
0100
0000
,
0010
0000
0010
0010
,
0010
0000
1000
0000
,
0001
0000
0100
0000
,
0110
0000
0100
0000
,
0001
0001
0001
0000
,
1001
0000
1000
0000
,
0100
0100
0100
0000
,
0110
0000
0010
0000
,
0001
0001
0001
0000
,
1001
0000
1000
0000
,
0010
0010
0010
0000
,
0220
0000
0000
0000
,
0000
0000
0000
0000
,
0330
0000
0000
0000
,
1000
0000
1000
0000
,
0001
0000
0001
0000
,
0100
0000
0100
0000
,
0100
0000
0100
0000
,
0010
0000
0010
0000
,
0100
0000
0100
0000
,
0001
0000
0001
0000
,
0001
0000
0001
0000
,
1001
0000
0000
0000
,
1001
0000
0100
0000
,
1001
0000
0010
0000
,
1001
0000
1000
0000
,
1001
0000
0001
0001
,
0001
0000
0010
0000
,
0100
0000
1000
0000
,
0010
0000
0100
0000
,
0001
0001
0001
0000
,
2002
0000
0000
0000
,
0000
0000
0000
0000
,
3003
0000
0000
0000
;

//---------------dance-single - DDRDAIKENKAI----------------
#NOTES:
     dance-single:
     DDRDAIKENKAI:
     Challenge:
     9:
     0.652310,0.786002,0.377777,0.205314,0.537921,556.000000,510.000000,46.000000,25.000000,0.000000,0.000000,0.652310,0.786002,0.377777,0.205314,0.537921,556.000000,510.000000,46.000000,25.000000,0.000000,0.000000:
// measure 0
0000
0000
0000
0000
,  // measure 1
0000
0000
0000
0000
,  // measure 2
0000
0000
0000
0000
,  // measure 3
0000
0000
0000
0100
0010
1000
0001
0200
,  // measure 4
0000
0000
0310
0001
0010
1000
0100
0002
,  // measure 5
0000
0000
0000
0000
0103
0000
1000
0000
0002
0000
0000
0023
0000
0000
0130
0000
,  // measure 6
2000
0000
3001
0100
1000
0100
0001
0000
,  // measure 7
1000
0001
0100
0010
1000
0100
0010
0000
,  // measure 8
1001
0000
0110
0000
1000
0001
0100
0010
,  // measure 9
1001
0000
0110
0000
0001
1000
0100
0100
,  // measure 10
1000
0000
0001
0000
1000
0010
0000
1000
0001
0000
1000
0010
0000
1000
0100
0000
,  // measure 11
0010
0000
0001
0000
0100
0001
0000
1000
0001
0000
0010
0001
0000
1000
0001
0000
,  // measure 12
0100
0000
0010
0000
0001
0010
0000
0100
0010
0000
1000
0010
0000
0100
0001
0000
,  // measure 13
0010
0000
0100
0000
1000
0100
0000
0010
0100
0000
0001
0100
0000
0010
0001
0000
,  // measure 14
1001
0000
0001
0100
0000
0000
0100
1000
0000
0000
1000
0100
0000
0000
0100
0010
,  // measure 15
0000
0000
0010
0001
0000
0000
0001
0010
0000
0000
0010
1000
0000
0000
1000
0001
,  // measure 16
1000
0000
1000
0001
0000
0000
0001
0100
0000
0000
0100
0001
0000
0000
0001
0010
,  // measure 17
0000
0000
0010
0100
0000
0000
0100
1000
0000
0000
1000
0010
1000
0000
0100
0000
,  // measure 18
1100
0000
0000
0000
0011
0000
0000
1000
0000
0001
0100
0000
0010
0000
1000
0000
,  // measure 19
1010
0000
0010
0000
0110
0000
0100
0001
0000
1000
0001
0000
0100
0000
0001
0000
,  // measure 20
0011
0000
0010
0001
0000
0000
0001
0100
0000
0000
0100
0010
0000
0000
0010
0001
,  // measure 21
0000
0000
0001
0010
0000
0000
0010
1000
0000
0000
1000
0100
0000
0000
0100
0010
,  // measure 22
0100
0000
0100
1000
0000
0000
1000
0010
0000
0000
0010
0001
0000
0000
0001
0010
,  // measure 23
0000
0000
0010
1000
0000
0000
1000
0001
0000
0000
0001
0010
0100
0000
1000
0000
,  // measure 24
1100
0000
0000
0000
1010
0000
0000
1000
0000
0001
0100
0000
0010
0000
1000
0000
,  // measure 25
1001
0000
0000
0000
0101
0000
0000
0001
0000
0010
0001
0000
0100
0000
0010
0000
,  // measure 26
1010
0000
0000
0000
1100
0000
0000
0010
0000
0001
0010
0000
0100
0000
1000
0000
,  // measure 27
1001
0000
0001
1000
0001
1000
0001
1000
0001
0000
1000
0001
1000
0000
0001
0000
,  // measure 28
1001
0001
0100
0001
1000
0001
0100
0001
,  // measure 29
1000
0010
0100
0010
1000
0010
0100
0010
,  // measure 30
1000
0100
0010
0100
1000
0100
0010
0100
,  // measure 31
1000
0010
0001
0010
1000
0010
0001
0001
,  // measure 32
0001
0010
0100
0001
0010
0100
1000
1000
,  // measure 33
0010
0000
0100
0000
1000
0000
0100
0000
0002
0000
0000
2003
0000
0000
3100
0000
,  // measure 34
0010
0001
0010
1000
0010
0100
1000
0100
,  // measure 35
0001
0000
1000
0000
0010
0000
0001
0000
0100
0000
0000
0100
0010
0100
0010
0000
,  // measure 36
2010
0000
3200
0000
0301
0020
1000
0030
,  // measure 37
0001
0000
1000
0100
1000
0000
0010
0000
0001
0000
0100
0000
1000
0000
0000
0000
,  // measure 38
2100
0000
3020
0000
0031
0200
1000
0300
,  // measure 39
0010
0000
0100
0001
0100
0000
0010
0000
1000
0000
0100
0000
0001
0000
0000
0000
,  // measure 40
0021
0000
2030
0000
3010
0002
0100
0003
,  // measure 41
1000
0000
0010
0100
0010
0000
0001
0000
0010
0000
1000
0000
0100
0000
0000
0000
,  // measure 42
0201
0000
1300
0000
0010
2000
0100
3000
,  // measure 43
1000
0000
0001
0100
0001
0100
0001
0100
0010
1000
0010
1000
0001
1000
0001
1000
,  // measure 44
1100
0000
0100
0010
0100
0000
0010
0001
0010
0000
0001
1000
0001
0000
1000
0010
,  // measure 45
1000
0000
0001
0100
0001
0000
1000
0100
1000
0000
0010
0100
0010
0000
0100
0001
,  // measure 46
0100
0001
0100
0001
0010
0001
0010
0001
1000
0100
1000
0100
1000
0001
1000
0001
,  // measure 47
0100
0000
0000
0000
0110
0000
0000
0100
0000
0001
1000
0001
1000
0000
0100
0000
,  // measure 48
0010
0000
0001
0000
0100
0000
0010
1000
0000
0100
1000
0100
1000
0000
0100
0000
,  // measure 49
0010
0000
0001
0000
0010
0000
0100
1000
0000
0000
0010
0000
0110
0000
0100
0000
,  // measure 50
0101
0000
0000
0000
1001
0000
0000
1100
0000
0100
1000
0100
1000
0000
0010
0000
,  // measure 51
0110
0000
0000
0000
1010
0000
0000
0101
0000
0000
1000
0100
1000
0000
0001
0000
,  // measure 52
0010
0000
1000
0000
0010
0000
0001
0100
0000
0010
1000
0000
0001
0000
0010
0000
,  // measure 53
0011
0000
0000
0000
0100
0001
0000
0100
0000
0000
0010
0000
1000
0000
0100
0000
,  // measure 54
0001
0000
0100
0000
2000
0000
0000
3010
0000
0000
0100
0010
0100
0000
0001
0000
,  // measure 55
1001
0000
0001
1000
0001
1000
0001
1000
0001
0000
1000
0001
1000
0000
0001
0000
,  // measure 56
1001
0000
0001
1000
0001
0000
0001
0010
0001
0000
0001
0100
0001
0000
1000
0000
,  // measure 57
1001
0000
1000
0001
1000
0000
1000
0010
1000
0000
1000
0100
1000
0000
0100
0000
,  // measure 58
0110
0000
0010
0001
0010
0000
0010
1000
0010
0000
0010
0100
0010
0000
0100
0000
,  // measure 59
0110
0000
0000
0000
1001
0000
0000
0010
0000
1000
0001
0000
0100
0000
1000
0000
,  // measure 60
0200
0000
0000
0302
0000
0000
0013
0000
2000
0000
0000
3002
0000
0000
0103
0000
,  // measure 61
1100
0000
1000
0000
1010
0000
0010
0001
0000
0010
1000
0000
0001
0000
0100
0000
,  // measure 62
0110
0000
0010
0000
1001
0000
0001
1000
0000
0100
1000
0000
0001
0000
0100
0000
,  // measure 63
0011
0000
0000
0000
1100
0000
0000
0000
0110
0000
0000
0010
0001
0010
1000
0000
,  // measure 64
2200
0000
0000
0000
,  // measure 65
0000
0000
0000
0000
,  // measure 66
0300
3000
0000
0000
0000
0000
0000
0000
0000
0000
0000
0000
0000
0000
0000
0000
0000
0000
0000
0000
0000
0000
0000
0000
0000
0000
0000
0000
0000
0000
0000
0000
0000
0000
0000
0000
0000
0000
0000
0000
0000
0000
0000
0000
0000
0000
0000
0000
0000
0000
0000
0000
0000
0000
0000
0000
0000
0000
0000
0000
0000
0000
0000
0000
0000
0000
0000
0000
0000
0000
0000
0000
0000
0000
0000
0000
0000
0000
0000
0000
0000
0000
0000
0000
0000
0000
0000
0000
0000
0000
0000
0000
0000
0000
0000
0000
0000
0000
0000
0000
0000
0000
0000
0000
0000
0000
0000
0000
0000
0000
0000
0000
0000
0000
0000
0000
0000
0000
0000
0000
0000
0000
0000
0000
0000
0000
0000
0000
0000
0000
0000
0000
0000
0000
0000
0000
0000
0000
0000
0000
0000
0000
0000
0000
0000
0000
0000
0000
0000
0000
0000
0000
0000
0000
0000
0000
0000
0000
0000
0000
0000
0000
0000
0000
0000
0000
0000
0000
0000
0000
0000
0000
0000
0000
0000
0000
0000
0000
0000
0000
0000
0000
0000
0000
0000
0000
0000
0000
0000
0000
0000
0000
;
