#TITLE:Amnesia;
#SUBTITLE:;
#ARTIST:Chumbawamba;
#TITLETRANSLIT:;
#SUBTITLETRANSLIT:;
#ARTISTTRANSLIT:;
#GENRE:Rock;
#CREDIT:L33tAliceIp;
#MUSIC:Amnesia.ogg;
#BANNER:bn.png;
#BACKGROUND:bg.png;
#CDTITLE:;
#SAMPLESTART:61.630;
#SAMPLELENGTH:15.000;
#SELECTABLE:YES;
#OFFSET:-0.156;
#BPMS:0.000=124.817
,160.000=62.409
,176.000=124.817
;
#STOPS:;
#BGCHANGES:16.000=bubble2.avi=1.000=1=0=1===CrossFade==,
32.000=blackhole1.avi=1.000=0=0=1,
64.000=wheel4.avi=1.000=0=0=1,
80.000=tunnel4.avi=1.000=0=0=1,
96.000=wheel1.avi=1.000=0=0=1,
112.000=vortex1r.avi=1.000=0=0=1,
120.000=vortex1.avi=1.000=0=1=1=StretchRewind====,
128.000=star1.avi=1.400=0=0=1,
136.000=star1r.avi=1.400=0=0=1,
144.000=bubble2.avi=0.900=0=0=1,
152.000=bubble2r.avi=0.900=0=1=1=StretchRewind====,
160.000=bracelet1.avi=0.500=0=0=1,
176.000=star1.avi=1.400=0=0=1,
184.000=star1r.avi=1.400=0=0=1,
192.000=bubble2.avi=0.900=0=0=1,
200.000=bubble2r.avi=0.900=0=1=1=StretchRewind====,
208.000=blackhole1.avi=1.000=0=0=1,
224.000=tunnel4.avi=1.000=0=0=1,
234.000=Amnesia-jacket.png=1.000=1=0=1===CrossFade==,
99999.000=-nosongbg-=1.000=0=0=0=StretchNoLoop====
;
#FGCHANGES:;

//--------------- dance-single - ----------------
#NOTES:
     dance-single:
     :
     Beginner:
     2:
     0.093,0.139,0.103,0,0:
0000
0000
0000
0000
,
0000
0000
0000
0000
,
0000
0000
0000
0000
,
0000
0000
0000
0000
,
0001
0000
0000
0000
,
1000
0000
0000
0000
,
0001
0000
0000
0000
,
1000
0000
0000
0000
,
1001
0000
0000
0000
,
0100
0000
0000
0000
,
0110
0000
0000
0000
,
0001
0000
0000
0000
,
1001
0000
0000
0000
,
1000
0000
0000
0000
,
0110
0000
0000
0000
,
0100
0000
0000
0000
,
0100
0000
0000
0000
,
0100
0000
0000
0000
,
0001
0000
0000
0000
,
0001
0000
0000
0000
,
0010
0000
0000
0000
,
0010
0000
0000
0000
,
1000
0000
0000
0000
,
1000
0000
0000
0000
,
1001
0000
0000
0000
,
0001
0001
0000
0000
,
1000
0000
0000
0000
,
1000
1000
0000
0000
,
1000
0000
0001
0000
,
1000
0000
0000
0000
,
1000
0000
0001
0000
,
1000
0000
0000
0000
,
1001
0000
0000
0000
,
1001
0000
0000
0000
,
0010
0000
0010
0000
,
0010
0000
0000
0000
,
1001
0000
0000
0000
,
0110
0000
0000
0000
,
0100
0000
0100
0000
,
0100
0000
0000
0000
,
1000
0000
1000
0000
,
0001
0000
0001
0000
,
1000
0000
1000
0000
,
0001
0000
1001
0000
,
1000
0000
0000
0000
,
1000
0000
0000
0000
,
0001
0000
0001
0000
,
0001
0000
0000
0000
,
1001
0000
0000
0000
,
1000
0000
0000
0000
,
1000
0000
1000
0000
,
1000
0000
0000
0000
,
1001
0000
0000
0000
,
0001
0000
0000
0000
,
1000
0000
0001
0000
,
1000
0000
0000
0000
,
1001
0000
0000
0000
,
0010
0000
0000
0000
,
0100
0000
0100
0000
;

//--------------- dance-single - ----------------
#NOTES:
     dance-single:
     :
     Easy:
     6:
     0.187,0.279,0.294,0.016,0:
0000
0000
0000
0000
,
0000
0000
0000
0000
,
0000
0000
0000
0000
,
0000
0000
0000
0000
,
0001
0000
0001
0000
,
0001
0000
0001
0000
,
1000
0000
1000
0000
,
1000
0000
1000
0000
,
1001
0000
0100
0000
,
0010
0000
0100
0000
,
0110
0000
1000
0000
,
0001
0000
1000
0000
,
1001
0000
0010
0000
,
1000
0000
0100
0000
,
1001
0000
0010
0000
,
0010
0000
0000
0000
,
0110
0000
0100
0000
,
1000
1000
1000
0000
,
0001
0000
1000
0000
,
0001
0001
0001
0000
,
1000
0000
0100
0000
,
1000
0000
0010
0000
,
0100
0000
0010
0000
,
1000
0000
0100
0000
,
1001
0000
1000
0000
,
0001
0001
0001
0000
,
1001
0000
0100
0000
,
1000
1000
1000
0000
,
0110
0000
1000
0000
,
0001
0100
0001
0000
,
0110
0000
1000
0000
,
1000
0100
1000
0000
,
1001
0000
1001
0000
,
0110
0000
0110
0000
,
1001
0000
0110
0000
,
1000
0000
0001
0000
,
1001
0000
0110
0000
,
1001
0000
0110
0000
,
1000
0000
0001
0000
,
1000
0000
0001
0000
,
1001
0001
1000
1000
,
0010
0100
1000
1000
,
0100
1000
0010
0100
,
0001
1000
2002
3003
,
1001
0000
1001
0000
,
0110
0000
0110
0000
,
1000
0000
0001
0000
,
1000
0100
0100
0000
,
1001
0000
0110
0000
,
1001
0000
0110
0000
,
0001
0000
1000
0000
,
0001
0100
0100
0000
,
0110
0000
0110
0000
,
1001
0000
1001
0000
,
1000
0000
0001
0000
,
1000
0100
0100
0000
,
1001
0000
1001
0000
,
0110
0000
0110
0000
,
1000
1000
0001
0000
;

//--------------- dance-single - ----------------
#NOTES:
     dance-single:
     :
     Medium:
     10:
     0.351,0.381,0.238,0.072,0.016:
0000
0000
0000
0000
,
0000
0000
0000
0000
,
0000
0000
0000
0000
,
0000
0000
0000
0000
,
1000
0001
0100
0100
,
0001
0000
1000
0000
0100
0000
0100
1000
,
0010
0100
0010
0100
,
0001
0000
0001
0000
1000
0001
1000
0000
,
1001
0000
1000
0000
0100
0000
1000
0100
,
1000
0000
0010
0000
0100
0000
0010
0100
,
0010
0000
0001
0000
1000
0000
0001
1000
,
0100
0000
1000
0000
0010
0000
1000
0100
,
1000
0000
1000
0000
0100
0000
1000
0010
,
0100
0000
0001
0000
1000
0000
1000
0001
,
1000
0000
0100
0000
0010
0000
0100
0010
,
0220
0000
0000
0000
0000
0000
0000
0330
,
1000
0001
1000
0000
1000
0100
1000
0000
,
0010
1000
0010
0000
1000
0000
1001
0000
,
0001
1000
0001
0000
0100
0001
0100
0000
,
0010
0100
0010
0000
1000
0000
1001
0000
,
1000
0000
0001
0000
1000
0001
1000
0000
,
1000
0100
1000
0000
1000
0010
1000
0000
,
1000
0000
0100
0000
1000
0010
0100
0000
,
0100
0010
1000
0000
1000
0001
1000
0000
,
1001
0000
0000
1000
1000
0000
0000
0001
,
0001
0000
0000
0000
0000
0000
1000
0000
1000
0000
0000
0001
0000
0000
1000
0000
,
0100
0000
0000
0001
0001
0000
0000
1000
,
1000
0000
0000
0000
0000
0000
0001
0000
0001
0000
0000
1000
0000
0000
1000
0000
,
0100
0000
0000
0001
0100
0000
0000
1000
,
0100
0000
0000
0000
0000
0000
0001
0000
0100
0000
0000
0010
0000
0000
0100
0000
,
0010
0000
0000
1000
0100
0000
0000
0001
,
0100
0000
0000
0000
0000
0000
1000
0000
0100
0000
0000
1000
0000
0000
0001
0000
,
1001
1001
0100
0100
,
1001
0110
1000
1000
,
1000
0001
1000
0000
1000
0100
1000
0000
,
1000
0100
1000
0010
1000
0100
1000
0000
,
1001
1001
0010
0010
,
1001
0110
1000
1000
,
0001
1000
0001
0000
0100
0001
0100
0000
,
0010
1000
0100
1000
0001
1000
0100
1000
,
0020
1030
2000
3001
,
0200
0310
0020
0130
,
1000
0001
1000
0001
1000
0100
1000
0010
,
0100
0000
0010
0000
0220
0000
0000
0330
,
1001
1001
0100
0100
,
1001
0110
1000
1000
,
1000
0001
1000
0000
1000
0100
0010
0000
,
0001
1000
0001
1000
0001
0000
0100
0000
,
1001
1001
0100
0100
,
1001
0110
1000
1000
,
0001
1000
0001
0000
1000
0100
1000
0000
,
1000
0001
1000
0100
1000
0000
1000
0000
,
1001
1001
0010
0010
,
1001
0110
1000
1000
,
1000
0001
1000
0000
1000
0100
1000
0000
,
1000
0100
1000
0010
1000
0001
0001
0000
,
1001
1001
0010
0010
,
1001
0110
1000
1000
,
1000
0001
1000
0001
2000
0000
0000
0000
,
0000
0000
0000
0000
,
3000
0000
0000
0000
;

//--------------- dance-single - ----------------
#NOTES:
     dance-single:
     :
     Hard:
     11:
     0.455,0.596,0.072,0.072,0.068:
0000
0000
0000
0000
,
0000
0000
0000
0000
,
0000
0000
0000
0000
,
0000
0000
0000
0000
,
1000
0000
0001
1000
0001
0000
1000
0100
,
0010
0000
0000
0000
1000
0000
0100
0000
1000
0000
0000
0100
0000
0000
1000
0000
,
0010
0000
1000
0001
1000
0000
1000
0100
,
0010
0000
0000
0000
0001
0000
0001
0000
0010
0000
0000
0010
0000
0000
0100
0000
,
1001
0000
1000
0001
1000
0000
1000
1000
,
0100
0000
0000
0000
0010
0000
0100
0000
0010
0000
0000
0001
0000
0000
0100
0000
,
1001
0000
1000
0100
1000
0000
1000
0010
,
1000
0000
0000
0000
0001
0000
1000
0000
0100
0000
0000
0100
0000
0000
0010
0000
,
1001
0000
1000
0001
1000
0000
1000
0100
,
1000
0000
0000
0000
1000
0000
0010
0000
1000
0000
0000
0001
0000
0000
1000
0000
,
1001
0000
0000
0000
0001
0000
0100
0000
0001
0000
0000
0000
1000
0001
1000
0000
,
0020
1000
1000
1030
,
1000
0001
1000
0001
1000
0001
1000
0001
,
1000
0100
1000
0100
1000
0100
1000
0100
,
1000
0010
1000
0010
1000
0001
1000
0001
,
0100
0001
0100
0001
0100
0010
0100
0000
,
0001
1000
0001
1000
0001
1000
0001
1000
,
0001
0100
0001
0100
0001
0100
0001
0100
,
0001
0010
0001
0010
0001
0010
0100
0010
,
0100
0010
0100
0010
0100
0100
0100
0000
,
1001
0000
1000
0001
1000
0000
1000
0100
,
1000
0000
0000
0000
1000
0000
0100
0000
0010
0000
0000
0010
0000
0000
0100
0000
,
1001
0000
1000
0001
0100
0000
0001
0010
,
0100
0000
0000
0000
0001
0000
1000
0000
1000
0000
0000
0100
0000
0000
1000
0000
,
1001
0000
0001
1000
0001
0000
1000
0100
,
1000
0000
0000
0000
0001
0000
1000
0000
0001
0000
0000
0100
0000
0000
0001
0000
,
1001
0000
1000
0001
1000
0000
0001
1000
,
0001
1000
0100
1000
0001
0001
0001
0000
,
1000
0001
1000
0001
1000
0001
1000
0000
,
0010
0100
0010
0100
0010
0100
0010
0000
,
1000
0001
1000
0001
1000
0100
1000
0100
,
1000
0100
0010
0001
0010
0100
1000
0000
,
1000
0001
1000
0001
1000
0001
1000
0000
,
0010
0100
0010
0100
0010
0100
0010
0000
,
1000
0100
1000
0100
0010
0100
0010
0100
,
1000
0100
0010
0001
0010
0100
1000
1000
,
2000
0000
0001
0000
0001
0000
3001
1000
0200
0000
0010
0000
0010
0000
0310
0100
,
0020
0000
0001
0000
0001
0000
0031
0010
0200
0000
0010
0000
0010
0000
0310
0100
,
2000
0000
0000
0000
0000
0000
0001
0000
0000
0000
0000
0000
0001
0000
0000
0000
0000
0000
3001
0000
0000
1000
0000
0000
0001
0000
0000
0000
0000
0000
1000
0000
0000
0000
0000
0000
0001
0000
0000
0000
1000
0000
0000
0000
0010
0000
0000
0000
,
1000
0000
0001
1000
0001
0000
0001
0000
2002
0000
0000
0000
0000
0000
3003
0000
,
1000
0001
1000
0001
1000
0001
1000
0000
,
0100
0010
0100
0010
0100
0010
0100
0000
,
0001
1000
0001
1000
0100
0010
0100
0010
,
0001
0010
0100
1000
0100
0010
0001
0000
,
1000
0001
1000
0001
1000
0001
1000
0000
,
0100
0010
0100
0010
0100
0010
0100
0000
,
1000
0001
1000
0001
0100
0010
0100
0010
,
1000
0100
0010
0001
0010
0100
1000
0000
,
0001
1000
0001
1000
0001
1000
0001
0000
,
0100
0010
0100
0010
0100
0010
0100
0000
,
1000
0001
1000
0001
0100
0010
0100
0010
,
1000
0100
0010
0001
0010
0100
1000
0000
,
1000
0001
1000
0001
1000
0001
1000
0000
,
0010
0100
0010
0100
0010
0100
0010
0000
,
1000
0100
0010
0001
0200
0000
0000
0000
,
0000
0000
0000
0000
,
0300
0000
0000
0000
;

//--------------- dance-single - ----------------
#NOTES:
     dance-single:
     :
     Challenge:
     14:
     0.543,0.793,0.246,0.087,0.258:
0000
0000
0000
0000
,
0000
0000
0000
0000
,
0000
0000
0000
0000
,
0000
0000
0000
0000
,
1000
0001
1000
0001
1000
0001
1000
0001
,
0100
0000
0010
0000
0100
0000
0010
0000
0200
0000
0000
0001
0000
0000
0301
0000
,
0100
0001
0100
0001
0100
0001
0100
0001
,
0010
0000
0100
0000
0010
0000
0100
0000
0010
1000
0010
1000
0010
1000
0010
0000
,
1001
0000
0000
0000
1000
0000
0001
0000
1000
0000
0100
0000
1000
0010
1000
0000
,
0001
0000
0000
0000
1000
0000
0001
0000
0002
0000
0000
0100
0000
0000
1003
0000
,
1001
0000
0000
0000
1000
0000
0001
0000
1000
0000
0100
0000
1000
0010
1000
0000
,
0001
0000
0000
0000
1000
0000
0001
0000
2000
0000
0000
0100
0000
0000
3001
0000
,
1001
0000
1000
0000
0001
0000
1000
0000
0001
0000
1000
0000
0001
0100
0001
0000
,
0100
0000
0010
0000
0100
0000
0010
0000
0200
0000
0000
0010
0000
0000
0310
0000
,
1001
0000
0000
0000
0001
0000
1000
0000
0001
0000
1000
0000
0001
0100
0001
0000
,
0010
0100
0010
0100
0010
0100
0020
0000
,
1030
0001
1000
0100
1000
0001
0100
0010
,
1000
0001
1000
0100
1000
0001
1000
0100
,
1000
0001
0100
0010
0001
0100
0010
1000
,
0100
1000
0001
1000
0100
1000
0001
1000
,
0100
0001
0010
0100
0001
1000
0100
1000
,
0010
0100
1000
0001
1000
0001
0010
0100
,
0001
0100
0010
1000
0100
1000
0100
1000
,
0010
0000
0100
0000
0010
0000
0100
0000
0001
0100
0001
0100
0001
0100
0001
0000
,
0110
0000
1000
0001
1000
0000
1000
0100
,
1000
0000
0000
0000
1000
0000
0001
0000
2000
0000
0000
0001
0000
0000
3001
0000
,
1001
0000
0001
1000
0100
0000
1000
0001
,
0100
0000
0000
0000
0001
0000
1000
0000
0200
0000
0000
0010
0000
0000
0310
0000
,
1001
0001
1000
0001
1000
0001
1000
0000
,
1000
0000
0001
0000
1000
0000
0001
0000
2000
0000
0000
0001
0000
0000
3001
0000
,
0001
1000
0001
1000
0100
1000
0010
1000
,
0100
0000
0001
0000
1000
0000
0001
0000
0100
0001
0100
0001
0100
0001
0100
0000
,
1001
0000
1001
0000
0100
0010
0100
0000
,
1001
0000
0110
0000
1000
0001
1000
0100
,
1000
0010
1000
0010
1000
0100
0010
0100
,
1000
0100
1000
0000
0010
0000
0001
0100
0000
0010
0100
0000
1000
0000
0000
0000
,
1001
0000
0110
0000
1000
0001
1000
0000
,
1001
0000
0110
0000
1000
0001
1000
0000
,
1000
0100
1000
0100
0010
0100
0010
0100
,
1000
0100
1000
0000
1000
0000
0001
1000
0000
0001
0100
0000
1000
0000
0100
0000
,
1000
0000
0000
0000
0001
0000
0100
0000
0001
0000
0000
0100
0000
0000
1000
0000
0001
0000
0000
0000
1000
0000
0100
0000
1000
0000
0000
0100
0000
0000
1000
0000
,
0001
0000
0000
0000
1000
0000
0100
0000
1000
0000
0000
0100
0000
0000
1000
0000
0001
0000
0000
0000
0001
0000
0100
0000
0001
0000
0000
0100
0000
0000
1000
0000
,
0100
0000
0000
0000
0000
0000
0000
0000
0000
0000
0000
0000
1000
0000
0000
0000
0000
0000
0010
0000
0000
0000
0000
0000
1000
0000
0000
0000
0000
0000
0000
0000
0000
0001
0000
0000
0000
0000
0000
0000
0000
0000
0001
0000
0000
0000
0000
0000
1000
0000
0000
0000
0000
0000
0100
0000
0000
0000
0000
0000
0000
0000
0000
1000
0000
0000
0000
0000
0000
0000
0000
0000
0001
0000
0000
0000
0000
0000
0000
0000
0000
1000
0000
0000
0000
0000
0000
0000
0010
0000
0000
0000
1000
0000
0000
0000
,
0010
0000
0000
0000
1000
0000
0100
0000
0010
0000
0000
0000
0001
0000
0000
0000
1000
0001
1000
0001
1000
0001
1000
0001
1000
0001
1000
0001
1000
0000
0000
0000
,
1001
0000
1001
0000
0010
0100
0010
0000
,
1001
0000
0110
0000
1000
0001
1000
0100
,
1000
0001
1000
0100
1000
0001
0010
0100
,
1000
0100
1000
0000
1000
0000
0001
1000
0000
1000
0001
0000
1000
0000
0100
0000
,
0110
0000
0110
0000
1000
0001
1000
0000
,
1001
0000
0110
0000
1000
0001
1000
0100
,
0010
0100
0010
0100
0001
0100
0010
0001
,
1000
0001
1000
0000
1000
0000
1000
0100
0000
1000
0100
0000
0010
0000
0100
0000
,
1001
0000
1001
0000
0100
0010
0100
0000
,
1001
0000
0110
0000
1000
0001
1000
0001
,
0010
1000
0010
1000
0010
1000
0010
1000
,
0001
0100
0001
0000
0001
0000
1000
0100
0000
0100
1000
0000
1000
0000
1000
0000
,
1001
0000
1001
0000
0100
0010
0100
0000
,
1001
0000
1001
0000
1000
0001
1000
0100
,
1000
0001
1000
0100
2000
0000
0001
0002
,
0000
0003
0001
0001
0000
0002
0000
0000
,
0000
0000
3003
0000
;
