#TITLE:Against the Wind;
#SUBTITLE:;
#ARTIST:Maire Brennan;
#TITLETRANSLIT:;
#SUBTITLETRANSLIT:;
#ARTISTTRANSLIT:;
#CREDIT:;
#BANNER:;
#BACKGROUND:;
#LYRICSPATH:;
#CDTITLE:;
#MUSIC:against the wind.mp3;
#OFFSET:0.120;
#SAMPLESTART:68.213;
#SAMPLELENGTH:12.000;
#SELECTABLE:YES;
#BPMS:0.000=109.760;
#STOPS:;
#BGCHANGES:;

//---------------dance-single - ----------------
#NOTES:
     dance-single:
     :
     Challenge:
     12:
     0.538,0.711,0.125,0.382,0.559: // measure 1
0000
0000
0000
0000
,  // measure 2
0000
0000
0000
0000
,  // measure 3
1100
0000
1000
0100
0010
0001
0010
0100
1000
0000
0100
0001
0100
0010
1000
0000
,  // measure 4
0100
0000
0000
0000
0010
0000
0001
0000
0010
0000
0001
0000
0100
0000
0001
0000
0100
0000
0001
0000
1000
0000
0001
0000
1000
0000
0001
0000
0010
0100
1000
0000
,  // measure 5
0100
0000
0010
0001
0100
0001
0100
0010
1000
0000
0010
1000
0010
0100
0001
0000
,  // measure 6
0010
0000
0100
1000
0010
1000
0001
1000
0010
0000
1000
0100
0010
0100
0010
0000
,  // measure 7
0002
0000
0000
0000
0013
0000
0000
0010
0100
0000
1000
0000
1100
0000
0000
0000
,  // measure 8
0020
0000
0000
0000
0031
0000
0000
0001
1000
0000
0010
0000
1010
0000
0000
0000
,  // measure 9
0201
0000
0000
0000
0310
0000
0000
0010
1000
0000
0100
0000
1100
0000
0000
0000
,  // measure 10
0011
0101
0110
1010
,  // measure 11
1001
0000
0000
0000
1000
0001
1000
0100
0010
0000
0001
0000
0100
0000
0000
0000
,  // measure 12
0020
0000
0000
0000
1030
0001
1000
0100
0010
0000
0001
0000
0010
0000
0000
0000
,  // measure 13
0200
0000
0000
0000
1300
0010
1000
0000
0100
0000
0010
0001
0100
0001
0100
0000
,  // measure 14
0002
0023
2030
3020
,  // measure 15
0032
0000
0000
0000
0103
0000
0000
0100
0010
0000
1000
0000
1010
0000
0000
0000
,  // measure 16
0201
0000
0000
0000
0301
0000
0000
0001
0010
0000
0100
0000
0110
0000
0000
0000
,  // measure 17
0011
0000
0000
0001
0010
0100
1000
0010
1000
0000
0000
0100
0010
0001
0010
0100
,  // measure 18
1000
0000
0000
0001
1000
0100
0010
0001
0010
0000
0100
1000
0010
0100
0001
0100
,  // measure 19
0010
0000
0000
1000
0100
0010
0001
0010
0100
0000
0000
1000
0010
1000
0010
0000
,  // measure 20
1000
0000
0000
0100
0010
0001
0010
0100
1000
0000
0000
0010
1000
0010
0100
0001
,  // measure 21
0100
0000
0000
0001
0100
0010
1000
0010
1000
0000
0000
0100
0010
0001
0010
0100
,  // measure 22
2000
3200
0320
0031
,  // measure 23
0022
0000
0033
0200
,  // measure 24
2300
0000
3020
0032
,  // measure 25
0023
0000
0000
2030
0000
0000
0000
0000
,  // measure 26
3200
0000
0300
0001
0200
0000
2300
0000
,  // measure 27
3020
0000
0000
0130
0000
0000
0002
0000
,  // measure 28
0203
0000
0320
2030
,  // measure 29
3200
0320
0030
0000
,  // measure 30
0002
0000
0000
0013
0200
0000
1300
0000
,  // measure 31
1100
0000
0000
0000
,  // measure 32
0020
0000
0000
0031
1000
0000
0000
0001
,  // measure 33
0000
0010
0100
1000
,  // measure 34
0100
0000
0000
0000
0010
0000
0000
0000
0001
0000
0000
0100
0010
1000
0010
0100
,  // measure 35
0001
0000
0000
0001
0010
0000
0100
0000
1000
0000
0000
0100
0010
0001
0100
0001
,  // measure 36
0100
0000
0000
0100
0010
0000
1000
0000
0010
0000
0000
0010
0100
0001
0100
0001
,  // measure 37
0010
0000
0000
0010
0100
0000
1000
0000
0100
0000
0000
0100
0010
0001
0100
1000
,  // measure 38
0100
0000
0000
0001
0010
1000
0010
0001
0100
0000
0000
0010
1000
0010
0100
0001
,  // measure 39
0010
0000
0000
0010
0100
0000
0000
0100
1000
0000
0000
1000
0010
0000
0000
0010
,  // measure 40
0001
0000
0000
0001
0010
0000
0000
0010
1000
0000
0000
1000
0100
0000
0000
0100
,  // measure 41
0001
0000
0000
0001
0100
0000
0000
0100
1000
0000
0000
1000
0010
0000
0000
0010
,  // measure 42
0100
0000
0000
0100
0001
0000
0000
0001
0100
0000
0000
0100
0010
0000
0000
0010
,  // measure 43
1000
0100
0010
0001
,  // measure 44
0010
0000
0000
0000
0100
0000
0000
0000
1000
0000
0010
0100
0001
0100
0010
1000
,  // measure 45
0200
0000
0000
0010
0010
0000
0000
1000
,  // measure 46
2300
3020
0000
0000
,  // measure 47
0230
0000
0000
0001
0001
0000
0010
0320
,  // measure 48
0000
1030
0200
0000
0320
0000
0032
0000
,  // measure 49
0023
0000
0230
0000
,  // measure 50
1300
0000
0000
0010
0200
0000
0320
0000
,  // measure 51
0032
0000
0023
0000
0130
0000
0000
1000
,  // measure 52
0020
0000
0000
0130
0001
0000
0100
0000
,  // measure 53
0010
1000
0100
0010
,  // measure 54
0001
0000
0000
0000
0000
0000
0000
0000
0010
0000
0000
0000
0000
0000
0000
0000
0100
0000
0000
0000
0000
0000
0000
0000
1000
0000
0000
0000
0100
0010
0100
0010
,  // measure 55
0100
0000
0000
0000
0000
0000
1000
0000
0000
0000
0100
0000
0010
0000
0000
0000
0000
0000
0001
0000
0000
0000
0010
0100
1000
0000
0000
0000
0000
0000
1000
0000
,  // measure 56
0010
0000
0000
0000
0000
0000
0000
0000
0000
0000
0000
0000
0000
0000
0000
0000
0000
0000
0000
0000
0000
0000
0000
0000
0000
0000
0000
0000
0000
0000
0000
0000
0000
0000
0000
0000
0100
0000
0000
0000
0000
0000
0000
0000
0000
0000
0000
0000
0000
0000
0000
0000
0000
0000
0000
0000
0000
0000
0000
0000
0001
0000
0000
0000
0000
0000
0000
0000
0000
0000
0000
0000
0100
0000
0000
0000
0000
0000
0000
0000
0010
0000
0000
0000
0000
0000
0000
0000
1000
0000
0000
0000
0000
0000
0000
0000
0100
0000
0000
0000
0000
0000
0000
0000
0000
0000
0000
0000
0000
0000
0000
0000
0000
0000
0000
0000
0000
0000
0000
0000
0010
0000
0000
0000
0000
0000
0000
0000
0000
0000
0000
0000
0001
0000
0000
0000
0000
0000
0000
0000
0000
0000
0000
0000
0100
0000
0000
0000
0000
0000
0001
0000
0000
0000
0000
0000
0100
0000
0000
0000
0000
0000
0000
0000
0000
0000
0000
0000
0001
0000
0000
0000
0000
0000
0000
0000
0000
0000
0000
0000
0000
0000
0000
0000
0000
0000
0000
0000
0000
0000
0000
0000
,  // measure 57
1000
0000
0000
0001
0100
0010
1000
0000
0010
0000
0100
0001
0000
0010
0000
0100
,  // measure 58
1000
0000
0000
0000
0000
0000
0010
0000
0000
0000
1000
0000
0001
0000
0000
0000
1000
0000
0000
0000
0010
0000
1000
0000
0100
0000
0010
0000
0001
0100
0001
0000
,  // measure 59
1000
0000
0000
0000
0000
0000
0001
0000
0000
0000
0100
0000
0001
0000
0000
0000
0010
0000
0100
1000
0100
0000
0000
0000
0010
0000
0001
1000
0001
0000
0000
0000
,  // measure 60
0010
0000
0000
0100
1000
0100
0010
0001
0100
0000
0010
0000
1000
0010
0100
0000
,  // measure 61
0001
0000
0010
0100
1000
0100
0010
0000
0001
0100
0010
0000
0000
1000
0000
0010
,  // measure 62
0100
0000
0000
0000
0000
0000
0001
0000
0010
0000
0100
0000
1000
0000
0000
0000
0100
0000
0000
0000
0010
0000
0001
0000
1000
0000
0001
0000
0010
0100
1000
0000
,  // measure 63
0001
2002
0000
3003
0000
0000
0000
0000
;

//---------------dance-single - ----------------
#NOTES:
     dance-single:
     :
     Hard:
     10:
     0.435,0.502,0.132,0.633,0.099: // measure 1
0000
0000
0000
0000
,  // measure 2
0000
0000
0000
0000
,  // measure 3
1000
0000
0100
0000
1000
0000
0100
0000
0010
0000
0100
0010
0100
0000
0010
0000
,  // measure 4
0001
0000
1000
0001
1000
0000
0010
0000
0100
0000
0010
0000
0100
0010
0100
0000
,  // measure 5
0010
0000
1000
0000
0010
0000
0100
0010
0100
0000
0010
0000
1000
0000
0100
1000
,  // measure 6
0100
0000
0010
0000
0001
0010
0001
0000
1000
0000
0001
0000
0100
0010
0100
0000
,  // measure 7
0110
0000
0000
0000
1010
0000
0000
1000
0010
0000
0010
0000
0100
0000
0000
0000
,  // measure 8
0011
0000
0000
0000
0101
0000
0000
0001
0100
0000
0100
0000
0010
0000
0000
0000
,  // measure 9
1010
0000
0000
0000
0101
0000
0000
0001
0010
0000
0010
0000
0100
0000
0000
0000
,  // measure 10
2000
0000
0000
0000
3002
0000
0000
0000
0203
0000
0000
0000
0320
0000
0000
0030
,  // measure 11
1000
0000
0000
0000
0001
0000
0000
1000
0100
0000
0001
0000
0010
0000
0000
0000
,  // measure 12
0100
0000
0000
0000
0001
0000
0000
0010
0100
0000
0100
0000
1000
0000
0000
0000
,  // measure 13
0001
0000
0000
0000
0100
0000
0000
0010
1000
0000
0001
0000
0100
0000
0000
0000
,  // measure 14
0020
2030
3002
0103
,  // measure 15
2002
3003
0000
0000
0000
0000
0000
0000
0000
0000
0000
0000
0000
0000
0000
0000
0000
0000
0000
0000
0000
0000
0000
0000
0000
0000
0000
0000
0000
0000
0000
0000
0000
0000
0000
0000
0000
0000
0000
0000
0000
0000
0000
0000
0000
0000
0000
0000
0001
0000
0000
0000
0000
0000
0000
0000
0000
0000
0000
0000
0000
0000
0000
0000
0000
0000
0000
0000
0000
0000
0000
0000
0000
0000
0000
0000
0000
0000
0000
0000
0000
0000
0000
0000
0001
0000
0000
0000
0000
0000
0000
0000
0000
0000
0000
0000
0100
0000
0000
0000
0000
0000
0000
0000
0000
0000
0000
0000
0000
0000
0000
0000
0000
0000
0000
0000
0000
0000
0000
0000
0100
0000
0000
0000
0000
0000
0000
0000
0000
0000
0000
0000
0000
0000
0000
0000
0000
0000
0000
0000
0000
0000
0000
0000
0010
0000
0000
0000
0000
0000
0000
0000
0000
0000
0000
0000
0000
0000
0000
0000
0000
0000
0000
0000
0000
0000
0000
0000
0000
0000
0000
0000
0000
0000
0000
0000
0000
0000
0000
0000
0000
0000
0000
0000
0000
0000
0000
0000
0000
0000
0000
0000
,  // measure 16
1010
0000
0000
0000
0010
0000
0000
1000
0010
0000
0100
0000
0001
0000
0000
0000
,  // measure 17
0011
0000
0000
0000
0001
0000
0000
0100
0010
0000
1000
0000
0001
0000
0000
0000
,  // measure 18
0020
0230
2300
3001
,  // measure 19
1001
0000
0000
0000
0001
0000
0000
0100
0010
0000
1000
0000
0001
0000
0000
0000
,  // measure 20
0020
0000
0000
0000
0130
0000
0000
1000
0001
0000
0100
0000
0010
0000
0000
0000
,  // measure 21
1000
0000
0000
0000
1000
0000
0000
1000
1000
0000
1000
0000
1000
0000
0000
0000
,  // measure 22
0020
0230
0302
0013
,  // measure 23
2200
0000
3300
1000
,  // measure 24
0002
0000
0203
0320
,  // measure 25
2030
0000
0000
3002
0000
0000
0000
0000
,  // measure 26
0203
0000
0000
0310
2000
0000
3002
0000
,  // measure 27
0023
0230
0000
2300
,  // measure 28
3002
0000
0203
0320
,  // measure 29
2030
3002
0000
0000
,  // measure 30
0203
0000
0320
1030
,  // measure 31
2002
0000
0000
3003
,  // measure 32
0002
0000
0000
0103
0020
0000
0000
2030
,  // measure 33
0000
0002
3000
0000
0000
0000
0000
0000
,  // measure 34
0103
0000
0010
1000
0010
0000
0100
0001
,  // measure 35
0020
0100
0100
0130
,  // measure 36
2100
0000
0010
0000
0100
0000
0001
3000
,  // measure 37
0102
0010
0100
0013
,  // measure 38
1000
0000
0100
0010
0100
0000
0010
0001
,  // measure 39
0012
0000
0100
0000
0010
0000
0100
0003
,  // measure 40
0010
1000
0010
0100
0001
0010
0001
0000
,  // measure 41
0200
0000
0000
0310
2000
0000
3002
0000
,  // measure 42
0203
0020
0330
2000
,  // measure 43
3020
0230
0302
0023
,  // measure 44
0230
2000
0000
3300
,  // measure 45
0002
0000
0103
0010
2000
0000
3001
0010
,  // measure 46
0200
0000
0000
0000
0000
0000
0000
0000
0000
0000
0000
0000
0000
0000
0000
0000
0000
0000
0000
0000
0000
0000
0000
0000
0000
0000
0000
0000
0000
0000
0000
0000
0000
0000
0000
0000
0000
0000
0000
0000
0000
0000
0000
0000
0000
0000
0000
0000
2300
0000
0000
0000
0000
0000
0000
0000
0000
0000
0000
0000
0000
0000
0000
0000
0000
0000
0000
0000
0000
0000
0000
0000
0000
0000
0000
0000
0000
0000
0000
0000
0000
0000
0000
0000
0000
0000
0000
0000
0000
0000
0000
0000
0000
0000
0000
0000
3002
0000
0000
0000
0000
0000
0000
0000
0000
0000
0000
0000
0000
0000
0000
0000
0000
0000
0000
0000
0000
0000
0000
0000
0000
0000
0000
0000
0000
0000
0000
0000
0000
0000
0000
0000
0000
0000
0000
0000
0000
0000
0000
0000
0000
0000
0000
0000
0203
0300
0000
0000
0000
0000
0000
0000
0000
0000
0000
0000
0000
0000
0000
0000
0000
0000
0000
0000
0000
0000
0000
0000
0000
0000
0000
0000
0000
0000
0000
0000
0000
0000
0000
0000
0000
0000
0000
0000
0000
0000
0000
0000
0000
0000
0000
0000
,  // measure 47
0110
0000
0010
1000
0020
0000
0130
0001
,  // measure 48
0020
0000
0230
0000
1300
0001
0200
0000
,  // measure 49
0320
2030
3002
0023
,  // measure 50
0230
0000
2300
0000
3001
0100
0020
0000
,  // measure 51
2030
0000
3002
0000
0103
0010
1000
0001
,  // measure 52
0020
0000
0130
1000
0002
0000
0203
0000
,  // measure 53
0320
0000
2030
0000
3100
0010
0200
0000
,  // measure 54
2300
3002
0203
0310
,  // measure 55
1010
0000
1000
0010
0100
0000
0001
0000
,  // measure 56
0001
0000
0000
0000
0010
0000
0100
0000
1000
0000
0000
0000
0100
0010
0100
0010
,  // measure 57
0100
0000
0000
0000
0000
0000
1000
0000
0000
0000
0000
0000
0000
1000
0000
1000
,  // measure 58
0001
0000
0000
0100
0000
0000
0010
1000
,  // measure 59
0010
0000
0000
0000
0100
0000
0001
0000
0010
0000
0001
0000
0100
0010
0100
0000
,  // measure 60
0001
0000
1000
0000
0100
0000
0010
0100
0010
0000
0001
0000
1000
0001
1000
0001
,  // measure 61
1000
0010
0100
0010
1000
0001
0010
0100
,  // measure 62
1000
0100
0010
0001
0100
0010
1000
0001
,  // measure 63
1001
0000
0000
0000
;

//---------------dance-single - ----------------
#NOTES:
     dance-single:
     :
     Medium:
     7:
     0.364,0.388,0.118,0.794,0.000: // measure 1
0000
0000
0000
0000
,  // measure 2
0000
0000
0000
0000
,  // measure 3
1000
0000
0001
0100
0010
0000
1000
0001
,  // measure 4
1000
0000
0010
0100
0010
0000
1000
0001
,  // measure 5
1000
0000
0010
0100
0010
0000
1000
0100
,  // measure 6
1000
0000
0001
0100
0001
0000
0010
0100
,  // measure 7
2000
3002
0203
0000
,  // measure 8
0320
2030
3002
0003
,  // measure 9
0200
0320
2030
3000
,  // measure 10
0002
0023
0230
2300
,  // measure 11
3002
0203
0320
0030
,  // measure 12
2000
3002
0203
0300
,  // measure 13
0020
2030
3002
0003
,  // measure 14
0200
0320
2030
3001
,  // measure 15
1002
0203
0320
0030
,  // measure 16
2000
3002
0203
0300
,  // measure 17
0020
2030
3002
0003
,  // measure 18
0200
0320
2030
3000
,  // measure 19
1002
0203
0320
0030
,  // measure 20
2000
3002
0203
0300
,  // measure 21
0020
2030
3002
0003
,  // measure 22
0020
0230
2300
3001
,  // measure 23
1002
0000
0000
0203
,  // measure 24
0320
0000
2030
3002
,  // measure 25
0200
0000
0000
0303
,  // measure 26
0012
0000
0100
1000
,  // measure 27
0020
0000
0033
0100
,  // measure 28
0020
0000
2030
3002
,  // measure 29
0200
0000
0303
0000
,  // measure 30
0020
0000
1030
0001
,  // measure 31
2002
0000
3003
0000
,  // measure 32
0220
0330
0022
0033
,  // measure 33
0202
0303
0020
2030
,  // measure 34
3002
0203
0320
2030
,  // measure 35
3002
0000
0203
0000
,  // measure 36
0320
0000
2030
0000
,  // measure 37
3000
0100
0010
1000
,  // measure 38
0001
0010
0100
1000
,  // measure 39
1002
0100
0100
0103
,  // measure 40
0020
1000
1000
1030
,  // measure 41
0200
0001
0001
0301
,  // measure 42
0020
0100
0001
0130
,  // measure 43
2001
0010
0010
3010
,  // measure 44
0200
0302
0203
0320
,  // measure 45
2030
3002
0023
0230
,  // measure 46
2300
3002
0203
0310
,  // measure 47
2001
0010
0010
3010
,  // measure 48
0100
0010
0010
0010
,  // measure 49
0210
0010
0010
0310
,  // measure 50
2001
0010
0100
3001
,  // measure 51
0012
0000
0100
0000
0100
0100
0103
0000
,  // measure 52
2000
0000
0000
3010
0200
0000
0000
0000
,  // measure 53
0302
0000
0023
0000
0130
1000
0200
0000
,  // measure 54
0320
0032
0203
0310
,  // measure 55
1001
0000
0001
0100
0001
0000
0010
0000
,  // measure 56
0100
0000
1000
0001
1000
0000
0010
0100
,  // measure 57
0010
1000
0001
0100
,  // measure 58
0010
0000
1000
0100
0010
0000
0001
0100
,  // measure 59
0010
0000
1000
0001
0100
0000
0010
1000
,  // measure 60
0010
0000
0100
0001
0010
0000
0001
0100
,  // measure 61
0010
1000
0001
0100
,  // measure 62
0010
0000
1000
0000
0100
0000
0010
0010
,  // measure 63
1001
0000
0000
0000
;

//---------------dance-single - ----------------
#NOTES:
     dance-single:
     :
     Easy:
     4:
     0.226,0.228,0.074,0.000,0.000: // measure 1
0000
0000
0000
0000
,  // measure 2
0000
0000
0000
0000
,  // measure 3
1000
0001
0100
0000
,  // measure 4
0010
0000
1000
0001
,  // measure 5
0100
0000
0010
1000
,  // measure 6
0001
0000
0100
0010
,  // measure 7
0110
1000
1000
0001
,  // measure 8
0100
0010
1000
0001
,  // measure 9
0010
0100
1000
0001
,  // measure 10
0100
0010
0100
0010
,  // measure 11
1000
0001
0100
0010
,  // measure 12
1000
0100
0100
0100
,  // measure 13
0010
0010
0010
0010
,  // measure 14
1000
0001
0100
0010
,  // measure 15
1001
0010
0100
0010
,  // measure 16
1000
0100
1000
0001
,  // measure 17
0100
0100
0010
0010
,  // measure 18
1000
0001
0100
0010
,  // measure 19
1001
0010
0100
0010
,  // measure 20
1000
0100
1000
0001
,  // measure 21
0100
0010
1000
0010
,  // measure 22
0100
0001
0010
0100
,  // measure 23
0110
0000
0000
0100
,  // measure 24
1000
0000
0001
0100
,  // measure 25
0010
0000
1000
0000
,  // measure 26
0001
0000
1000
0010
,  // measure 27
0100
0000
0001
0000
,  // measure 28
0100
0000
0010
1000
,  // measure 29
0001
0000
0001
0000
,  // measure 30
0100
0000
0010
1000
,  // measure 31
1001
0000
0010
0000
,  // measure 32
1000
0000
0001
0000
,  // measure 33
0100
0000
0010
1000
,  // measure 34
0001
0100
0010
1000
,  // measure 35
0001
0000
0001
0000
,  // measure 36
0100
0000
0010
0010
,  // measure 37
0010
0000
1000
1000
,  // measure 38
1000
0000
0001
0001
,  // measure 39
1001
0000
1000
1000
,  // measure 40
0010
0000
0100
0001
,  // measure 41
0100
0000
0010
1000
,  // measure 42
0010
0010
0000
0000
,  // measure 43
0001
0100
0010
1000
,  // measure 44
0001
0000
1000
0000
,  // measure 45
0001
1000
0010
0100
,  // measure 46
0001
0010
0001
0100
,  // measure 47
1001
1000
0010
0001
,  // measure 48
0100
0100
0010
1000
,  // measure 49
0001
0100
0010
1000
,  // measure 50
0100
0100
0010
0010
,  // measure 51
0001
0001
0100
0100
,  // measure 52
0010
0010
1000
1000
,  // measure 53
0001
1000
0010
0010
,  // measure 54
0100
0001
0100
0001
,  // measure 55
0101
0010
1000
0100
,  // measure 56
0010
0000
0010
0000
,  // measure 57
1001
0000
0010
0100
,  // measure 58
0001
0010
0100
1000
,  // measure 59
0100
0100
0010
0010
,  // measure 60
0001
0001
0100
0100
,  // measure 61
0010
1000
0001
0100
,  // measure 62
0010
1000
0001
0100
,  // measure 63
1001
0000
0000
0000
;
