#TITLE:6 Underground;
#SUBTITLE:(Nellee Hooper Edit);
#ARTIST:Sneaker Pimps;
#TITLETRANSLIT:;
#SUBTITLETRANSLIT:;
#ARTISTTRANSLIT:;
#GENRE:;
#CREDIT:L33tAliceIp;
#MUSIC:6 Underground (Nellee Hooper Edit).ogg;
#BANNER:bn.png;
#BACKGROUND:bg.png;
#CDTITLE:;
#SAMPLESTART:57.007;
#SAMPLELENGTH:15.000;
#SELECTABLE:YES;
#OFFSET:-0.615;
#BPMS:0.000=84.982;
#STOPS:;
#DISPLAYBPM:85.000;
#BGCHANGES:8.000=wave2.avi=0.800=1=0=1===CrossFade==,
16.000=rain2.avi=0.800=0=0=1,
24.000=thunder1a.avi=0.800=0=0=1,
32.000=tunnel10.avi=0.800=0=0=1,
40.000=square2.avi=0.800=0=0=1,
48.000=letters1.avi=0.800=0=0=1,
56.000=text5.avi=0.800=0=0=1,
64.000=thunder1a.avi=0.800=0=0=1,
72.000=rain2.avi=0.800=0=0=1,
80.000=tunnel10.avi=0.800=0=0=1,
96.000=snow4.avi=0.900=0=0=1,
112.000=stairs1.avi=0.800=0=0=1,
116.000=wave2.avi=0.800=0=0=1,
124.000=wheel4.avi=0.800=0=0=1,
132.000=tunnel2.avi=0.700=0=0=1,
148.000=6 Underground (Nellee Hooper Edit)-jacket.png=1.000=1=0=1===CrossFade==,
99999.000=-nosongbg-=1.000=0=0=0=StretchNoLoop====
;
#FGCHANGES:;

//--------------- dance-single - ----------------
#NOTES:
     dance-single:
     :
     Beginner:
     1:
     0.082,0.096,0.035,0,0:
0000
0000
0000
0000
,
0000
0000
0000
0000
,
1000
0000
0000
0000
,
1000
0000
0000
0000
,
1000
0000
1000
0000
,
1000
0000
0000
0000
,
0001
0000
0001
0000
,
0001
0000
0000
0000
,
1000
0000
0000
0000
,
1000
0000
1000
0000
,
1000
0000
0000
0000
,
0001
0000
0001
0001
,
0001
0000
0000
0000
,
0001
0001
0001
0000
,
1000
0000
0000
0000
,
1000
1000
1000
0000
,
0001
0000
0100
0000
,
0001
0000
0000
0000
,
0001
0000
0001
0000
,
1000
0000
1000
0000
,
1001
0000
0000
0000
,
1000
1000
1000
0000
,
0001
0000
0000
0000
,
0001
0001
0001
0000
,
1000
0000
0100
0000
,
1000
0000
0000
0000
,
0001
0000
0001
0000
,
0100
0000
0000
0000
,
1001
0000
0000
0000
,
1000
0000
1000
0000
,
0010
0000
0010
0000
,
1000
0000
1000
0000
,
0001
0000
0001
0000
,
1001
0000
1000
0000
,
1000
1000
0000
0000
,
1001
0000
0001
0000
,
0001
0001
0000
0000
;

//--------------- dance-single - ----------------
#NOTES:
     dance-single:
     :
     Easy:
     3:
     0.134,0.15,0.053,0.026,0:
0000
0000
0000
0000
,
0000
0000
0000
0000
,
1000
0000
1000
0000
,
0001
0000
0001
0001
,
0001
0000
1000
0000
,
0001
1000
0001
0000
,
0100
0000
0100
0000
,
0010
0010
0010
0000
,
1000
0000
0001
0000
,
1000
1000
1000
0000
,
0100
0000
1000
0000
,
0001
1000
0001
1000
,
1001
0000
0100
0000
,
1000
1000
0100
0100
,
1000
0000
0100
0000
,
0100
0100
0010
0010
,
1000
0000
0001
0000
,
1000
1000
0100
0100
,
1000
0000
0001
0000
,
1000
0010
1000
0010
,
1001
0000
0100
0000
,
0001
0001
0001
0001
,
1000
0000
0100
0000
,
1000
1000
1000
1000
,
0001
0000
0100
0000
,
0010
0010
1000
0001
,
0100
0000
0010
0000
,
1000
1000
0001
0100
,
2002
0000
3003
0110
,
1000
0000
1000
0000
,
0001
1000
0001
0000
,
0100
0000
0100
0000
,
0010
0010
0010
0000
,
1001
0000
1000
0000
,
0001
1000
0001
0000
,
0110
0000
0100
0000
,
0010
0010
0010
1000
,
0020
0000
0000
0000
,
0030
0000
0000
0000
;

//--------------- dance-single - ----------------
#NOTES:
     dance-single:
     :
     Medium:
     6:
     0.212,0.251,0.026,0.132,0:
0000
0000
0000
0000
,
0000
0000
0000
0000
,
1000
1000
0001
0001
,
1000
0001
1000
0100
,
1001
0000
1000
0000
,
1000
0001
1000
0001
,
0100
0000
0010
0000
,
1000
1000
0001
0001
,
0100
0000
0010
0000
,
1000
1000
0100
1000
,
0001
0000
0100
0000
,
0001
1000
0001
1000
,
1001
1000
0001
0001
,
1000
0001
1000
0000
0001
1000
0001
0000
,
0100
0100
0010
0010
,
1000
0001
1000
0000
0001
1000
0001
0000
,
0100
0100
0010
0010
,
1000
0001
1000
0000
0001
1000
0001
0000
,
0100
0100
0001
0001
,
1000
0010
1000
0000
1000
0100
1000
0000
,
0001
0001
1000
1000
,
0001
1000
0001
1000
0001
0000
0100
0000
,
1000
1000
0010
0010
,
1000
0001
1000
0001
1000
0000
0100
0000
,
1000
1000
0010
0010
,
1000
0001
1000
0100
1000
0000
0001
0000
,
1000
1000
0100
1000
,
0001
0000
0001
0000
1000
0001
1000
0002
,
2000
0000
3003
1001
,
1000
1000
0001
0001
,
1000
0001
1000
0000
0001
1000
0001
0000
,
0100
0100
0010
0010
,
1000
0001
1000
0000
1000
0100
1000
0000
,
2000
3200
2300
3020
,
2030
3002
1000
1003
,
2000
3200
2300
3002
,
2003
3002
1000
1000
,
2003
0000
0000
0000
,
3000
0000
0000
0000
;

//--------------- dance-single - ----------------
#NOTES:
     dance-single:
     :
     Hard:
     8:
     0.286,0.267,0.097,0.158,0.026:
0000
0000
0000
0000
,
0000
0000
0000
0000
,
1000
0001
1000
0000
1000
0100
1000
0000
,
1000
0000
0010
0000
1000
0000
0000
0000
0001
0000
0000
0001
1000
0000
0000
0000
,
2000
0100
0000
0100
0000
3100
0010
0000
,
1000
0001
1000
0001
0100
0000
1001
0000
,
1000
0100
0100
0000
1000
0010
0010
0000
,
1000
0001
0100
0001
1000
0000
1001
0000
,
0002
0100
0000
0100
0000
0103
0010
0000
,
1000
0001
1000
0001
0100
0000
1001
0000
,
1000
0100
0100
0000
1000
0010
0010
0000
,
0001
0000
1000
0000
0001
0000
1000
0000
0100
0000
0000
0001
1000
0000
0001
0000
,
1001
0000
1000
0000
1000
0001
1000
0000
,
1000
0001
0100
0001
1000
0000
0010
0000
,
1000
0010
1000
0010
1000
0000
0100
0000
,
1000
0001
1000
0001
0100
0000
1001
0000
,
1000
0001
1000
0000
1000
0100
1000
0000
,
0100
1000
0100
1000
0100
0000
0110
0000
,
1000
0001
1000
0000
0001
0100
0100
0000
,
1000
0000
0001
0000
1000
0000
0000
0000
1000
0000
0000
0100
1000
0000
0001
0000
,
1001
0000
1000
0000
0001
1000
0001
0000
,
1000
0100
1000
0010
1000
0000
1001
0000
,
1000
0000
0001
0000
1000
0001
1000
0000
,
1000
0001
1000
0100
1000
0000
1001
0000
,
1000
0000
0100
0000
1000
0100
1000
0000
,
0001
0000
1000
0000
0001
1000
0001
0000
,
1000
0100
1000
0100
1000
0001
1000
0000
,
1000
0000
0010
0000
1000
0000
0010
0000
1000
0001
0000
0000
0100
0000
0100
0000
,
0020
0200
0000
0000
0330
0000
1001
0000
,
1000
0001
1000
0000
0001
0100
0001
0000
,
1000
0000
0001
0000
1000
0001
1000
0001
,
0100
0001
0100
0000
1000
0001
1000
0000
,
1000
0010
1000
0010
1000
0000
0001
0000
,
2000
3002
0203
0302
,
2003
0000
0000
0002
3000
0000
0000
0000
1000
0000
0000
0000
1003
0000
0000
0000
,
2000
3002
0203
0302
,
0023
0000
0000
0200
0030
0000
0000
0000
0010
0000
0000
0000
0310
0000
0000
0000
,
0220
0000
0000
0000
,
0330
0000
0000
0000
;

//--------------- dance-single - ----------------
#NOTES:
     dance-single:
     :
     Challenge:
     10:
     0.345,0.317,0.106,0.123,0.079:
0000
0000
0000
0000
,
0000
0000
0000
0000
,
1000
0001
1000
0001
1000
0001
0100
0000
,
0001
0000
0010
0000
0001
0000
0010
0000
0001
0000
0000
1000
0001
0000
1000
0000
,
1001
0001
1000
0001
1000
0001
1000
0000
,
1000
0000
0100
0000
1000
0010
1000
0000
0100
0000
0001
0000
1000
0000
0000
0000
,
1000
0001
1000
0100
1000
0001
0010
0100
,
0010
1000
0001
1000
0100
1000
0001
0000
,
1000
0001
1000
0001
1000
0100
1000
0000
,
0001
0000
1000
0000
0001
0100
0001
0000
0100
0000
0100
0000
0001
0000
0000
0000
,
1000
0001
1000
0100
1000
0001
1000
0001
,
1000
0000
0100
0000
1000
0000
0001
0000
1000
0000
0000
0001
0100
0000
0001
0000
,
1001
0000
1000
0000
0001
0000
0100
0001
0100
0000
1000
0000
0001
0000
0000
0000
,
1000
0000
0001
0000
1000
0000
0100
0000
1000
0100
0000
0000
1000
0000
0001
0000
,
1000
0000
0100
0000
1000
0000
0001
0100
0001
0100
0001
0000
1000
0000
0001
0000
,
1000
0000
0001
0000
0100
0000
0010
0000
0100
0001
0000
0000
1001
0000
0000
0000
,
1000
0001
0100
0100
0001
1000
0001
0000
,
1000
0000
0001
0000
1000
0000
0001
0000
1000
0100
0000
0000
1001
0000
0000
0000
,
1000
0100
1000
0001
1000
0010
0100
1000
,
0001
0000
1000
0000
0001
0000
1000
0000
0001
0000
0001
0100
0001
0000
1000
0000
,
1001
0000
0001
0000
1000
0000
0100
1000
0100
0000
1000
0000
0001
0000
0100
0000
,
0001
0000
1000
0000
0001
0000
0100
0000
1000
0010
0000
0000
1001
0000
0000
0000
,
1000
0001
0100
0001
1000
0010
1000
0001
,
0100
0000
0001
0000
1000
0000
0100
0000
1000
0010
0000
0000
1001
0000
0000
0000
,
1000
0001
0100
1000
0001
0100
0100
0000
,
1000
0000
0001
0000
1000
0000
0100
0000
1000
0010
0000
0000
1001
0000
0000
0000
,
1000
0001
0100
0001
1000
0010
0100
0010
,
1000
0000
0100
0000
1000
0000
0001
0000
0100
0001
0000
0000
1000
0000
0001
0000
,
2000
0200
0000
0000
3300
0000
1001
0000
,
1000
0001
1000
0100
1000
0001
1000
0000
,
0001
1000
0100
1000
0001
0000
1100
0000
,
1000
0001
1000
0100
1000
0001
1000
0000
,
0001
0100
0001
1000
0100
0000
0101
0000
,
2000
3002
0203
0302
,
2003
0000
0000
0001
0000
0000
0001
0000
0001
0000
0000
0000
3001
0000
0000
0000
,
0002
0203
0302
2003
,
3020
0000
0000
1000
0000
0000
1000
0000
1000
0000
0000
0000
1030
0000
0000
0000
,
2002
0000
0000
0000
,
3003
0000
0000
0000
;
