#TITLE:100% Pure Love;
#SUBTITLE:;
#ARTIST:Crystal Waters;
#TITLETRANSLIT:;
#SUBTITLETRANSLIT:;
#ARTISTTRANSLIT:;
#GENRE:;
#CREDIT:L33tAliceIp;
#MUSIC:100% Pure Love.ogg;
#BANNER:bn.png;
#BACKGROUND:bg.png;
#CDTITLE:;
#SAMPLESTART:47.930;
#SAMPLELENGTH:15.600;
#SELECTABLE:YES;
#OFFSET:-0.212;
#BPMS:0.000=119.897
,16.000=119.873
,128.000=119.844
,191.000=117.668
,192.000=119.878
;
#STOPS:;
#DISPLAYBPM:120.000;
#BGCHANGES:16.000=ring8.avi=1.200=0=0=1,
20.000=ring12.avi=1.200=0=0=1,
24.000=dance10.avi=1.000=0=0=1,
28.000=tunnel2.avi=1.600=0=0=1,
30.500=spiral2.avi=1.000=0=0=1,
48.000=blinds1.avi=0.800=0=0=1,
64.000=ring12.avi=1.200=0=0=1,
72.000=heart2.avi=1.200=0=0=1,
80.000=dance10.avi=1.000=0=0=1,
88.000=tunnel5.avi=1.000=0=0=1,
96.000=ring8.avi=1.000=0=0=1,
104.000=wheel1.avi=1.000=0=0=1,
112.000=ring8.avi=1.000=0=0=1,
120.000=disco2.avi=1.000=0=0=1,
128.000=flower1.avi=1.000=0=0=1,
136.000=tunnel4.avi=1.000=0=0=1,
144.000=heart2.avi=1.000=0=0=1,
152.000=dance10.avi=1.000=0=0=1,
160.000=ring8.avi=1.200=0=0=1,
168.000=wheel1.avi=1.200=0=0=1,
176.000=tunnel5.avi=1.000=0=0=1,
184.000=blinds1.avi=1.000=0=0=1,
192.000=dance10.avi=1.000=0=0=1,
196.000=ring12.avi=1.000=0=0=1,
200.000=disco2.avi=1.000=0=0=1,
208.000=spiral2.avi=1.000=0=0=1,
212.000=ring8.avi=1.200=0=0=1,
216.000=wheel1.avi=1.000=0=0=1,
223.000=100% Pure Love-jacket.png=1.000=1=0=1===CrossFade==,
99999.000=-nosongbg-=1.000=0=0=0=StretchNoLoop====
;
#FGCHANGES:;

//--------------- dance-single - ----------------
#NOTES:
     dance-single:
     :
     Beginner:
     2:
     0.115,0.167,0.043,0,0:
0000
0000
0000
0000
,
0000
0000
0000
0000
,
0000
0000
0000
0000
,
0000
0000
0000
0000
,
1000
0000
0000
0000
,
1000
0000
0000
0000
,
0001
0000
0000
0000
,
0001
0000
0001
0000
,
1001
0000
0000
0000
,
1000
0000
0000
0000
,
0001
0000
0000
0000
,
0001
0000
0000
0000
,
1000
0000
0000
0000
,
0100
0000
0000
0000
,
0100
0000
0000
0000
,
0010
0000
0010
0000
,
1001
0000
0000
0000
,
1000
0000
1000
0000
,
0001
0000
0001
0000
,
1000
0000
1000
0000
,
0001
0000
0000
0000
,
1000
0000
0000
0000
,
0001
0000
0000
0000
,
0001
0000
0000
0000
,
1000
1000
1000
0000
,
0001
0001
0001
0000
,
1000
0000
0001
0000
,
1000
0000
1000
0000
,
0001
0001
0001
0000
,
1000
1000
1000
0000
,
0001
0000
1000
0000
,
0001
0000
1000
0000
,
1001
0000
0000
0000
,
0100
0000
0000
0000
,
0001
0000
0000
0000
,
1000
0000
1000
0000
,
0001
0000
0000
0000
,
0001
0000
0000
0000
,
1000
0000
0000
0000
,
0100
0000
0100
0000
,
0110
0000
0000
0000
,
0001
0001
0000
0000
,
1000
1000
0000
0000
,
0001
0001
0000
0000
,
1000
0000
0001
0000
,
1000
0000
0001
0000
,
0100
0000
1000
0000
,
0100
0000
0000
0000
,
1000
1000
1000
0000
,
0001
0001
0001
0000
,
1000
0000
0010
0000
,
1000
0000
0010
0000
,
0100
0100
0100
0000
,
0010
0010
0010
0000
,
0001
0000
0001
0000
,
1000
0000
1000
0000
,
1001
0000
0000
0000
;

//--------------- dance-single - ----------------
#NOTES:
     dance-single:
     :
     Easy:
     6:
     0.193,0.214,0.026,0,0:
0000
0000
0000
0000
,
0000
0000
0000
0000
,
0000
0000
0000
0000
,
0000
0000
0000
0000
,
1000
0000
1000
0000
,
0001
0000
0001
0000
,
0100
0000
0100
0000
,
0010
0010
0010
0000
,
1000
0000
0000
1000
,
1000
0000
0000
0001
,
0001
0000
0000
1000
,
1000
0000
0000
0001
,
0001
0000
0000
0100
,
0100
0000
0000
0010
,
1000
0000
0000
1000
,
0001
0000
0000
1000
,
1001
0000
0100
0000
,
0001
0001
0000
1000
,
1000
1000
0000
0001
,
0001
0001
0000
1000
,
0010
1000
0010
1000
,
0001
0000
0100
0000
,
0001
1000
0001
1000
,
0100
0000
0100
0000
,
1000
0100
0001
0100
,
1000
0010
0001
0010
,
1000
1000
0001
0001
,
1000
0100
1000
0000
,
0001
0100
1000
0100
,
0001
0010
1000
0010
,
0001
0001
1000
1000
,
0001
0100
0001
0000
,
1000
1000
0000
0001
,
0001
0001
0000
1000
,
1000
0100
0000
0001
,
0001
0100
0000
1000
,
1000
0001
0000
1000
,
0001
1000
0000
0001
,
1000
1000
0000
1000
,
0001
0001
0100
0000
,
1001
0000
0100
0000
,
0001
0001
0000
1000
,
1000
1000
0000
0001
,
0001
0001
0000
0100
,
1000
0001
0010
0001
,
0001
0000
1000
0000
,
0100
1000
0001
0010
,
0010
0000
0010
0000
,
1000
0100
0001
0100
,
1000
0010
0001
0010
,
1000
1000
0001
0001
,
0010
1000
0001
0000
,
1000
0100
0001
0100
,
1000
0010
0001
0010
,
1000
1000
0001
0001
,
0100
0001
1000
0000
,
1001
0000
0000
0000
;

//--------------- dance-single - ----------------
#NOTES:
     dance-single:
     :
     Medium:
     8:
     0.368,0.364,0.034,0.357,0.009:
0000
0000
0000
0000
,
0000
0000
0000
0000
,
0000
0000
0000
0000
,
0000
0000
0000
0000
,
1000
1000
1000
1000
,
0001
0001
0001
0001
,
1000
1000
0100
0100
,
0001
0000
0000
0000
0001
0000
1000
0000
0000
0000
1000
0000
0010
0000
0000
0000
0000
0000
0000
0000
0000
0001
0000
0000
,
2000
0000
3001
0000
0000
0000
0001
0100
,
0002
0000
1003
0000
0000
0000
0010
1000
,
0002
0000
0103
0000
0000
0000
0001
1000
,
2000
0000
3001
0000
0000
0000
0010
1000
,
0200
0000
1300
0000
0000
0000
1000
0100
,
2000
0000
3010
0000
0000
0000
1000
0001
,
0200
0000
0310
0000
0000
0000
1000
0100
,
2000
0010
0010
3010
,
2002
0000
3003
0000
1000
0001
1000
0000
,
0200
0000
0301
0000
1000
0001
1000
0000
,
0200
0000
0310
0000
0010
0100
0010
0000
,
2000
0000
3001
0000
1000
0100
1000
0000
,
2000
0000
3010
0000
0001
1000
0001
0000
,
2000
0000
3001
0000
1000
0100
1000
0000
,
0002
0000
0013
0000
0010
0001
0010
0000
,
0200
0010
0010
0310
,
0001
1000
0001
0000
1000
0001
1000
0000
,
1000
0010
1000
0000
0010
1000
0010
0000
,
1000
0001
1000
0001
1000
0000
0100
0000
,
0002
0000
1003
2000
0000
0000
3001
0000
,
1000
0001
1000
0000
0001
1000
0001
0000
,
0001
0100
0001
0000
0100
0001
0100
0000
,
1000
0001
1000
0001
1000
0000
0100
0000
,
0002
0000
1003
2000
0000
0000
3001
0000
,
1000
0001
2000
0000
3001
0000
0001
1000
,
0200
0000
1000
0000
1300
0000
1000
0001
,
2000
0000
0100
0000
3100
0000
1000
0001
,
0020
0000
0130
0000
1000
0001
1000
0000
,
2000
0000
0001
0000
3001
0000
0001
1000
,
0002
0000
0100
0000
0103
0000
1000
0100
,
0100
0001
1000
0001
,
1000
0001
1000
0001
1000
0000
0001
0000
,
2002
0000
3003
0000
1000
0001
1000
0100
,
2000
0000
3010
0000
1000
0001
1000
0000
,
0002
0000
0103
0000
0001
0010
0001
0000
,
2000
0000
3010
0000
1000
0001
1000
0000
,
2000
0000
0100
0000
3100
0000
1000
0100
,
2000
0000
0010
0000
3010
0000
0001
1000
,
0002
0000
1000
0000
1003
0000
1000
0010
,
1000
0000
0001
1000
0001
0000
1001
0000
,
1000
0001
1000
0001
1000
0000
0001
0000
,
0001
1000
0001
1000
0001
0000
1000
0000
,
1000
0010
1000
0000
0001
1000
0001
0000
,
2000
0000
3001
0002
0000
0000
1003
0000
,
1000
1000
0001
0000
0001
1000
0001
0000
,
1000
0100
1000
0000
0002
0000
0103
0000
,
1000
0010
1000
0000
1000
0001
1000
0000
,
2000
0000
3001
0002
0000
0000
1003
0000
,
2002
0000
0000
0000
,
3003
0000
0000
0000
;

//--------------- dance-single - ----------------
#NOTES:
     dance-single:
     :
     Hard:
     11:
     0.44,0.437,0.255,0.196,0.026:
0000
0000
0000
0000
,
0000
0000
0000
0000
,
0000
0000
0000
0000
,
0000
0000
0000
0000
,
1000
0100
1000
0100
1000
0000
0001
0000
,
0001
0100
0001
0100
0001
0000
1000
0000
,
1000
0010
1000
0000
0001
1000
0001
0000
,
0001
0000
1000
0000
0001
0000
1000
0000
0001
0000
1000
0000
0001
0000
0000
0000
0000
0000
0000
0000
0000
1000
0000
0000
,
0200
0000
0310
0000
0001
1000
0001
0000
,
0200
0000
0310
0000
1000
0010
1000
0000
,
2000
0001
3001
0000
0001
0000
0001
1000
,
0200
0000
0310
0000
0001
1000
0001
1000
,
0200
0000
0310
0000
0001
1000
0001
0000
,
0200
0000
0310
0000
1000
0001
0100
0000
,
2000
0010
3010
0000
1000
0100
1000
0000
,
0200
0000
0320
0000
0032
0000
1003
0001
,
1001
0000
1001
0000
1000
0001
0100
0001
,
0101
0000
0101
0000
1000
0010
1000
0000
,
1010
0000
1010
0000
1000
0001
1000
0000
,
1001
0000
1001
0000
1000
0100
1000
0000
,
0102
0000
0013
0000
1000
0001
1000
0100
,
0020
0000
1000
0000
0130
0000
1000
0001
,
2000
0000
0001
0000
3001
0000
1000
0001
,
1000
0100
0001
1000
0001
1000
0100
0000
,
1000
0010
0001
0010
1000
0010
0001
0000
,
1000
0100
0001
0100
1000
0100
0001
0000
,
1000
1000
0001
0001
0000
1000
0000
0010
,
1010
0000
1000
1100
0000
0000
1001
0000
,
1000
0100
0010
0100
1000
0100
0010
0000
,
0001
0010
0100
0010
0001
0010
0100
0000
,
1000
1000
0001
0001
0000
1000
0000
0001
,
1001
0000
2000
0002
3003
0000
2001
0000
,
3001
1000
0100
0000
1000
0000
0010
0010
,
1000
0001
0200
0000
0310
0000
0001
1000
,
0001
1000
0200
0000
0310
0010
0100
0000
,
1000
0100
1000
0000
0001
0001
1000
0001
,
0101
0000
0101
0000
0011
0000
1000
0100
,
0010
0010
1000
0000
1000
1000
0001
1000
,
0001
0100
0100
0000
1000
0000
0001
0000
,
1000
0000
0001
0000
1000
0100
1000
0100
1000
0000
0001
0000
0100
0000
0000
0000
,
1001
0000
1001
0000
0001
0100
0001
0100
,
0101
0000
0101
0000
1000
0010
1000
0010
,
1010
0000
1010
0000
1000
0001
1000
0100
,
1100
0000
1001
0000
0001
1000
0001
1000
,
0200
0000
0310
0000
0001
1000
0001
1000
,
0200
0010
0001
0310
,
1000
0001
1000
0000
1000
0100
1000
0000
,
1000
0001
1000
0001
1000
0001
1001
0000
,
0100
0100
0010
0010
0100
0010
0100
0000
,
1000
1000
0001
0001
1000
0001
1000
0000
,
1000
0010
1000
0100
0000
0001
0000
1000
,
1001
0000
0001
2001
0000
0000
3100
0000
,
1000
0010
0010
1000
0010
0010
1000
0000
,
0001
0100
0100
0001
0100
0100
0001
0000
,
1000
0001
0010
1000
0000
0001
0000
1000
,
0001
0000
0100
1000
0000
0010
1001
0000
,
2002
0000
0000
0000
,
3003
0000
0000
0000
;

//--------------- dance-single - ----------------
#NOTES:
     dance-single:
     :
     Challenge:
     13:
     0.542,0.534,0.179,0.323,0.179:
0000
0000
0000
0000
,
0000
0000
0000
0000
,
0000
0000
0000
0000
,
0000
0000
0000
0000
,
1000
0010
1000
0010
1000
0010
1000
0010
,
1000
0001
1000
0001
1000
0001
1000
0001
,
0100
0001
0100
0001
1000
0001
1000
0001
,
1000
0000
0001
0000
0100
0000
0001
0000
1000
0000
0010
0000
0100
0000
0000
0000
0000
0000
0001
0000
0000
1000
0000
0000
,
0200
0000
0310
0000
0001
1000
0100
1000
,
0002
1000
1003
0000
1000
0100
1000
0001
,
0020
0100
0130
0000
1000
0001
1000
0100
,
2000
0100
3100
0000
0001
0100
0100
0001
,
0010
0001
0200
0000
0301
1000
0001
1000
,
0100
0001
2000
0000
3001
0001
1000
0001
,
1000
0100
2000
0000
3001
1000
0001
1000
,
0010
1000
2000
0000
3002
0000
1003
1000
,
1002
0000
0000
0000
1003
0000
0000
0000
1000
0000
0001
0000
1000
0100
1000
0000
,
0002
0000
1000
0000
2003
0000
0000
0000
3001
0000
0100
0000
0001
1000
0001
0000
,
2000
0100
3100
0000
0001
1000
0001
1000
,
0002
0100
0103
0000
1000
0001
1010
0100
,
1000
0000
1100
0000
0001
1000
0001
1000
,
0101
0000
0101
0000
1000
0001
0001
1000
,
0001
1000
0200
0000
1300
1000
0001
1000
,
0001
1000
0001
1000
0001
0100
0001
0100
0001
1000
0001
0000
0200
0000
0000
0000
,
0301
0000
0010
0001
0010
0000
1000
0001
1000
0000
1000
0100
0000
0000
0001
0000
,
1000
0000
0001
0100
0001
0000
1000
0000
0001
0000
1000
0100
0000
0000
0001
0000
,
0001
1000
0001
0200
0000
0301
0000
1000
,
1001
0001
0100
1001
0000
0200
2000
3300
,
0100
0000
1000
0001
1000
0000
0001
0100
0001
0000
1000
0100
0000
0000
1000
0000
,
0001
0000
1000
0100
1000
0000
0001
0000
1000
0000
0001
0100
0000
0000
1000
0000
,
1000
0001
0100
0001
0000
1000
0000
0001
,
1001
0000
0001
1000
0000
1100
1200
0000
,
1300
0100
2000
0000
3001
0100
0001
1000
,
0001
1000
0200
0000
1300
0000
1000
0001
,
1000
0100
2000
0000
3001
1000
0001
0100
,
0010
0100
2000
0000
3010
0010
1000
0001
,
1000
0100
2000
0000
3001
1000
0001
1000
,
0100
1000
0002
0000
1003
0001
1000
0100
,
1000
0001
0020
0000
0130
0000
1000
0001
,
1000
0001
1000
0001
1000
0100
1000
0100
1000
0001
1000
0000
0001
0000
0100
0000
,
1001
0000
0000
0000
1001
0000
0000
0000
1000
0000
0001
0000
1000
0100
1000
0000
,
1001
0000
0000
0000
1001
0000
0000
0000
0001
0000
1000
0000
0001
0100
0001
0000
,
2000
0000
3001
0000
0001
1000
0100
1000
,
0002
1000
1003
0000
1000
0001
1000
0001
,
0200
0000
0320
0000
1030
0100
1000
0001
,
2000
0000
0000
0000
3001
0000
0000
0001
0000
0000
1000
0000
0100
0000
1000
0000
,
0002
1000
1003
0000
1000
0001
1000
0100
,
1000
0000
1000
0000
0001
0000
0001
1000
0100
0000
0001
0000
1001
0000
0000
0000
,
1000
0000
0010
1000
0010
0000
1000
0001
1000
0000
0001
0100
0000
0000
0100
0000
,
0001
0000
0100
0010
0100
0000
1000
0000
0001
0000
1000
0100
0000
0000
0100
0000
,
1000
0000
1000
0000
0001
0000
0200
0000
0000
0000
0310
0000
0000
0010
0000
0000
,
1001
0001
1000
1001
0001
1000
0200
0000
,
0310
0000
0010
0100
0010
0000
0100
0001
0100
0000
1000
0100
0000
0000
1000
0000
,
1000
0000
0001
1000
0001
0000
1000
0000
0100
0000
1000
0001
0000
0000
1000
0000
,
0001
0000
0001
0000
1000
0000
0200
0000
0000
0000
0310
0000
0000
0010
0000
0000
,
1001
0001
1000
1001
0001
1000
0101
0000
,
2002
0000
0000
0000
,
3003
0000
0000
0000
;
