#TITLE:squall;
#SUBTITLE:;
#ARTIST:猫叉Master+;
#TITLETRANSLIT:;
#SUBTITLETRANSLIT:;
#ARTISTTRANSLIT:Nekomata Master+;
#CREDIT:;
#BANNER:squall-banner.png;
#BACKGROUND:;
#LYRICSPATH:;
#CDTITLE:;
#MUSIC:squall.mp3;
#OFFSET:-5.070;
#SAMPLESTART:21.480;
#SAMPLELENGTH:12.000;
#SELECTABLE:YES;
#BPMS:0.000=190.000,20.000=95.000,36.000=190.000;
#STOPS:;
#BGCHANGES:;

//---------------dance-single - ----------------
#NOTES:
     dance-single:
     :
     Hard:
     9:
     0.686,0.775,0.206,0.284,0.379:
1000
0000
0100
0000
0001
0000
1000
0000
0010
0000
0001
0000
,
0100
0000
0010
0000
1000
0000
0001
0000
0010
0000
0100
0000
,
0000
0000
1000
0000
0001
0000
0100
0000
0010
0000
1000
0000
,
0001
0000
0010
0000
0100
0000
1000
0000
0010
0000
0100
0000
,
1001
0000
0010
0000
0100
1000
0100
0000
0010
0000
0001
0000
,
1001
0000
1000
0010
0000
0100
0001
0000
1000
0000
0100
0000
0110
0000
0000
0000
,
0010
0000
0001
0100
0000
0010
1000
0000
0100
0000
0001
0000
0101
0000
0000
0000
,
0100
0000
0010
0001
0000
1000
0010
0000
0100
0000
0001
0000
1001
0000
1000
0000
,
0100
0000
0000
0000
0000
0000
0010
0000
0000
0001
0000
0000
0000
0000
0000
1000
0000
0000
0010
0000
0000
0000
0000
0000
0100
0000
0000
0000
0101
0000
0000
0000
1100
0000
0000
0000
0120
0000
0000
0000
0000
0000
0000
0000
0000
0000
0000
0000
,
1030
0100
0010
0001
0100
0010
0100
0001
,
0010
0100
1000
0001
0100
0010
1000
0001
,
0000
0001
0010
0100
1000
0100
0010
0001
,
1000
0000
0010
0000
0100
0000
0001
0000
1000
0000
0010
0100
0010
0000
1000
0000
,
0001
0010
0100
1000
0010
0100
0001
1000
,
0100
0001
0100
1000
0010
0100
0001
1000
,
0100
0000
0010
0000
0001
1000
0001
0000
0010
0000
0100
0000
1000
0000
0010
0000
,
0100
0001
1000
0100
0001
1000
0010
0001
,
2000
0000
0000
3000
0010
0000
0200
0000
0000
0300
0001
0000
,
2000
0000
0000
0000
0000
0000
0000
0000
0000
0000
0000
0000
3000
0000
0000
0000
0100
0000
0000
0000
0000
0000
0000
0000
0010
0000
0000
0000
0000
0000
0000
0000
0000
0000
0000
0000
0000
0000
0000
0000
0000
0000
0001
0000
0000
1000
0000
0000
,
0001
0000
0001
1000
0100
0000
0100
1000
,
0010
0100
0010
1000
0100
0010
0001
0100
,
0020
0000
0030
0010
1000
0000
0001
0000
,
0100
0000
0000
0000
0010
0000
0100
0000
0002
0000
0000
0000
1003
0000
0100
0010
,
0100
0000
0000
0000
1000
0100
1000
0000
0000
0010
0000
0000
,
0100
0000
0001
1000
0001
0000
0100
0000
0010
1000
0010
0000
0100
0000
0001
0000
,
2000
0000
0000
3000
0010
0000
0200
0000
0000
0300
0001
0000
,
0020
0000
0000
0000
0000
0000
0000
0000
0000
0000
0000
0000
0030
0000
0000
0000
0100
0000
0000
0000
0000
0000
0000
0000
1000
0000
0000
0000
0000
0000
0000
0000
0000
0000
0000
0000
0000
0000
0000
0000
0000
0000
0001
0000
0000
0100
0000
0000
,
0001
0000
0000
0000
0000
0000
0000
0000
1000
0000
0100
0000
1000
0000
0000
0000
0000
0000
0001
0000
0000
0100
0000
0000
,
1000
0000
0000
0100
0000
0000
0010
0000
0000
1000
0000
0000
0001
0000
0000
0010
0000
0000
0100
0000
1000
0000
0100
0000
,
2000
0000
0000
3000
0001
0000
0020
0000
0000
0030
0100
0000
,
2000
0000
0000
0000
0000
0000
3000
0000
0010
0000
0000
0000
0200
0000
0000
0000
0000
0000
0300
0000
0000
0001
0000
0000
,
0010
0100
1000
0001
0100
0010
0100
0001
,
1000
0100
0010
0100
1000
0010
0100
0001
,
1002
0000
1003
2001
0000
3001
1000
0010
,
0100
0001
0010
1000
0001
0100
1000
0010
,
0210
0000
0310
0120
0000
0130
0001
0010
,
0100
1000
0010
0001
0010
1000
0100
0010
,
0012
0000
1003
2100
0000
3001
0100
1000
,
0001
0010
0200
0000
0302
0000
1003
0000
,
1020
0000
0130
0201
0000
0301
0010
0100
,
1000
0100
0001
0100
0010
0001
0100
0010
,
0110
0000
0000
1001
0000
0000
0000
0000
,
0000
0000
0000
0000
0000
1000
0010
0100
,
0101
0000
0000
1010
0000
0000
0000
0000
,
0000
0000
0000
0000
0100
0001
1000
0100
,
1100
0000
0000
0011
0000
0000
0000
0000
,
0000
0000
0000
0010
,
0110
0000
0000
1001
0000
0000
0000
0000
,
0000
0000
0000
0000
0010
0001
0100
0010
,
0100
0000
0001
0000
1000
0000
0100
0000
0010
0000
0001
0000
,
1000
0000
0100
0010
0000
0010
0100
0000
,
1000
0000
0001
0000
0100
0010
0100
0000
,
0001
0000
1000
0100
0000
0100
1000
0000
,
0010
0000
0100
0000
0001
0010
0001
0000
,
0100
0000
0010
1000
0000
1000
0010
0000
,
0100
0000
0001
0000
1000
0100
0010
0000
,
0001
0000
0100
0010
0000
0010
0100
0000
,
0001
0000
0010
0000
0100
0100
1000
0001
,
2000
0000
3010
0200
0000
0310
1000
0000
,
0001
0010
0100
1000
0001
0100
0010
1000
,
0001
0000
0010
0100
0000
0010
0001
0001
,
0100
0010
0100
0001
0010
0100
1000
0010
,
0200
0000
0301
0200
0000
0310
1000
0000
,
0001
0010
0100
1000
0100
0010
0001
1000
,
0010
0000
0100
0001
0000
0001
1000
1000
,
0000
0010
0100
0001
1000
0100
0001
0100
,
1000
0000
0010
0100
0000
0010
0001
0000
,
0010
0100
0001
0010
0100
1000
0010
0100
,
0002
0000
0013
2000
0000
3010
0100
0100
,
0000
0100
1000
0010
0100
0001
1000
0100
,
0010
0000
0001
0100
0000
1000
0001
0000
,
0010
1000
0100
0001
0010
0100
1000
0010
,
0200
0000
0301
2000
0000
3100
0010
0010
,
0001
0100
1000
0001
0010
1000
0100
0001
,
1000
0000
0010
0000
0001
0000
1000
0000
0100
0000
0010
0000
,
0001
0000
0010
0000
0100
0000
1000
0000
0010
0000
0200
0000
,
0000
0000
0301
0000
0010
0000
0100
0000
1000
0000
0010
0000
,
0100
0000
0001
0000
1000
0000
0100
0000
0010
0000
0001
0000
,
1000
0000
1000
0010
0000
0010
0100
0000
0001
0000
0010
0000
,
0100
0000
1000
0000
0001
0000
0100
0000
0010
0000
2000
0000
,
0000
0000
3001
0010
0000
0010
0100
0000
1000
0000
0010
0000
,
0100
0000
0000
0000
0001
0000
0000
0000
1000
0000
0000
0000
0100
0000
0000
0000
0010
0000
0001
0000
0000
1000
0000
0000
;

//---------------dance-single - ----------------
#NOTES:
     dance-single:
     :
     Medium:
     7:
     0.458,0.493,0.095,0.086,0.103:
0010
1000
0001
0100
,
0010
0000
0100
0000
0001
1000
0100
0000
,
0000
0010
0001
0100
,
0010
0000
1000
0000
0001
0010
0001
0000
,
1000
0000
0000
0000
0100
0000
0000
0000
0010
0000
0001
0000
,
1000
0000
0000
0100
0000
0000
1000
0000
0000
0000
0001
0000
0101
0000
0000
0000
,
0100
0000
0000
0010
0000
0000
0100
0000
0000
0000
0001
0000
1001
0000
0000
0000
,
1000
0000
0000
0100
0000
0000
0010
0000
0000
0000
0001
0000
1001
0000
1000
0000
,
0010
0000
0000
0000
0000
0000
0000
0000
0000
0100
0000
0000
0000
0000
0000
0000
0000
0000
0001
0000
0000
0000
0000
0000
1000
0000
0000
0000
0001
0000
0000
0000
1000
0000
0000
0000
0002
0000
0000
0000
0000
0000
0000
0000
0000
0000
0000
0000
,
1003
0000
0010
0000
0100
0001
1000
0000
,
0100
0000
0010
0000
0001
1000
0001
1000
,
0000
0000
0010
0000
0100
0001
1000
0000
,
0100
0000
0010
0000
0001
1000
0010
0100
,
0000
0000
0001
0000
1000
0100
0010
0000
,
0001
0000
1000
0000
0010
0100
0001
0000
,
1000
0100
0010
0000
0001
0100
0010
0000
,
1000
0000
0010
0100
0001
1000
0010
0000
,
1000
0000
0000
0000
0100
0000
0001
0000
0000
0000
0100
0000
,
1000
0000
0000
0000
0000
0000
0000
0000
0100
0000
0000
0000
0001
0000
0000
0000
0000
0000
0000
0000
0000
0100
0000
0000
,
1000
0000
0000
1000
0010
0000
0000
0000
,
0000
0000
0000
0000
0100
0000
0001
1000
,
0100
0000
0000
0010
0001
0000
0000
0000
,
0100
0000
0010
1000
0010
0000
0000
0100
,
0001
0000
0000
1000
0100
0000
0000
0000
,
0000
0010
0001
0000
1000
0100
0000
0000
,
1000
0000
0000
0000
0010
0000
0001
0000
0000
0000
0010
0000
,
1000
0000
0000
0000
0000
0000
0000
0000
0010
0000
0000
0000
0001
0000
0000
0000
0000
0000
0000
0000
0000
0010
0000
0000
,
1000
0000
0000
1000
0001
0000
0010
0000
,
0000
0010
0000
0010
,
0001
0000
0000
0000
0100
0000
1000
0000
0000
0000
0001
0000
,
0010
0000
0000
0000
1000
0000
0001
0000
0000
0010
0000
0000
,
0100
1000
0002
0000
0103
0000
0010
0000
,
1000
0001
0010
0100
,
1000
0000
0001
1000
0000
1000
0001
0000
,
0100
0010
1000
0100
,
0010
0000
0001
1000
0000
1000
0010
0000
,
0100
0001
1000
0100
,
0010
0000
0001
0100
0000
0100
0010
0000
,
1000
0100
2000
0000
,
3001
0000
0100
0010
0000
0010
0100
0000
,
0001
1000
0100
0010
,
0011
0000
0000
1100
0000
0000
0000
0000
,
0000
0000
0000
0000
,
1010
0000
0000
0101
0000
0000
0000
0000
,
0000
0000
0000
0000
,
1001
0000
0000
0110
0000
0000
0000
0000
,
0000
0000
0000
0010
,
0110
0000
0000
1001
0000
0000
0000
0000
,
0000
0000
0000
0000
,
1000
0000
0100
0000
0001
0000
1000
0000
0010
0000
0001
0000
,
1000
0000
0000
0010
0000
0000
0100
0000
,
0000
0100
0001
1000
,
0100
0000
0000
0010
0000
0000
0001
0000
,
0000
1000
0010
0100
,
0001
0000
1000
0100
0000
0010
0001
0000
,
0000
0100
0010
0100
,
0001
0000
1000
0100
0000
0010
0001
0000
,
1000
0000
2000
0000
0001
0001
3001
0000
,
1000
0000
0010
0100
0000
0010
1000
0000
,
0001
0000
0010
0000
0100
1000
0100
0000
,
0010
0000
0001
0100
0000
0001
0010
0000
,
0100
0000
1000
0001
0100
0010
1000
0000
,
0001
0000
0010
0100
0000
0010
0001
0000
,
0100
0000
0010
0000
1000
0100
0010
0000
,
0100
0000
1000
0010
0000
0100
0001
0000
,
1000
0000
0100
0000
0010
0001
1000
0010
,
0100
0000
0001
1000
0000
0100
0020
0000
,
0031
0100
0010
0100
0001
0010
0100
0000
,
1000
0000
0001
0100
0000
0010
2000
0000
,
3010
0100
0001
1000
0100
0010
0001
0000
,
0100
0000
0010
0100
0000
0001
2000
0000
,
3100
0000
0010
0001
0100
0010
0100
0001
,
1000
0000
0100
0010
0000
0001
2000
0000
,
3010
0000
0100
0001
0100
0010
1000
0001
,
1000
0010
0100
0001
,
1000
0000
0100
0000
0010
0001
0020
0000
,
0000
0130
1000
0001
,
0100
0000
0000
0000
0000
0000
0010
0000
0000
0000
0000
0000
1000
0000
0000
0000
0100
0000
1000
0000
0000
0001
0000
0000
,
0100
0010
1000
0100
,
0010
0000
0100
0000
1000
0010
0200
0000
,
0000
0310
1000
0100
,
0010
0000
0000
0000
0000
0000
0001
0000
0000
0000
0000
0000
1000
0000
0000
0000
0010
0000
0100
0000
0000
0001
0000
0000
;

//---------------dance-single - ----------------
#NOTES:
     dance-single:
     :
     Easy:
     4:
     0.283,0.387,0.060,0.206,0.017: // measure 1
1000
0000
0010
0000
,  // measure 2
0100
0000
0001
0000
,  // measure 3
0010
0000
0100
0000
,  // measure 4
1000
0000
0001
0000
,  // measure 5
0100
0000
0000
0000
0010
0000
0000
0000
1000
0000
0000
0000
,  // measure 6
0001
1000
0010
0100
,  // measure 7
0001
1000
0100
0010
,  // measure 8
0001
1000
0010
0100
,  // measure 9
0001
1000
2002
3003
,  // measure 10
1000
0010
0100
0001
,  // measure 11
1000
0100
0010
0001
,  // measure 12
0000
0001
0010
0100
,  // measure 13
1000
0001
0100
0010
,  // measure 14
0000
0010
1000
0100
,  // measure 15
0001
0100
1000
0010
,  // measure 16
0100
0100
0001
1000
,  // measure 17
0100
0010
0001
1000
,  // measure 18
0020
0030
0200
0300
,  // measure 19
0002
0003
2000
3000
,  // measure 20
0200
0300
0200
0000
,  // measure 21
0300
0000
0010
0000
,  // measure 22
0200
0300
0020
0030
,  // measure 23
0000
0000
0001
0000
,  // measure 24
2000
3000
0020
0030
,  // measure 25
0000
0100
0001
1000
,  // measure 26
0200
0300
0020
0030
,  // measure 27
0002
0003
2000
3000
,  // measure 28
0020
0030
0020
0000
,  // measure 29
0030
0000
0100
0000
,  // measure 30
0002
0003
0002
0003
,  // measure 31
2000
3000
0200
0300
,  // measure 32
1000
1000
0000
0000
,  // measure 33
0010
0100
0001
1000
,  // measure 34
0100
0000
0000
0100
0000
0000
0000
0000
,  // measure 35
0010
0001
0100
0000
,  // measure 36
0010
0000
0000
0010
0000
0000
0000
0000
,  // measure 37
1000
0100
1000
0000
,  // measure 38
0001
0000
0000
0001
0000
0000
0000
0000
,  // measure 39
0000
0100
0020
0030
,  // measure 40
1000
0000
0000
1000
0000
0000
0000
0000
,  // measure 41
0100
0010
0001
1000
,  // measure 42
0010
0000
0000
0110
0000
0000
0000
0000
,  // measure 43
0000
0000
0000
0000
,  // measure 44
0001
0000
0000
1001
0000
0000
0000
0000
,  // measure 45
0000
0000
0000
0000
,  // measure 46
1000
0000
0000
1100
0000
0000
0000
0000
,  // measure 47
0000
0000
0000
0000
,  // measure 48
0001
0000
0000
0011
0000
0000
0000
0000
,  // measure 49
0000
0000
0000
0000
,  // measure 50
0100
0000
0000
0000
1000
0000
0000
0000
0001
0000
0000
0000
,  // measure 51
0100
0000
0000
0010
0000
0000
0100
0000
,  // measure 52
0000
0001
0000
1000
,  // measure 53
0100
0000
0000
0010
0000
0000
0100
0000
,  // measure 54
0000
1000
0010
0100
,  // measure 55
0001
0000
0000
1000
0000
0000
0001
0000
,  // measure 56
0000
0010
0000
0100
,  // measure 57
1000
0000
0000
0001
0000
0000
1000
0000
,  // measure 58
0020
0000
0000
0030
,  // measure 59
1000
0000
0000
0001
0000
0000
1000
0000
,  // measure 60
0000
0010
0000
0100
,  // measure 61
0001
0000
0000
1000
0000
0000
0001
0000
,  // measure 62
0000
0010
0000
0100
,  // measure 63
1000
0000
0000
0010
0000
0000
1000
0000
,  // measure 64
0000
0010
0000
0100
,  // measure 65
0001
0000
0000
0010
0000
0000
0001
0000
,  // measure 66
0000
0001
0100
0010
,  // measure 67
1000
0000
0000
0001
0000
0000
1000
0000
,  // measure 68
0000
0010
0000
0100
,  // measure 69
0001
0000
0000
1000
0000
0000
0001
0000
,  // measure 70
0000
0010
0100
1000
,  // measure 71
0001
0000
0000
0100
0000
0000
0001
0000
,  // measure 72
0000
0010
0100
1000
,  // measure 73
0100
0000
0000
1000
0000
0000
0100
0000
,  // measure 74
1000
0010
0100
0001
,  // measure 75
0010
0000
0001
0000
,  // measure 76
0100
0000
0010
0000
,  // measure 77
0000
0000
1000
0000
,  // measure 78
0100
0000
0010
0000
,  // measure 79
0001
0000
1001
0000
,  // measure 80
1000
0000
1001
0000
,  // measure 81
0000
0010
0000
0100
,  // measure 82
0000
0001
0000
1000
;
