#VERSION:0.81;
#TITLE:electro peaceful;
#SUBTITLE:;
#ARTIST:Mr.T;
#TITLETRANSLIT:;
#SUBTITLETRANSLIT:;
#ARTISTTRANSLIT:;
#GENRE:;
#ORIGIN:;
#CREDIT:;
#BANNER:banner.png;
#BACKGROUND:;
#PREVIEWVID:;
#JACKET:jacket.png;
#CDIMAGE:;
#DISCIMAGE:;
#LYRICSPATH:;
#CDTITLE:;
#MUSIC:electro peaceful.mp3;
#OFFSET:-12.340;
#SAMPLESTART:24.140;
#SAMPLELENGTH:12.000;
#SELECTABLE:YES;
#BPMS:0.000=160.000;
#STOPS:;
#DELAYS:;
#WARPS:;
#TIMESIGNATURES:0.000=4=4;
#TICKCOUNTS:0.000=4;
#COMBOS:0.000=1;
#SPEEDS:0.000=1.000=0.000=0;
#SCROLLS:0.000=1.000;
#FAKES:;
#LABELS:0.000=Song Start;
#BGCHANGES:;
#KEYSOUNDS:;
#ATTACKS:
;

//---------------dance-single - Blank----------------
#NOTEDATA:;
#CHARTNAME:Blank;
#STEPSTYPE:dance-single;
#DESCRIPTION:Blank;
#CHARTSTYLE:;
#DIFFICULTY:Hard;
#METER:7;
#RADARVALUES:0.408,0.458,0.016,0.262,0.098,315.000,2.000,32.000,0.000,0.000,0.000,0.000,0.000,0.408,0.458,0.016,0.262,0.098,315.000,2.000,32.000,0.000,0.000,0.000,0.000,0.000;
#CREDIT:Blank;
#OFFSET:-12.340;
#BPMS:0.000=160.000
,128.000=160.020
,200.000=160.100
,244.000=160.200
;
#STOPS:;
#DELAYS:;
#WARPS:;
#TIMESIGNATURES:0.000=4=4
;
#TICKCOUNTS:0.000=4
;
#COMBOS:0.000=1
;
#SPEEDS:0.000=1.000=0.000=0
;
#SCROLLS:0.000=1.000
;
#FAKES:;
#LABELS:0.000=Song Start
;
#ATTACKS:TIME=60.339996:LEN=61.967003:MODS=;
#NOTES:
1000
0001
0100
0000
0010
1000
0000
1000
,
0010
0100
0001
0000
0010
0100
0000
1000
,
0000
0001
0100
0000
0010
1000
0000
1000
,
0001
0010
0100
0000
1000
0001
0000
0100
,
0000
0010
1000
0000
0100
1000
0000
1000
,
0001
0100
0010
0000
1000
0001
0000
0001
,
0010
0100
1000
0000
0001
0100
0000
0100
,
0020
0000
0000
0000
,
1030
0000
0000
0100
0000
0000
1000
0000
0001
0000
0000
0100
0000
0000
0010
0000
,
1000
0000
0000
0001
0000
0000
0010
0000
0100
0000
0000
1000
0000
0000
0100
0000
,
0010
0000
0000
0001
0000
0000
1000
0000
0020
0000
0000
0000
0000
0000
0000
0000
,
0130
0001
0010
0100
,
1000
0000
0000
0001
0000
0000
1000
0000
0010
0000
0000
0100
0000
0000
0001
0000
,
1000
0000
0000
0100
0000
0000
0010
0000
0001
0000
0000
1000
0000
0000
0010
0000
,
0100
0000
0000
0001
0000
0000
1000
0000
0200
0000
0000
0000
0000
0000
0000
0000
,
0310
0001
0100
1000
,
0100
0000
0000
0010
0000
0000
1000
0000
0100
0000
0000
0010
0000
0000
0001
0000
,
1000
0000
0000
0010
0000
0000
0100
0000
0001
0000
0000
1000
0000
0000
0100
0000
,
0010
0000
0000
0001
0000
0000
1000
0000
0020
0000
0000
0000
0000
0000
0000
0000
,
1030
0100
0010
0001
,
0100
0000
0000
0010
0000
0000
1000
0000
0100
0000
0000
1000
0000
0000
0001
0000
,
0100
0000
0000
0010
0000
0000
1000
0000
0001
0000
0000
0010
0000
0000
0100
0000
,
1000
0001
1000
0000
0010
0100
0010
0000
,
1000
0100
1000
0001
0010
0001
0100
0010
,
2000
0000
3020
0000
,
0230
0000
0302
0000
,
0023
0000
0230
0000
,
2300
0000
3002
0000
,
0203
0000
0320
0000
,
2030
0000
3200
0000
,
0320
0000
0000
0000
,
0031
0000
0000
1000
0000
0000
0010
0000
0100
0000
0000
0000
1001
0000
0000
0000
,
0100
0010
0001
0000
1000
0010
0100
0000
,
0001
0100
0010
0000
2000
0000
0000
0000
,
3001
0010
0100
0000
1000
0001
0100
0000
,
0010
1000
0001
0000
0020
0000
0000
0000
,
0130
0010
0001
0000
1000
0010
0100
0000
,
0001
1000
0100
0000
0020
0000
0000
0030
,
0100
1000
0001
0000
0100
0010
1000
0000
,
0001
0010
0100
1000
0002
0000
0000
0000
,
1003
0100
0010
0001
1000
0010
0100
0001
,
1000
0100
0010
0001
2000
0000
0000
0000
,
3001
0100
0010
1000
0100
0010
0100
1000
,
0001
0100
0010
1000
0200
0000
0000
0000
,
1300
0010
0100
0001
1000
0100
0010
0001
,
1000
0001
0100
0010
2000
0000
0000
0000
,
3100
0010
0001
1000
0010
0100
0001
1000
,
0100
0010
0001
0100
0010
1000
0100
0010
,
0002
0000
0000
0000
,
1003
0000
0000
0000
,
0010
0010
0000
0000
0000
0000
0000
0000
,
0100
0100
0100
0000
0000
0000
0000
0000
,
0002
0000
2003
0000
,
3010
0000
0000
0000
,
0100
0100
0000
0000
0000
0000
0000
0000
,
0001
0001
0001
0000
0000
0000
0000
0000
,
2000
0000
3002
0000
,
0013
0000
0100
0000
1000
0001
0100
0000
,
0010
0000
1000
0000
0100
0010
0001
0000
,
1000
0010
0200
0000
,
0301
0010
0100
1000
,
0001
0000
0000
0010
0000
0000
0001
0000
1000
0000
0000
0100
0000
0000
1000
0000
,
0001
0000
0000
0100
0000
0000
0010
0000
1000
0000
0000
0001
0000
0000
0010
0000
,
0200
0000
0000
0000
,
1300
0000
0010
0000
0100
0001
1000
0100
,
0010
0020
0000
0000
0000
0000
0030
0000
,
0001
0100
0010
1000
,
0001
0010
0100
1000
,
0001
0000
0100
0000
0010
1000
0001
0000
,
0010
0000
0100
0000
1000
0001
0100
0000
,
0110
0000
0000
0000
;

//---------------dance-single - Blank----------------
#NOTEDATA:;
#CHARTNAME:;
#STEPSTYPE:dance-single;
#DESCRIPTION:Blank;
#CHARTSTYLE:;
#DIFFICULTY:Medium;
#METER:5;
#RADARVALUES:0.300,0.286,0.057,0.098,0.004,238.000,7.000,12.000,0.000,0.000,0.000,0.000,0.000,0.300,0.286,0.057,0.098,0.004,238.000,7.000,12.000,0.000,0.000,0.000,0.000,0.000;
#CREDIT:;
#OFFSET:-12.340;
#BPMS:0.000=160.000
;
#STOPS:;
#DELAYS:;
#WARPS:;
#TIMESIGNATURES:0.000=4=4
;
#TICKCOUNTS:0.000=4
;
#COMBOS:0.000=1
;
#SPEEDS:0.000=1.000=0.000=0
;
#SCROLLS:0.000=1.000
;
#FAKES:;
#LABELS:0.000=Song Start
;
#NOTES:
0010
0000
1000
0000
0100
1000
0001
0000
,
0100
0010
1000
0000
,
0001
0000
0010
0000
0100
1000
0001
0000
,
0100
0010
1000
0000
,
0100
0000
1000
0000
0010
0100
0001
0000
,
1000
0100
0010
0000
,
0001
0000
0100
0000
1000
0100
0010
0000
,
2000
0000
0000
0000
,
3001
0000
0000
0010
0001
0000
0000
0100
,
0010
0000
0000
1000
0100
0000
0000
1000
,
0001
0000
0000
0100
0010
0000
0000
0000
,
1000
0100
0010
0001
,
1000
0000
0000
0010
0100
0000
0000
0001
,
1000
0000
0000
0100
0010
0000
0000
0001
,
0100
0000
0000
1000
0100
0000
0000
0000
,
0010
1000
0100
0001
,
0100
0000
0000
0010
0001
0000
0000
0100
,
0010
0000
0000
1000
0100
0000
0000
1000
,
0010
0000
0000
0100
0001
0000
0000
0000
,
0010
0100
1000
0001
,
0100
0000
0000
0010
1000
0000
0000
0001
,
0010
0000
0000
0100
1000
0000
0000
0001
,
0100
0010
1000
0001
,
0020
0000
0000
0000
,
0031
0000
0100
0000
,
0010
0000
1000
0000
,
0100
0000
1000
0000
,
0001
0000
0100
0000
,
0010
0000
1000
0000
,
0100
0000
0001
0000
,
0200
0000
0000
0000
,
0310
0000
0000
0010
0000
0000
0010
0000
0001
0000
0000
0000
0000
0000
0000
0000
,
0100
0000
0010
0000
1000
0100
1000
0000
,
0010
0100
1001
0000
,
0001
0000
0010
0000
0100
1000
0001
0000
,
0100
0010
1010
0000
,
0010
0000
0100
0000
0001
1000
0100
0000
,
0010
0001
1001
1000
,
0010
0000
0100
0001
0100
0000
0010
1000
,
0010
0100
0002
0000
,
0013
0000
0100
0000
1000
0001
0100
0000
,
0010
1000
1001
0000
,
0001
0000
0010
0000
0100
1000
0001
0000
,
0100
0010
1010
1000
,
0100
0000
0010
0000
0001
0100
0010
0000
,
0100
0001
0011
0010
,
0100
1000
0100
0000
0010
0000
0001
0000
,
0200
0000
0000
0000
,
0300
0000
0000
0000
,
0010
0000
0000
0000
,
1000
1000
0000
0000
0000
0000
0000
0000
,
0100
0100
0100
0000
0000
0000
0000
0000
,
0002
0000
0203
0000
,
0310
0000
0000
0000
,
0001
0001
0000
0000
0000
0000
0000
0000
,
0100
0100
0100
0000
0000
0000
0000
0000
,
0020
0000
2030
0000
,
3001
0010
0100
1000
,
0100
0010
0001
0000
,
1000
0000
0010
0000
0100
0001
1000
0000
,
0100
0010
0001
1000
,
0010
0100
0001
1000
,
0100
1000
0010
0000
,
0100
0000
0001
0000
1000
0100
0010
0000
,
0100
0000
1000
0000
0001
0100
0010
0000
,
1000
2000
0000
0000
0000
0000
0000
0000
,
3002
0000
0023
0000
,
0130
1000
0001
0100
,
0010
1000
0100
1000
,
0010
0100
0001
0000
1000
0000
0100
0000
,
0110
0000
0000
0000
;

//---------------dance-single - Blank----------------
#NOTEDATA:;
#CHARTNAME:;
#STEPSTYPE:dance-single;
#DESCRIPTION:Blank;
#CHARTSTYLE:;
#DIFFICULTY:Easy;
#METER:3;
#RADARVALUES:0.162,0.200,0.025,0.065,0.000,128.000,3.000,8.000,0.000,0.000,0.000,0.000,0.000,0.162,0.200,0.025,0.065,0.000,128.000,3.000,8.000,0.000,0.000,0.000,0.000,0.000;
#CREDIT:;
#OFFSET:-12.340;
#BPMS:0.000=160.000
;
#STOPS:;
#DELAYS:;
#WARPS:;
#TIMESIGNATURES:0.000=4=4
;
#TICKCOUNTS:0.000=4
;
#COMBOS:0.000=1
;
#SPEEDS:0.000=1.000=0.000=0
;
#SCROLLS:0.000=1.000
;
#FAKES:;
#LABELS:0.000=Song Start
;
#NOTES:
// measure 0
0000
0001
0000
1000
,  // measure 1
0000
0010
0000
0100
,  // measure 2
0000
0001
0000
0010
,  // measure 3
0000
0100
0000
1000
,  // measure 4
0000
0010
0000
0100
,  // measure 5
0000
0001
0000
0010
,  // measure 6
0000
0100
0000
1000
,  // measure 7
0000
0000
0000
0000
,  // measure 8
0010
0000
0010
0000
,  // measure 9
0100
0000
0100
0000
,  // measure 10
0001
0000
0001
0000
,  // measure 11
0010
0000
0100
0000
,  // measure 12
1000
0000
0001
0000
,  // measure 13
1000
0000
0010
0000
,  // measure 14
1000
0000
0001
0000
,  // measure 15
0100
0000
0010
0000
,  // measure 16
1000
0000
0100
0000
,  // measure 17
0010
0000
0001
0000
,  // measure 18
0100
0000
0010
0000
,  // measure 19
1000
0000
0001
0000
,  // measure 20
0100
0000
0010
0000
,  // measure 21
1000
0000
0100
0000
,  // measure 22
0010
0000
0000
0000
,  // measure 23
0001
0000
0000
0000
,  // measure 24
1000
0000
0000
0000
,  // measure 25
0010
0000
0000
0000
,  // measure 26
0100
0000
0000
0000
,  // measure 27
0001
0000
0000
0000
,  // measure 28
0010
0000
0000
0000
,  // measure 29
0100
0000
0000
0000
,  // measure 30
1000
0000
0000
0000
,  // measure 31
0001
0000
0000
0000
,  // measure 32
0100
0000
0100
0000
,  // measure 33
0010
0000
0010
0000
,  // measure 34
1000
0000
1000
0000
,  // measure 35
0001
0000
0001
0000
,  // measure 36
0010
0000
0100
0000
,  // measure 37
1000
0000
0001
0000
,  // measure 38
0100
0000
0010
0000
,  // measure 39
1001
0000
1001
0000
,  // measure 40
0010
0000
0100
0000
,  // measure 41
0001
0000
1000
0000
,  // measure 42
0100
0000
1000
0000
,  // measure 43
0001
0000
0010
0000
,  // measure 44
0100
0000
1000
0000
,  // measure 45
0001
0000
0100
0000
,  // measure 46
0010
0000
1000
0000
,  // measure 47
0001
0000
1000
0000
,  // measure 48
0010
0000
0000
0000
,  // measure 49
0100
0000
0000
0000
,  // measure 50
0001
0000
0000
0000
,  // measure 51
0020
0030
0000
0000
,  // measure 52
0200
0000
0000
0000
,  // measure 53
1300
0000
0000
0000
,  // measure 54
0010
0000
0000
0000
,  // measure 55
0200
0300
0000
0000
,  // measure 56
0002
0000
0023
0000
,  // measure 57
0130
0010
0100
0000
,  // measure 58
0001
0010
0001
0000
,  // measure 59
1000
0010
1000
0000
,  // measure 60
0010
0000
0100
0000
,  // measure 61
0001
1000
0001
0000
,  // measure 62
1000
0010
1000
0000
,  // measure 63
0001
0100
0001
0000
,  // measure 64
1000
0000
0010
0000
,  // measure 65
0200
0000
0000
0000
,  // measure 66
0302
0000
2003
0000
,  // measure 67
3001
0010
0100
0000
,  // measure 68
1000
0001
0100
0000
,  // measure 69
0010
0000
1000
0000
,  // measure 70
1001
0000
0000
0000
;
