#TITLE:SWEET ANGEL;
#SUBTITLE:;
#ARTIST:古川もとあき;
#TITLETRANSLIT:;
#SUBTITLETRANSLIT:;
#ARTISTTRANSLIT:Motoaki Furukawa;
#CREDIT:;
#BANNER:banner.png;
#BACKGROUND:backrground.png;
#JACKET:jacket.png;
#LYRICSPATH:;
#CDTITLE:;
#MUSIC:SWEET ANGEL.mp3;
#OFFSET:-6.740;
#SAMPLESTART:38.730;
#SAMPLELENGTH:15.000;
#SELECTABLE:YES;
#BPMS:0.000=150.000;
#STOPS:;
#BGCHANGES:;

//---------------dance-single - ----------------
#NOTES:
     dance-single:
     :
     Hard:
     7:
     0.488,0.606,0.296,0.525,0.091:
0010
0000
0000
0100
0000
0000
0110
0000
,
0001
0000
0000
1000
0000
0000
1001
0000
,
0100
0000
0000
0010
0000
0000
0011
0000
,
1000
0000
0000
2002
0000
0000
3003
0000
,
1000
0000
0010
0000
0100
0001
0100
0010
,
1000
0000
0002
0000
0000
2003
0000
0000
,
3200
0000
0000
0320
0000
0000
0031
0000
,
0200
0000
0000
0320
0000
0000
0030
0000
,
2000
0000
3100
0020
0000
0130
2000
0000
,
3002
0000
0103
0020
0000
0130
0002
0000
,
0023
0000
0130
2000
0000
3100
0020
0000
,
0032
0003
2000
3000
,
0010
0100
0001
0100
0010
1000
0001
0010
,
0000
0010
0100
1000
0001
0100
0010
0100
,
0001
0010
0100
0010
0001
1000
0010
0100
,
0001
0100
0010
1000
0100
0010
1000
0010
,
0100
1000
0001
0100
0010
0100
0001
1000
,
0100
0010
0001
0100
0010
1000
0001
1000
,
0010
0100
0001
1000
0100
0010
0001
1000
,
0020
0000
0000
0000
0030
0100
0000
0000
0002
0000
0000
0000
1003
0000
0001
0000
,
1000
0100
0010
0100
0000
0100
0001
0100
,
1000
0000
0010
0100
0000
0100
0110
0000
,
0010
1000
0100
0010
0000
0010
0100
1000
,
0010
0001
0010
0100
,
0001
0010
1000
0010
0000
0010
0100
1000
,
0010
0000
0100
0001
0000
1001
0000
0000
,
1100
1001
0101
0110
,
2002
3003
0220
0330
,
0010
0000
1000
0100
0000
0100
1000
0000
,
0001
0000
0010
0100
0000
0100
0010
0000
,
0001
0100
0010
1000
0000
0100
0001
0100
,
1000
0010
0100
0001
,
0010
0100
1000
0001
0000
0001
0100
1000
,
0100
0000
0010
1000
0000
1001
0000
0000
,
1100
0110
0101
0110
,
2002
3003
0220
0330
,
0020
0000
1030
0100
1000
0001
0100
0010
,
1000
0100
0001
0100
1000
0010
0001
0010
,
2000
0000
0000
0001
3000
0000
0100
0000
0020
0000
0000
1000
0030
0000
0100
0000
,
0010
0001
0000
0000
0001
0100
0000
0000
0100
1000
0000
0000
1000
0100
0000
0000
,
0010
0000
1000
0200
0000
0000
1300
0010
,
0100
0001
1000
0200
0000
0000
0310
0001
,
0100
0010
0100
0001
1000
0001
1000
0100
1000
0001
0010
0001
,
1000
0010
0100
0001
0010
0100
2000
0000
0000
3001
0000
0000
,
0200
0000
0300
0020
0000
0030
0110
0000
,
0002
0000
0003
2000
0000
3000
1001
0000
,
0200
0000
0300
0020
0000
0030
0011
0000
,
0002
0000
0003
0200
0000
0300
0101
0000
,
0020
0000
0030
2000
0000
3000
1001
0000
,
0002
0000
0003
0020
0000
0030
0110
0000
,
0200
0000
0300
2000
0000
3000
1001
0000
,
0110
0000
0000
2002
0000
0000
3003
0000
,
0010
0000
0000
0101
0000
0000
0010
0000
,
1000
0000
0000
2002
0000
0000
3003
0000
,
0010
0000
0000
0100
0000
0000
0001
0000
,
2002
0000
0000
0000
,
0000
0000
0000
0000
,
0000
0000
0000
3003
;

//---------------dance-single - ----------------
#NOTES:
     dance-single:
     :
     Medium:
     5:
     0.282,0.393,0.029,0.067,0.033:
1000
0000
0000
0001
0000
0000
0000
0000
,
0001
0000
0000
1000
0000
0000
0000
0000
,
0010
0000
0000
0100
0000
0000
0000
0000
,
0100
0000
0000
0010
0000
0000
0000
0000
,
1000
0100
0010
0001
,
1000
0000
0010
0000
0100
0010
1000
0000
,
0001
0010
0100
1000
,
0001
0000
0000
0100
0000
0000
0010
0000
,
0100
0001
0010
0100
,
1000
0000
0000
0001
0000
0000
1000
0000
,
0010
0100
0001
0010
,
0200
0300
0020
0030
,
0001
0010
0001
0010
,
0100
1000
0100
1000
,
0001
0100
1000
0100
,
0010
1000
0100
0010
,
0001
0000
1000
0000
0010
0100
0010
0000
,
1000
0000
0100
0000
0010
0001
0010
0000
,
0100
0000
1000
0000
0001
0100
0001
0000
,
1000
0000
0000
0000
0000
0010
0000
0000
0100
0000
0000
0000
0010
0000
0000
0000
,
1000
0000
0100
1000
0000
1000
0100
0000
,
0010
0000
0001
0010
0000
0010
0001
0000
,
1000
0000
0010
0100
0000
0100
0010
0000
,
1000
0100
0010
0001
,
1000
0000
0010
0100
0000
0100
0010
0000
,
1000
0000
0000
0001
0000
1001
0000
0000
,
0100
0010
0001
1000
,
0020
0030
0200
0300
,
0001
0000
0000
0010
0000
0000
0100
0000
,
1000
0000
0000
0001
0000
0000
1000
0000
,
0010
0000
0100
0010
0000
0010
0100
0000
,
0001
0010
0100
1000
,
0001
0000
0100
0001
0000
0001
0100
0000
,
0010
0000
0000
1000
0000
1001
0000
0000
,
0001
0010
0100
1000
,
0020
0030
0200
0300
,
0001
0010
0001
0001
,
1000
0100
1000
1000
,
0010
0100
0010
1000
,
0001
0000
0010
0000
0100
1000
0001
1000
,
0100
0010
0001
0100
,
0010
0010
0100
0001
,
1000
0000
1000
0001
0000
0001
0100
0000
0100
0010
0000
0010
,
0100
0000
0100
0001
0000
0001
2000
0000
0000
3000
0000
0000
,
0001
0000
0000
1000
0000
0000
0000
0000
,
1000
0000
0000
0001
0000
0000
0000
0000
,
0100
0000
0000
0010
0000
0000
0000
0000
,
0010
0000
0000
0100
0000
0000
0000
0000
,
0001
0000
0000
0010
0000
0000
0000
0000
,
0100
0000
0000
1000
0000
0000
0000
0000
,
1000
0000
0000
0010
0000
0000
0000
0000
,
0010
0000
0000
0100
0000
0000
0000
0000
,
0001
0000
0000
1000
0000
0000
0000
0000
,
0100
0000
0000
0010
0000
0000
0000
0000
,
0010
0000
0000
0001
0000
0000
1000
0000
,
1001
0000
0000
0000
;

//---------------dance-single - ----------------
#NOTES:
     dance-single:
     :
     Easy:
     4:
     0.198,0.236,0.048,0.048,0.000: // measure 1
0010
0000
0000
0000
,  // measure 2
0100
0000
0000
0000
,  // measure 3
0001
0000
0000
0000
,  // measure 4
1000
0000
0000
0000
,  // measure 5
0100
0000
0010
0000
,  // measure 6
0001
0000
1000
0000
,  // measure 7
0010
0000
0100
0000
,  // measure 8
0001
0000
1000
0000
,  // measure 9
0100
0000
0010
0000
,  // measure 10
0100
0000
1000
0000
,  // measure 11
0010
0000
0001
0000
,  // measure 12
0020
0030
0200
0300
,  // measure 13
0001
0000
1000
0000
,  // measure 14
0100
0000
0010
0000
,  // measure 15
0100
0100
1000
1000
,  // measure 16
0001
0001
0010
0010
,  // measure 17
0001
0100
1000
0100
,  // measure 18
0001
0010
1000
0010
,  // measure 19
0100
1000
0010
0100
,  // measure 20
0002
0003
2000
3000
,  // measure 21
0001
0100
0000
0100
,  // measure 22
0001
0000
0010
0000
,  // measure 23
0100
1000
0000
1000
,  // measure 24
0100
0000
0010
0000
,  // measure 25
0001
0100
0000
0100
,  // measure 26
0010
0000
0100
0000
,  // measure 27
0001
0010
0100
1000
,  // measure 28
1001
0000
0110
0000
,  // measure 29
0010
0000
0100
0000
,  // measure 30
0010
0000
1000
0000
,  // measure 31
0001
0010
0000
0010
,  // measure 32
0001
0000
0100
0000
,  // measure 33
0010
1000
0000
1000
,  // measure 34
0010
0000
0100
0000
,  // measure 35
0001
0010
0100
1000
,  // measure 36
1001
0000
0110
0000
,  // measure 37
0010
0000
1000
0000
,  // measure 38
0100
1000
0001
0000
,  // measure 39
0100
0000
0010
0000
,  // measure 40
1000
0100
0010
0000
,  // measure 41
0001
0000
0100
0010
,  // measure 42
1000
0010
0100
0100
,  // measure 43
0001
0010
1000
0010
,  // measure 44
0100
1000
0002
0003
,  // measure 45
0100
0000
0100
0000
,  // measure 46
0010
0000
0010
0000
,  // measure 47
1000
0000
1000
0000
,  // measure 48
0001
0000
0001
0000
,  // measure 49
0010
0000
0100
0000
,  // measure 50
1000
0000
0001
0000
,  // measure 51
0100
0000
0000
0010
0000
0000
0000
0000
,  // measure 52
0010
0000
0000
0100
0000
0000
0000
0000
,  // measure 53
0001
0000
0000
1000
0000
0000
0000
0000
,  // measure 54
1000
0000
0000
0001
0000
0000
0000
0000
,  // measure 55
0010
0000
0000
0100
0000
0000
1000
0000
,  // measure 56
1001
0000
0000
0000
;
