#VERSION:0.81;
#TITLE:STELLAR WIND;
#SUBTITLE:;
#ARTIST:L.E.D.;
#TITLETRANSLIT:;
#SUBTITLETRANSLIT:;
#ARTISTTRANSLIT:;
#GENRE:;
#ORIGIN:;
#CREDIT:;
#BANNER:banner.png;
#BACKGROUND:;
#PREVIEWVID:;
#JACKET:jacket.png;
#CDIMAGE:;
#DISCIMAGE:;
#LYRICSPATH:;
#CDTITLE:;
#MUSIC:STELLAR WIND.mp3;
#OFFSET:-8.240;
#SAMPLESTART:75.660;
#SAMPLELENGTH:12.000;
#SELECTABLE:YES;
#BPMS:0.000=160.000;
#STOPS:;
#DELAYS:;
#WARPS:;
#TIMESIGNATURES:0.000=4=4;
#TICKCOUNTS:0.000=4;
#COMBOS:0.000=1;
#SPEEDS:0.000=1.000=0.000=0;
#SCROLLS:0.000=1.000;
#FAKES:;
#LABELS:0.000=Song Start;
#BGCHANGES:;
#KEYSOUNDS:;
#ATTACKS:
;

//---------------dance-single - Blank----------------
#NOTEDATA:;
#CHARTNAME:Blank;
#STEPSTYPE:dance-single;
#DESCRIPTION:Blank;
#CHARTSTYLE:;
#DIFFICULTY:Hard;
#METER:8;
#RADARVALUES:0.448,0.458,0.008,0.065,0.131,374.000,1.000,8.000,0.000,0.000,0.000,0.000,0.000,0.448,0.458,0.008,0.065,0.131,374.000,1.000,8.000,0.000,0.000,0.000,0.000,0.000;
#CREDIT:Blank;
#OFFSET:-8.240;
#BPMS:0.000=160.000
;
#STOPS:;
#DELAYS:;
#WARPS:;
#TIMESIGNATURES:0.000=4=4
;
#TICKCOUNTS:0.000=4
;
#COMBOS:0.000=1
;
#SPEEDS:0.000=1.000=0.000=0
;
#SCROLLS:0.000=1.000
;
#FAKES:;
#LABELS:0.000=Song Start
;
#NOTES:
// measure 0
0010
1000
0100
1000
,  // measure 1
0001
0100
0010
1000
0001
0010
0100
0000
,  // measure 2
1000
0001
0100
0010
,  // measure 3
1000
0001
1000
0001
1000
0000
0001
0000
,  // measure 4
0100
0010
1000
0100
,  // measure 5
0010
0001
1000
0000
0010
0100
0001
0000
,  // measure 6
1000
0100
0010
0001
,  // measure 7
1000
0010
0100
0001
0100
0010
1000
0000
,  // measure 8
0001
0010
0100
1000
,  // measure 9
0001
0100
0010
0100
0001
1000
0100
0000
,  // measure 10
0010
0100
1000
0001
,  // measure 11
0100
0010
1000
0001
,  // measure 12
0010
0001
0010
0001
1000
0100
1000
0100
,  // measure 13
1000
0010
1000
0010
0100
0001
0100
0001
,  // measure 14
0010
0001
1000
0010
0100
0001
0100
0010
,  // measure 15
1000
0001
0010
0100
1000
0100
0010
0000
,  // measure 16
0001
0010
0001
0010
0100
1000
0100
1000
,  // measure 17
0001
0100
0001
0100
0010
1000
0010
1000
,  // measure 18
0001
0010
0100
0010
0001
1000
0010
0100
,  // measure 19
0010
1000
0001
0010
0100
1000
0001
0100
,  // measure 20
0010
1000
0010
1000
0010
0100
0010
0100
,  // measure 21
0001
0100
0001
0100
0001
1000
0001
1000
,  // measure 22
0001
0010
0100
1000
0001
0100
0010
1000
,  // measure 23
0001
0010
0100
0010
0001
0100
1000
0100
,  // measure 24
0010
1000
0010
1000
0001
1000
0001
1000
,  // measure 25
0001
0100
0001
0100
0001
1000
0001
1000
,  // measure 26
0001
0010
0001
0010
0100
1000
0100
1000
,  // measure 27
0002
0000
0000
0000
,  // measure 28
2003
0000
0000
0000
,  // measure 29
0000
0000
0000
0000
,  // measure 30
3020
0000
0000
0000
,  // measure 31
0000
0000
0000
0000
,  // measure 32
0230
0000
0000
0000
,  // measure 33
0000
0000
0000
0000
,  // measure 34
0302
0000
0000
0000
,  // measure 35
0000
0000
0000
0000
,  // measure 36
1003
0000
0100
0000
,  // measure 37
0010
0000
0001
0100
,  // measure 38
0010
0000
1000
0000
,  // measure 39
0100
0000
1000
0001
,  // measure 40
0100
0000
0000
0000
0000
0000
0000
0010
,  // measure 41
0010
0000
0000
0000
0000
0000
0000
1000
,  // measure 42
0001
0000
0000
0001
1000
0000
0000
0010
,  // measure 43
0100
0001
1000
0100
0010
0001
1000
0010
,  // measure 44
0200
0000
0000
0000
,  // measure 45
0301
0000
0000
0100
0000
0000
0010
0000
0000
1000
0000
0000
0100
0000
0000
1000
,  // measure 46
0000
0000
0001
0000
0000
0100
0000
0000
0010
0000
0000
1000
0000
0000
0100
0000
,  // measure 47
1000
0000
0000
0001
0000
0000
0100
0000
0000
0010
0000
0000
1000
0000
0000
0001
,  // measure 48
0000
0000
0010
0000
0000
0100
0000
0000
1000
0000
0000
0100
0000
0000
0010
0000
,  // measure 49
0001
0000
0000
1000
0000
0000
0010
0000
0000
0100
0000
0000
0001
0000
0000
0100
,  // measure 50
0000
0000
0010
0000
0000
1000
0000
0000
0001
0000
0000
0010
0000
0000
0100
0000
,  // measure 51
0001
0000
0100
0000
0000
0000
1000
0000
0000
0001
0000
0000
0100
0000
0000
0010
,  // measure 52
0000
0000
1000
0000
0000
0001
0000
0000
0010
0000
0000
0100
0000
0000
1000
0000
,  // measure 53
0001
0000
0100
0000
0010
0000
1000
0000
0100
0000
1000
0000
0001
0000
0000
0100
,  // measure 54
0000
0000
0010
0000
0000
1000
0000
0000
0100
0000
0000
1000
0000
0000
0001
0000
,  // measure 55
0100
0000
0010
0000
1000
0000
0100
0000
0010
0000
0100
0000
1000
0000
0000
0001
,  // measure 56
0000
0000
0100
0000
0000
0010
0000
0000
1000
0000
0000
0001
0000
0000
0010
0000
,  // measure 57
0100
0000
1000
0000
0001
0000
0100
0000
0010
0000
1000
0000
0001
0000
0000
0010
,  // measure 58
0000
0000
0100
0000
0000
1000
0000
0000
0001
0000
0000
0100
0000
0000
0010
0000
,  // measure 59
1000
0001
1000
0001
0100
0010
0100
0010
,  // measure 60
1000
0100
0010
0001
0100
1000
0100
0001
,  // measure 61
0010
0100
1000
0100
0010
0001
1000
0010
,  // measure 62
0100
0001
1000
0100
0010
0001
1000
0000
,  // measure 63
0010
0100
1000
0100
0010
1000
0001
0010
,  // measure 64
0100
1000
0100
0010
0001
1000
0010
0000
,  // measure 65
0100
0001
1000
0100
0010
0100
1000
0001
,  // measure 66
0100
0010
1000
0001
0010
0100
1000
0100
,  // measure 67
0010
0001
0010
0000
0100
1000
0100
0000
,  // measure 68
1000
0001
0000
0100
0010
0000
1000
0100
0000
0010
0001
0000
0100
0000
0010
0000
,  // measure 69
2002
0000
0000
0000
,  // measure 70
3003
0000
0000
0000
;

//---------------dance-single - Blank----------------
#NOTEDATA:;
#CHARTNAME:;
#STEPSTYPE:dance-single;
#DESCRIPTION:Blank;
#CHARTSTYLE:;
#DIFFICULTY:Easy;
#METER:3;
#RADARVALUES:0.220,0.226,0.049,0.065,0.000,174.000,6.000,8.000,0.000,0.000,0.000,0.000,0.000,0.220,0.226,0.049,0.065,0.000,174.000,6.000,8.000,0.000,0.000,0.000,0.000,0.000;
#CREDIT:;
#OFFSET:-8.240;
#BPMS:0.000=160.000
;
#STOPS:;
#DELAYS:;
#WARPS:;
#TIMESIGNATURES:0.000=4=4
;
#TICKCOUNTS:0.000=4
;
#COMBOS:0.000=1
;
#SPEEDS:0.000=1.000=0.000=0
;
#SCROLLS:0.000=1.000
;
#FAKES:;
#LABELS:0.000=Song Start
;
#NOTES:
1000
0000
0100
0000
,
0010
0001
0010
0000
,
0100
0000
1000
0000
,
0002
0000
0000
0000
,
0103
0010
0100
0000
,
0001
0010
0001
0000
,
1000
0100
1000
0000
,
0010
0000
0100
0000
,
0001
0010
0001
0000
,
1000
0100
1000
0000
,
0001
0000
0100
0000
,
0010
0010
0010
0000
,
1000
0000
0100
0000
,
1000
0001
0100
0000
,
0010
0000
1000
0000
,
0001
0010
0100
0000
,
0010
0000
0001
0000
,
1000
0010
0100
0000
,
0001
0000
1000
0000
,
0100
0010
0100
0000
,
1000
0000
0001
0000
,
0100
0010
1000
0000
,
0001
0000
0010
0000
,
0100
1000
0001
0000
,
0100
0010
0100
0010
,
1000
0001
1000
0001
,
0010
0000
0100
0000
,
2000
0000
0000
0000
,
3000
0000
0000
0000
,
0010
0000
0000
0000
,
0100
0000
0000
0000
,
0001
0000
0000
0000
,
0010
0000
0000
0000
,
0100
0000
0000
0000
,
1000
0000
0000
0000
,
0010
0000
0000
0000
,
0210
0000
0010
0000
,
0010
0000
0310
0000
,
0002
0000
1000
0000
,
1000
0000
1003
0000
,
2010
0000
3010
0000
,
0201
0000
0301
0000
,
1001
0000
0110
0000
,
0001
0100
0010
1000
,
0002
0000
0000
0000
,
0013
0100
1000
0001
,
0100
0000
0010
0000
,
1000
0100
0001
0100
,
0010
0000
0001
0000
,
0100
1000
0100
0010
,
1000
0000
0001
0000
,
0010
0100
1000
0001
,
0100
0000
0010
0000
,
1000
0100
0010
0100
,
1000
0000
0010
0000
,
0100
0001
0010
0100
,
0010
0000
0001
0000
,
0100
0010
0100
0010
,
1000
0001
1000
0001
,
0010
0000
0100
0000
,
2000
0000
0000
0000
,
3001
0001
0010
0010
,
0100
0100
1000
0000
,
0001
0001
0100
0100
,
0010
0010
1000
0000
,
0001
0010
0001
0010
,
0100
1000
0100
1000
,
0001
0100
0010
1000
,
0100
0010
0001
0000
,
1001
0000
0000
0000
;

//---------------dance-single - Blank----------------
#NOTEDATA:;
#CHARTNAME:;
#STEPSTYPE:dance-single;
#DESCRIPTION:Blank;
#CHARTSTYLE:;
#DIFFICULTY:Medium;
#METER:6;
#RADARVALUES:0.313,0.344,0.074,0.106,0.000,246.000,9.000,13.000,0.000,0.000,0.000,0.000,0.000,0.313,0.344,0.074,0.106,0.000,246.000,9.000,13.000,0.000,0.000,0.000,0.000,0.000;
#CREDIT:;
#OFFSET:-8.240;
#BPMS:0.000=160.000
;
#STOPS:;
#DELAYS:;
#WARPS:;
#TIMESIGNATURES:0.000=4=4
;
#TICKCOUNTS:0.000=4
;
#COMBOS:0.000=1
;
#SPEEDS:0.000=1.000=0.000=0
;
#SCROLLS:0.000=1.000
;
#FAKES:;
#LABELS:0.000=Song Start
;
#NOTES:
// measure 0
1000
0010
0100
0001
,  // measure 1
0100
0010
0100
0000
0001
0000
0010
0000
,  // measure 2
0100
1000
0001
0100
,  // measure 3
0010
1000
0010
0000
0200
0000
0000
0000
,  // measure 4
0301
0010
0100
1000
,  // measure 5
0001
0000
0100
0000
0010
1000
0001
0000
,  // measure 6
0010
0100
1000
0100
,  // measure 7
0010
0000
0001
0000
1000
0010
0100
0000
,  // measure 8
0010
1000
0100
0001
,  // measure 9
0100
0000
1000
0000
0010
0100
0001
0000
,  // measure 10
1000
0100
1000
0100
,  // measure 11
0010
0001
0010
0000
0001
0000
0000
0000
,  // measure 12
0100
0010
1000
0100
,  // measure 13
1000
0000
0001
0000
0100
0010
0100
0000
,  // measure 14
0001
1000
0100
0010
,  // measure 15
0100
0000
1000
0000
0001
0100
0010
0000
,  // measure 16
1000
0100
1000
0010
,  // measure 17
0100
0000
0001
0000
1000
0100
0010
0000
,  // measure 18
0001
1000
0010
0100
,  // measure 19
0001
0000
1000
0000
,  // measure 20
0001
0000
0010
0000
0100
1000
0100
0000
,  // measure 21
0010
0001
1000
0000
,  // measure 22
0010
0000
0100
0000
0001
1000
0001
0000
,  // measure 23
0100
0010
1000
0000
,  // measure 24
0001
0010
0001
0010
,  // measure 25
0100
1000
0100
1000
,  // measure 26
0001
0100
0001
0000
1000
0010
1000
0000
,  // measure 27
0002
0000
0000
0000
,  // measure 28
0203
0000
0000
0000
,  // measure 29
0320
0000
0000
0000
,  // measure 30
2030
0000
0000
0000
,  // measure 31
3002
0000
0000
0000
,  // measure 32
0023
0000
0000
0000
,  // measure 33
0230
0000
0000
0000
,  // measure 34
2300
0000
0000
0000
,  // measure 35
0002
0000
0000
3003
,  // measure 36
1000
0000
0010
0000
,  // measure 37
0100
0000
0001
1000
,  // measure 38
0100
0000
0010
0000
,  // measure 39
0001
0000
1000
0010
,  // measure 40
0110
0000
0000
0100
,  // measure 41
1001
0000
0000
0000
,  // measure 42
1100
0000
0011
0000
,  // measure 43
1000
0001
0100
0010
,  // measure 44
2000
0000
0000
0000
,  // measure 45
3001
0000
0100
0010
0000
0000
1000
0000
,  // measure 46
0100
1000
0000
0000
0001
0000
0100
0000
,  // measure 47
0010
0000
1000
0001
0000
0000
1000
0000
,  // measure 48
0010
0100
0000
0000
0001
0000
0100
0000
,  // measure 49
0010
0000
1000
0100
0000
0000
0010
0000
,  // measure 50
0001
0100
0000
0000
0001
0000
1000
0000
,  // measure 51
0100
0000
1000
0001
0000
0000
0100
0000
,  // measure 52
0010
1000
0000
0000
0001
0000
0010
0000
,  // measure 53
0100
1000
0001
0100
,  // measure 54
0000
0010
0000
0000
1000
0000
0100
0000
,  // measure 55
1000
0010
0100
0001
,  // measure 56
0000
0010
0000
0000
0100
0000
1000
0000
,  // measure 57
0001
0100
0001
0100
,  // measure 58
0010
1000
0010
1000
,  // measure 59
0001
0010
0100
1000
,  // measure 60
1001
0110
1001
0110
,  // measure 61
0001
0100
0010
1000
,  // measure 62
0100
1000
0001
0000
0100
0010
1000
0000
,  // measure 63
0001
0010
0100
1000
,  // measure 64
0001
0100
0010
0000
1000
0100
0010
0000
,  // measure 65
0100
1000
0001
0100
,  // measure 66
0010
1000
0001
0000
0010
0100
1000
0000
,  // measure 67
0001
0100
0001
0000
1000
0000
0010
0000
,  // measure 68
0100
0001
0010
0100
,  // measure 69
2002
0000
0000
0000
,  // measure 70
3003
0000
0000
0000
;
