#TITLE:IN THE NAME OF LOVE;
#SUBTITLE:;
#ARTIST:Y&Co. feat. Erica;
#TITLETRANSLIT:;
#SUBTITLETRANSLIT:;
#ARTISTTRANSLIT:;
#GENRE:;
#CREDIT:;
#BANNER:banner.png;
#BACKGROUND:;
#LYRICSPATH:;
#CDTITLE:;
#MUSIC:IN THE NAME OF LOVE.mp3;
#OFFSET:-6.560;
#SAMPLESTART:49.520;
#SAMPLELENGTH:12.000;
#SELECTABLE:YES;
#BPMS:0.000=155.000
;
#STOPS:
;
#BGCHANGES:;
#KEYSOUNDS:;
#ATTACKS:;

//---------------dance-single - Blank----------------
#NOTES:
     dance-single:
     Blank:
     Hard:
     7:
     0.428,0.372,0.074,0.093,0.019,304.000,8.000,10.000,0.000,0.000,0.000,0.428,0.372,0.074,0.093,0.019,304.000,8.000,10.000,0.000,0.000,0.000:
1000
0000
0010
0000
0100
0001
0100
0000
,
0010
0000
1000
0000
0001
0010
0100
0000
,
1000
0010
0100
0001
,
2000
0000
0000
0000
,
3001
0000
0010
0000
0100
1000
0100
0000
,
0010
0000
0001
0000
0100
0010
0100
0001
,
0010
0000
0100
0000
1000
0001
0100
0000
,
0010
0000
1000
0000
0100
1000
0010
0100
,
0001
0000
0010
0000
0100
1000
0001
0000
,
0100
0000
0010
0000
1000
0001
0010
0100
,
0010
0000
0001
0000
0100
0010
1000
0000
,
0001
0000
0000
0000
0010
0000
0000
0100
0000
1000
0000
0100
0000
1000
0001
0000
,
0010
0001
0100
0010
,
1000
0000
0100
0000
1000
0001
0100
0000
,
0010
1000
0100
0010
,
0100
0000
1000
0000
0001
0100
0010
1000
,
0001
0010
0100
1000
,
0100
0000
0010
0000
0001
0100
0010
0000
,
0100
0000
0001
0000
0010
0000
0100
1000
,
0000
0010
0100
0000
0001
1000
0000
0001
,
0000
0100
0010
0000
1000
0100
1000
0000
,
0001
0000
0100
0000
0010
1000
0001
0000
,
0010
0000
0100
0000
1000
0001
0100
0000
,
0010
0000
0100
0001
0000
0100
0000
0000
,
0010
0000
1000
0000
0100
1000
0001
0000
,
0100
0000
0010
0000
0100
0001
1000
0000
,
0200
0000
0320
0000
0031
0200
0000
0320
,
0000
0000
0000
0000
,
1030
0000
0100
1000
0000
0010
0000
0100
,
0000
0001
0100
0000
0110
0000
0010
0000
,
1000
0000
0100
1000
0000
0001
0000
0100
,
0000
0010
1000
0000
1100
0000
0100
0000
,
0010
0001
0000
0100
0000
0010
1000
0000
,
0100
1000
0000
0001
0000
0100
0010
0000
,
1000
0100
0000
1000
0000
0010
0100
0000
,
0001
0100
0000
0220
0000
0000
0330
0000
,
1000
0100
0000
1000
0000
0010
0000
0100
,
0000
0001
0010
0000
0011
0000
0001
0000
,
0100
0010
0000
1000
0000
0100
0000
1000
,
0000
0001
0100
0000
0110
0000
0010
0000
,
1000
0100
0000
1000
0000
0001
0100
0000
,
0010
1000
0000
0100
0000
1000
0010
0000
,
0200
0000
0301
1000
0001
0000
0100
0000
,
0010
1000
0000
2002
0000
0000
3003
0000
,
1000
0000
0010
0000
0100
0001
1000
0000
,
0100
0000
0010
0000
0001
1000
0010
0100
,
0001
0000
1000
0000
0100
0010
0100
0000
,
1000
0000
0001
0000
0100
0010
1000
0001
,
0010
0000
0100
0000
1000
0001
0100
0000
,
0010
0000
1000
0000
0001
0010
0100
0000
,
1000
0000
0001
0000
0100
0010
1000
0001
,
0010
0000
0100
1000
0000
0001
0000
0100
,
0010
1000
0100
0000
0010
0001
0100
0000
,
0010
1000
0100
0000
0100
1000
0001
0000
,
0100
0010
1000
0000
0001
0010
0100
0000
,
1000
0001
0100
0000
0010
1000
0001
0010
,
0100
1000
0001
0000
0100
0010
0100
0000
,
0001
1000
0100
0000
0010
0001
1000
0000
,
0010
0100
0001
0000
0100
0000
0010
0000
,
1000
0001
0000
0001
1000
0000
0010
0000
,
0100
0001
0000
0001
0100
0010
0000
0010
,
1000
0100
0000
0110
0000
1001
0000
0000
;

//---------------dance-single - Blank----------------
#NOTES:
     dance-single:
     Blank:
     Easy:
     5:
     0.311,0.258,0.084,0.037,0.009,221.000,9.000,4.000,0.000,0.000,0.000,0.311,0.258,0.084,0.037,0.009,221.000,9.000,4.000,0.000,0.000,0.000:
1000
0010
0100
0001
,
0010
0100
1000
0001
,
0100
0010
1000
0100
,
0120
0000
0000
0000
,
0031
0100
0010
1000
,
0100
0000
1000
0000
0010
0010
0010
0000
,
0100
0001
0010
0100
,
0010
0000
0001
0000
1000
1000
1000
0000
,
0010
0100
0001
1000
,
0100
0000
0010
0000
0001
0001
0001
0000
,
0100
0010
1000
0001
,
0010
0000
0000
0000
0100
0000
0000
1000
0000
0000
0001
0000
0000
0100
0000
0000
,
0010
1000
0100
1000
,
0010
0100
0001
0000
,
0010
0100
1000
0001
,
0100
0010
1000
0000
,
0100
1000
0010
0100
,
0001
0010
0100
0000
,
0010
0001
0100
1000
,
0100
0000
0010
0000
1000
0000
0000
0001
,
0000
0010
0100
1000
,
0100
0010
0001
0000
,
0100
0010
1000
0100
,
1000
0000
0000
0001
0000
0001
0000
0000
,
0100
0010
1000
0100
,
1000
0010
0100
0001
,
1000
0000
0010
0000
0100
0100
0000
2002
,
0000
0000
3003
0000
,
1000
0000
0010
0000
0100
0000
0000
0001
,
0000
0100
0110
0010
,
1000
0000
0100
0000
1000
0000
0000
0010
,
0000
0100
0101
0001
,
0010
0000
0000
0100
0000
0000
1000
0000
,
0001
0000
0000
0100
0000
0000
0010
0000
,
1000
0000
0000
0100
0000
0000
1000
0000
,
0010
0000
0000
0110
0000
0000
0100
0000
,
0001
0000
0010
0000
0100
0000
0000
1000
,
0000
0010
0110
0100
,
0001
0000
0010
0000
0100
0000
0000
0010
,
0000
0001
1001
1000
,
0010
0000
0000
0100
0000
0000
0010
0000
,
1000
0000
0000
0001
0000
0000
1000
0000
,
0000
0010
0010
0100
,
0001
0000
0000
1001
0000
0000
0000
0000
,
1000
0010
0100
0001
,
1000
0100
0010
0001
,
0100
0010
1000
0100
,
1000
0000
0010
0000
0100
0001
0100
0000
,
0001
0010
0100
1000
,
0001
0100
1000
0100
,
0010
1000
0100
0010
,
0001
1000
0000
0001
0000
1000
0000
0001
,
0000
0010
0100
1000
,
0010
0100
0001
0000
,
0100
0010
1000
0100
,
1000
0000
0010
0000
0100
0001
0100
0000
,
0010
1000
0100
0001
,
0100
0010
0001
0000
,
1000
0010
0100
0001
,
0200
0000
0000
0000
,
0310
0000
1000
0000
,
0001
0000
0000
0100
0000
0110
0000
0000
;

//---------------dance-single - Blank----------------
#NOTES:
     dance-single:
     Blank:
     Medium:
     6:
     0.367,0.286,0.046,0.046,0.009,266.000,5.000,5.000,0.000,0.000,0.000,0.367,0.286,0.046,0.046,0.009,266.000,5.000,5.000,0.000,0.000,0.000:
0010
0100
0001
1000
,
0100
0000
0010
0000
0100
0000
1000
0001
,
0100
0010
1000
0100
,
0020
0000
0000
0000
,
0031
0100
0010
1000
,
0100
0000
1000
0000
0010
0100
0001
0100
,
0010
1000
0100
0010
,
0100
0000
1000
0000
0010
0100
1000
0100
,
0010
1000
0100
0010
,
0001
0000
1000
0000
0100
0001
0100
1000
,
0001
0100
1000
0100
,
0010
0000
0000
0000
1000
0000
0000
0001
0000
0000
0010
0000
0000
0100
0000
0000
,
1000
0010
0100
0001
,
1000
0000
0100
0000
0010
0001
0100
0000
,
0010
0100
0001
0010
,
0100
0000
1000
0000
0010
0100
0010
0000
,
1000
0100
1000
0001
,
0100
0000
0010
0000
1000
0001
0010
0000
,
0100
0000
1000
0000
0010
0000
0100
0001
,
0000
0001
0100
0000
0010
1000
0000
0001
,
0000
0010
0100
1000
,
0100
0000
0010
0000
0001
1000
0010
0000
,
0100
0001
0100
0010
,
1000
0000
0100
1000
0000
0001
0000
0000
,
0100
0010
1000
0100
,
1000
0010
0100
0000
0001
1000
0100
0000
,
0010
0000
0001
0100
0000
0010
0000
2000
,
0000
0000
0000
3000
,
0001
0000
0010
0000
0100
0000
1000
0010
,
0000
0100
0001
0000
1001
0000
1000
0000
,
0010
0000
1000
0000
0100
0000
1000
0001
,
0000
0100
0010
0000
1010
0000
1000
0000
,
0100
0000
0010
0100
0000
1000
0001
0000
,
0100
0010
0000
0100
0000
0000
0001
0000
,
0010
0100
1000
0001
,
0100
0100
0000
0020
0000
0000
0030
0000
,
1000
0000
0010
0000
0100
0000
0001
1000
,
0000
0100
0010
0000
0110
0000
0100
0000
,
1000
0000
0010
0000
0100
0000
0001
0010
,
0000
0100
1000
0000
1100
0000
0001
0000
,
0100
0010
1000
0001
,
0010
0100
1000
0010
,
0100
0000
0001
0100
0010
0000
1000
0000
,
0100
0000
0000
2000
0000
0000
0000
0000
,
3001
0100
0010
1000
,
0100
0000
1000
0000
0010
0100
0001
0100
,
0010
1000
0100
1000
,
0001
0000
0100
0000
0010
1000
0100
1000
,
0010
0100
0001
1000
,
0100
0000
0010
0000
0001
1000
0010
0100
,
0001
1000
0100
0010
,
0001
1000
0000
0010
0000
0100
0000
0001
,
0100
0010
1000
0100
,
1000
0010
0100
0000
,
0010
1000
0100
1000
,
0001
0000
0100
0000
0010
1000
0001
0000
,
1000
0010
0100
0001
,
0010
0000
0100
0000
1000
0001
1000
0000
,
0010
0100
0001
0010
,
0200
0000
0000
0000
,
1300
0001
0000
0000
1000
0001
0000
0001
,
1000
0010
0000
0100
0000
1001
0000
0000
;
