#TITLE:Beastie Starter;
#SUBTITLE:;
#ARTIST:GUHROOVY;
#TITLETRANSLIT:;
#SUBTITLETRANSLIT:;
#ARTISTTRANSLIT:;
#GENRE:;
#CREDIT:;
#BANNER:;
#BACKGROUND:;
#LYRICSPATH:;
#CDTITLE:;
#MUSIC:Beastie Starter.mp3;
#OFFSET:-0.386000;
#SAMPLESTART:81.175484;
#SAMPLELENGTH:9.631577;
#SELECTABLE:YES;
#DISPLAYBPM:380.000000;
#BPMS:0.000000=190.000000
,28.000000=380.000000
,59.000000=760.000000
,61.000000=380.000000
,332.000000=190.000000
,392.000000=380.000000
,454.000000=760.000000
,457.000000=380.000000
,519.000000=760.000000
,523.000000=190.000000
;
#STOPS:28.000000=1.090000,
59.000000=0.040000,
59.500000=0.040000,
60.000000=0.040000,
60.500000=0.040000,
89.000000=0.080000,
90.000000=0.080000,
148.000000=0.480000,
149.000000=0.080000,
150.000000=0.080000,
180.000000=0.160000,
207.000000=1.060000,
238.000000=0.160000,
263.000000=0.080000,
263.500000=0.080000,
264.000000=0.080000,
264.500000=0.080000,
265.000000=0.160000,
392.000000=1.110000,
454.000000=0.240000
;
#BGCHANGES:;
#KEYSOUNDS:;
#ATTACKS:;

//---------------dance-single - ----------------
#NOTES:
     dance-single:
     :
     Beginner:
     3:
     0.153691,0.237654,0.088183,0.017637,0.000000,110.000000,10.000000,2.000000,0.000000,0.000000,0.000000,0.153691,0.237654,0.088183,0.017637,0.000000,110.000000,10.000000,2.000000,0.000000,0.000000,0.000000:
0000
0000
0000
0000
,
0000
0000
0000
0000
,
0000
0000
0000
0000
,
0000
0000
0000
0000
,
1001
0000
0000
0000
,
0000
0000
0000
0000
,
0110
0000
0000
0000
,
0000
0010
0000
0000
,
0000
0000
0000
0000
,
0000
0001
0000
0000
,
0000
0000
0000
0000
,
0000
0100
0000
0000
,
0000
0000
0000
0000
,
0000
0010
0000
0000
,
0000
0000
0000
0000
,
0000
1000
0000
0000
,
0000
0000
0000
0000
,
0000
0100
0000
0000
,
0000
0000
0000
0000
,
0000
0010
0000
0000
,
0000
0000
0000
0000
,
0000
0001
0000
0000
,
0000
0000
0000
0000
,
1000
0000
0000
0000
,
0001
0000
0000
0000
,
1000
0000
0000
0000
,
0001
0000
0000
0000
,
0100
0000
0000
0000
,
0010
0000
0000
0000
,
0100
0000
0000
0000
,
0010
0000
0000
0000
,
1000
0000
0000
0000
,
0100
0000
0000
0000
,
0010
0000
0000
0000
,
0001
0000
0000
0000
,
1000
0000
0000
0000
,
0010
0000
0000
0000
,
0001
0100
0000
0000
,
1000
0000
0000
0000
,
0010
0000
0000
0000
,
0100
0000
0000
0000
,
0010
0000
0000
0000
,
0001
0000
0000
0000
,
0010
0000
0000
0000
,
1000
0000
0000
0000
,
1001
0000
0000
0100
,
0000
0000
0000
0010
,
0000
0000
0000
0001
,
0000
0000
0000
0100
,
0000
0000
0000
0010
,
0000
0000
0000
1000
,
0000
0000
0000
1001
,
0110
0000
0000
0000
,
0000
0000
0000
0000
,
0100
0000
0000
0000
,
0000
0000
0000
0000
,
0010
0000
0000
0000
,
0000
0000
0000
0000
,
0100
0000
0000
0000
,
0000
0000
0000
1001
,
0000
0000
0000
0000
,
0000
0000
0000
0001
,
0000
0000
0000
0000
,
0000
0000
0000
1000
,
0000
0000
0000
0000
,
0000
0000
0000
0002
,
0000
0003
0000
0000
,
0100
0000
0000
0000
,
0010
0000
0000
0000
,
0100
0000
0000
0000
,
0010
0000
0000
0000
,
1000
0000
0000
0000
,
0100
0000
0000
0000
,
0010
0000
0000
0000
,
0001
0000
0000
0000
,
1000
0000
0000
0000
,
0010
0000
0000
0000
,
0100
0000
0000
0000
,
0001
0000
0000
0000
,
0010
0000
0000
0000
,
0100
0000
0000
0000
,
1000
0000
0000
0000
,
0001
0000
0000
0000
,
1001
0000
0000
0000
,
0010
0000
0000
0000
,
0100
0000
0000
0000
,
0001
0000
0000
0000
,
0010
0000
0000
0000
,
0100
0000
0000
0000
,
1000
0000
0000
0000
,
0001
0000
0000
0000
,
1001
0000
0000
0000
,
0100
0000
0000
0000
,
0010
0000
0000
0000
,
0100
0000
0000
0000
,
0110
0000
0000
0000
,
1000
0000
0000
0000
,
0100
0000
0000
0000
,
0001
1000
0000
0000
,
0000
0000
0000
0000
,
0000
0001
0000
0000
,
0000
0000
0000
0000
,
0000
1000
0000
0000
,
0000
0000
0000
0000
,
0000
0001
0000
0000
,
0000
0000
0000
0000
,
0000
0100
0000
0000
,
0000
0000
0000
0000
,
0000
0010
0000
0000
,
0000
0000
0000
0000
,
0000
0100
0000
0000
,
0000
0000
0000
0000
,
0000
0010
0000
0000
,
0000
0001
0000
0000
,
0000
0000
0000
0000
,
0000
1000
0000
0000
,
0000
0001
0000
0000
,
0000
1000
0000
0000
,
0000
0100
0000
0000
,
0000
0010
0000
0000
,
0000
0100
0000
0000
,
0000
0010
0000
0000
,
0000
0001
0000
0000
,
0000
0100
0000
0000
,
0000
0010
0000
0000
,
0000
1000
0000
0000
,
0000
0100
0000
0000
,
0000
0010
0000
0000
,
0000
0001
0000
1000
,
0000
0002
0000
0000
,
0000
0000
0000
0003
,
0000
0000
0000
1000
,
0000
0000
0000
0010
,
0000
0000
0000
0100
,
0000
0000
0000
1001
;

//---------------dance-single - ----------------
#NOTES:
     dance-single:
     :
     Easy:
     7:
     0.409423,0.534722,0.273369,0.149912,0.000000,277.000000,31.000000,17.000000,0.000000,0.000000,0.000000,0.409423,0.534722,0.273369,0.149912,0.000000,277.000000,31.000000,17.000000,0.000000,0.000000,0.000000:
0000
0000
0000
0000
,
0000
0000
0000
0000
,
0000
0000
0000
0000
,
0000
0000
0000
0000
,
1001
0000
0100
0000
,
0010
0000
0001
0000
,
1001
0000
0010
0000
,
0000
0100
0000
0001
,
0000
0100
0000
0001
,
0000
1000
0000
0100
,
0000
1000
0000
0100
,
0000
0010
0000
0001
,
0000
0010
0000
0001
,
0000
1000
0000
0010
,
0000
1000
0000
0020
,
0000
1030
0000
0100
,
0000
0010
0000
0001
,
0000
0100
0000
0010
,
0000
1000
0000
0001
,
0000
0010
0000
0100
,
0000
1000
0000
0010
,
0000
0100
0000
0010
,
0000
2002
0000
3003
,
0010
0000
0001
0000
,
0100
0000
1000
0000
,
0100
0000
0001
0000
,
0010
0000
0100
0000
,
1000
0000
0010
0000
,
0001
0000
1000
0000
,
0100
0000
0001
0000
,
1000
0000
0200
0000
,
0310
0000
0001
0000
,
0100
0000
0010
0000
,
0100
0000
0001
0000
,
1000
0000
0100
0000
,
0110
0000
0110
0000
,
1001
0000
1001
0000
,
0110
0010
0020
0030
,
0010
0000
1000
0000
,
0100
0000
1000
0000
,
0001
0000
0100
0000
,
0010
0000
0100
0000
,
0001
0000
0010
0000
,
0100
0000
0010
0000
,
1000
0000
0010
0000
,
0002
0000
0000
1003
,
0000
0010
0000
0100
,
0000
1000
0000
0100
,
0000
0001
0000
0010
,
0000
0100
0000
1000
,
0000
0001
0000
0100
,
0000
0010
0000
1001
,
1001
0000
0010
0000
,
0010
0000
0010
0000
,
1001
0000
0100
0000
,
0100
0000
0100
0000
,
1001
0000
0010
0000
,
0010
0000
0010
0000
,
1001
0000
0100
0000
,
0100
0000
0100
0011
,
0000
0100
0000
0100
,
0000
0100
0000
1010
,
0000
0100
0000
0100
,
0000
0100
0000
0101
,
0000
0100
0000
0100
,
0000
0000
0100
0000
0000
0000
1000
0010
,
0001
0010
2000
0000
3002
0000
0000
0000
,
1003
0000
0100
0000
,
0010
0000
0001
0000
,
1000
0000
0010
0000
,
0100
0000
0001
0000
,
0010
0000
1000
0000
,
0010
0000
0001
0000
,
0100
0000
1000
0000
,
0100
0000
0001
0000
,
0010
0000
0100
0000
,
1000
0000
0001
0000
,
0100
0000
0010
0000
,
0100
0000
0001
0000
,
1000
0000
0100
0000
,
0010
0000
0001
0000
,
1000
0000
0010
0000
,
0110
0000
0110
0000
,
2001
0000
0100
0000
,
0010
0000
3002
0000
,
0100
0000
0010
0000
,
1000
0000
0203
0000
,
1000
0000
0001
0000
,
0010
0000
0320
0000
,
1000
0000
0100
0000
,
0001
0000
1030
0000
,
1020
0000
0031
0000
,
0021
0000
1030
0000
,
1200
0000
0301
0000
,
0201
0000
1300
0000
,
0001
0100
1000
0010
,
1000
0100
0010
1000
,
0001
0010
0100
1000
,
1001
0010
0000
1000
,
0000
0100
0000
1000
,
0000
0001
0000
0010
,
0000
0100
0000
0010
,
0000
0001
0000
0100
,
0000
0010
0000
0100
,
0000
0001
0000
1000
,
0000
0100
0000
0010
,
0000
0001
0000
0100
,
0000
0010
0000
0100
,
0000
0001
0000
1000
,
0000
0100
0000
0010
,
0000
0001
0000
1000
,
0000
0010
0000
0100
,
0000
0110
0000
0110
,
0000
1001
0000
0000
,
0000
0010
0000
1000
,
0000
0100
0000
0001
,
0000
1000
0000
0010
,
0000
0001
0000
0100
,
0000
0010
0000
0100
,
0000
0001
0000
0010
,
0000
0100
0000
1000
,
0000
0010
0000
0100
,
0000
0101
0000
0001
,
0000
1000
0000
0100
,
0000
0011
0000
0100
,
0000
1000
0000
0010
,
0000
1010
0000
0010
,
0000
0100
0000
1000
,
0000
0100
0010
0100
,
0010
1000
0001
2000
,
0000
0000
0000
3001
,
0000
0010
0000
0001
,
0000
1000
0000
0010
,
0000
0000
0100
0000
0000
0000
0001
1000
,
0000
1000
0001
0000
0010
0000
0110
0000
;

//---------------dance-single - ----------------
#NOTES:
     dance-single:
     :
     Medium:
     9:
     0.623583,0.772377,0.264550,0.097002,0.000000,454.000000,30.000000,11.000000,0.000000,0.000000,0.000000,0.623583,0.772377,0.264550,0.097002,0.000000,454.000000,30.000000,11.000000,0.000000,0.000000,0.000000:
0000
0000
0000
0000
,
0000
0000
0000
0000
,
0000
0000
0000
0000
,
0000
0000
0000
0000
,
1001
0100
0100
0100
,
0010
0010
0001
0001
,
0011
0100
0100
1000
,
0000
0010
0000
0100
,
0000
0010
1000
0100
,
0000
0010
0000
0100
,
0000
1000
0001
0100
,
0000
0010
0000
1000
,
0000
0001
0010
0100
,
0000
0010
0000
0001
,
0000
1000
0010
1000
,
0010
1000
0000
0010
,
0000
0100
0001
0100
,
0000
0010
0000
1000
,
0000
0001
0010
0001
,
0000
0100
0000
0010
,
0000
0001
0010
0001
,
0000
0010
0000
1000
,
0000
1010
1010
1010
,
0001
0000
0010
0100
,
1000
0001
0100
0010
,
1000
0001
0010
0100
,
1000
0010
0100
0000
,
0010
1000
0100
1000
,
0001
0100
0010
0100
,
0001
0010
1000
0010
,
0100
1000
0001
0000
,
0001
0100
0010
0100
,
0001
1000
0100
0000
,
0010
0001
0100
1000
,
0100
0001
0010
0000
,
0100
1000
0010
0100
,
0001
1000
0100
0000
,
0110
0011
1100
0001
,
0100
0010
0100
0001
,
0100
0010
1000
0000
,
0001
0010
0100
0010
,
0001
1000
0100
0000
,
0010
0001
0100
0010
,
0100
0001
1000
0000
,
0100
0010
0001
1000
,
1001
0010
0000
0100
,
0001
1000
0100
0010
,
0001
1000
0000
0010
,
0100
1000
0100
0001
,
0010
0100
0000
0100
,
1000
0001
0100
0010
,
0100
0001
0000
1001
,
0110
0000
0010
1000
,
0100
0001
0100
0000
,
0110
0000
0010
0001
,
0100
1000
0100
0000
,
0101
0000
0001
1000
,
0100
0001
0100
0000
,
0110
0000
0010
0001
,
1000
0010
0100
0110
,
0000
0010
1000
0100
,
1000
0001
0000
0101
,
0000
0001
0010
0100
,
0010
0001
0000
0011
,
0000
0001
1000
0100
,
1000
0000
0001
0000
0000
0000
0100
1000
,
0001
0010
0100
0000
0001
1000
0001
0000
,
0010
0100
1000
0010
,
0100
0001
0100
0010
,
1000
0001
0010
0100
,
1000
0001
0100
0000
,
0010
1000
0100
1000
,
0001
0100
0010
0100
,
0001
0010
0100
1000
,
0001
0100
0010
0000
,
0010
0100
0001
1000
,
0100
0010
0100
1000
,
0010
0100
1000
0100
,
0001
0010
0100
0000
,
0100
1000
0001
0100
,
0010
0100
0001
0010
,
0100
1000
0100
1000
,
1001
0000
0000
1001
0000
0000
0100
0000
,
0020
1000
0100
0001
,
2030
0100
0001
0010
,
3200
0001
0010
1000
,
0302
0010
1000
0100
,
0023
1000
0100
0001
,
2030
0100
0001
0010
,
3200
0001
0010
1000
,
0302
0010
1000
0103
,
0101
0000
1100
0000
,
1010
0000
1001
0000
,
0101
0000
0001
0100
0011
0000
0000
0000
,
0110
0000
0100
1000
1100
0000
0000
0000
,
1010
0010
0100
0001
,
0010
0000
0100
1000
0001
0000
0100
0000
,
0010
1000
0010
0100
0001
0100
0010
1000
,
0001
0010
0000
0001
,
0000
0100
0010
1000
,
0100
1000
0000
0010
,
0000
0100
0001
1000
,
0100
0010
0000
0100
,
0000
1000
0010
0100
,
0010
1000
0000
0001
,
0000
0010
0100
1000
,
0001
0100
0000
0010
,
0000
0100
0001
0010
,
0100
1000
0000
0001
,
0000
1000
0100
0010
,
0001
1000
0000
0010
,
0000
0100
0000
0001
,
0000
0000
0000
1000
0000
0100
0000
0010
,
0000
0001
1000
0000
0020
0000
0000
0000
,
0000
0130
0001
1000
,
0100
1000
0001
0100
,
0010
1000
0001
0010
,
0100
1000
0010
0100
,
0001
0100
0010
1000
,
0001
0010
0100
1000
,
0010
0100
0001
0010
,
0100
1000
0010
0100
,
0000
0110
0010
1000
,
0100
0010
0100
1000
,
0001
0100
0010
0100
,
0001
1000
0100
0010
,
0001
2000
0000
3010
,
0100
0001
0010
0100
,
1000
0010
0100
0001
,
1000
0000
0001
0000
1000
0001
2000
0000
,
0000
0000
0000
3001
,
0000
0000
0100
0000
0000
0000
0010
1000
,
0000
1000
0100
0000
0010
0000
0001
1000
,
0000
1000
0100
0000
0010
0000
0001
0100
,
0000
0100
0010
0000
1000
0000
1001
0000
;

//---------------dance-single - ----------------
#NOTES:
     dance-single:
     :
     Hard:
     10:
     0.828924,0.950617,0.379189,0.044092,0.026455,610.000000,43.000000,5.000000,0.000000,0.000000,0.000000,0.828924,0.950617,0.379189,0.044092,0.026455,610.000000,43.000000,5.000000,0.000000,0.000000,0.000000:
0000
0000
0000
0000
,
0000
0000
0000
0000
,
0000
0000
0000
0000
,
0000
0000
0000
0000
,
1001
0000
0000
0100
0000
0000
0010
0000
0001
0000
0000
1000
0000
0000
0010
0000
,
0100
0000
0000
0001
0000
0000
1000
0000
0100
0000
0000
0010
0000
0000
0100
0000
,
1100
0000
1000
0000
0000
0010
0000
0000
0100
0000
0000
0001
0000
0000
1000
0000
,
0000
0010
0100
0001
,
0100
0010
1000
0100
,
1000
0001
0100
0010
,
0100
0001
1000
0100
,
0010
0001
1000
0010
,
0100
0001
0100
1000
,
0100
0010
1000
0100
,
0010
0000
0001
0000
1000
0000
0010
1000
,
0010
0001
0010
0000
0100
0000
0001
0000
,
0010
0100
1000
0001
,
0100
1000
0100
0001
,
0010
0100
1000
0010
,
0100
0001
0100
1000
,
0100
0010
1000
0100
,
0010
0001
0010
0100
,
1000
1100
1001
0110
,
0010
0000
1000
0100
0000
1000
0100
0000
,
0010
0000
0001
0100
0000
0001
0100
0000
,
0001
0000
1000
0100
0000
1000
0100
0000
,
0010
0000
0001
0100
0000
0001
0100
0000
,
0001
0000
0010
0100
0000
1000
0001
0000
,
0100
0000
0010
1000
0000
0100
0010
0000
,
0001
0000
1000
0010
0000
0100
0001
0000
,
0010
0000
0100
1000
0001
1000
0100
1000
,
0001
0000
0100
0010
0000
1000
0001
0000
,
0010
0000
0100
1000
0000
0001
0100
0000
,
1000
0000
0100
0010
0000
1000
0001
0000
,
0010
0000
0100
1000
0000
0001
0100
0000
,
0010
1000
0001
0010
,
0100
1000
0010
0100
,
1001
0011
1100
1001
,
0001
0100
0010
0100
,
0001
1000
0100
0010
,
0100
1000
0010
0100
,
0001
0010
0100
1000
,
0001
0100
0010
1000
,
0100
0010
0001
0010
,
0100
1000
0001
0100
,
0110
0000
1000
0100
0001
0100
1000
0000
,
0010
0100
0001
1000
,
0100
0010
0100
1000
,
0010
0100
1000
0100
,
0001
0000
0010
0000
0100
1000
0001
0100
,
0010
0000
0100
0000
0001
0000
1000
0100
,
1000
0001
0100
0000
0010
0000
0110
0000
,
1010
0000
0010
0100
,
0001
1000
0100
0010
,
0011
0100
1000
0001
,
0100
0010
0100
1000
,
1100
0100
0010
1000
,
0001
0010
0100
1000
,
1001
0001
0100
0010
,
0100
0001
2000
3100
,
1000
0010
0100
1000
,
0100
0001
0010
0011
,
0100
1000
0001
0100
,
0010
0000
0100
0000
0001
0100
0001
0000
,
0010
0000
0100
0000
1000
0000
0001
1000
,
0001
1000
0100
0000
0010
0000
0001
0101
,
0010
1010
1001
0000
0100
0010
0100
0000
,
0001
0010
1000
0010
,
0100
1000
0010
0100
,
1000
0100
0001
0010
,
0100
0000
1000
0000
0001
0000
0100
1000
,
0100
0001
1000
0100
,
0010
0001
1000
0010
,
0100
0001
0010
0100
,
1000
0000
0001
0000
0100
0000
0010
0001
,
0010
1000
0100
0010
,
0001
1000
0010
0100
,
0001
0010
0100
1000
,
0010
0000
0100
0000
0001
0000
1000
0010
,
1000
0100
0010
0001
,
1000
0010
0100
0001
,
1000
0100
1000
0001
0100
0010
0100
0001
,
1000
0000
0000
1100
0000
0000
0011
0000
,
0001
0100
1000
0100
,
0010
1000
0100
0010
,
0001
0010
0001
0000
1000
0100
1000
0000
,
0001
0100
0001
0000
1000
0010
1000
0000
,
0010
0100
0010
0000
0100
0001
0100
0000
,
0001
1000
0001
0000
1000
0100
1000
0000
,
0100
0010
0100
0000
0010
0001
0010
0000
,
0001
1000
0001
0000
1000
0010
1000
0000
,
1010
0010
0110
0000
,
0101
0000
0001
1000
0011
0000
0001
0000
,
0101
0010
1100
0010
,
0101
0000
0001
1000
1100
0000
0001
0000
,
0101
0110
1010
0101
,
0011
0000
1100
0010
1100
0000
0010
0000
,
0100
0001
0100
1000
0100
0010
1000
0001
,
0210
0301
0100
0010
,
0100
0001
1000
0100
,
1000
0001
0010
1000
,
0010
0100
1000
0010
,
0100
1000
0100
0000
0001
0000
1000
0000
,
0100
1000
0010
0100
,
0001
0010
0100
1000
,
0001
0000
0100
0000
0010
0000
0100
1000
,
0100
0001
0100
0000
0010
0000
1000
0000
,
0100
0010
0001
0100
,
0010
0100
0001
1000
,
0001
0010
0100
0010
,
1000
0001
1000
0000
0100
0000
0001
0000
,
0100
0010
0100
0000
1000
0000
0010
0000
,
0100
0001
0100
0010
0000
1010
0000
0101
,
0000
0001
1000
0000
0200
0000
0000
0000
,
0000
0310
0001
0100
,
0010
0000
0100
1000
0100
0000
0001
0100
,
0001
0100
0010
0000
1000
0000
0001
0000
,
0010
0000
1000
0001
1000
0000
0010
0001
,
0010
0100
0001
0100
,
1000
0000
0100
0010
0100
0000
0001
1000
,
0001
0100
0010
0001
,
0100
0000
0010
1000
0100
0000
0010
0001
,
0010
0100
1100
0000
1000
0000
0010
0000
,
0100
0000
0001
0100
0001
0000
1000
0100
,
1000
0100
1000
0000
0001
0000
0100
0000
,
0010
0000
0100
0001
0100
0000
0001
1000
,
0001
1000
0020
0000
0000
0000
0130
0000
,
0001
1000
0001
0100
,
0010
0000
1000
0100
1000
0001
0100
0010
,
0100
0001
0010
1000
0010
0001
2000
0000
,
0000
0000
0000
0000
0000
0000
3010
0100
,
0000
0001
1001
0000
1000
0100
0010
0001
,
0000
0001
1000
0000
0010
0100
0001
1000
,
0000
0100
0110
0000
0010
0001
0100
0010
,
0000
0010
0100
0000
0001
0000
1001
0000
;

//---------------dance-single - ----------------
#NOTES:
     dance-single:
     :
     Challenge:
     12:
     1.000000,1.000000,1.000000,0.052910,0.052910,688.000000,115.000000,6.000000,0.000000,0.000000,0.000000,1.000000,1.000000,1.000000,0.052910,0.052910,688.000000,115.000000,6.000000,0.000000,0.000000,0.000000:
// measure 0
0000
0000
0000
0000
,  // measure 1
0000
0000
0000
0000
,  // measure 2
0000
0000
0000
0000
,  // measure 3
0000
0000
0000
0000
,  // measure 4
1001
0000
0100
0010
0000
0001
1000
0000
0010
0000
0100
0001
0000
1000
0100
0000
,  // measure 5
0010
0000
0001
0100
0000
0010
0100
0000
1000
0000
0100
0010
0000
1000
0100
0000
,  // measure 6
0110
0000
0010
0001
0000
0100
0010
0000
1000
0000
0001
0010
0000
0100
1000
0000
,  // measure 7
0000
1001
0010
0100
,  // measure 8
0001
0010
0100
1000
,  // measure 9
0010
0100
1000
0001
,  // measure 10
0010
1000
0001
0010
,  // measure 11
0100
1000
0100
0000
0010
0000
0001
0000
,  // measure 12
0100
1000
0100
0001
,  // measure 13
0010
0100
1000
0010
,  // measure 14
0100
0000
0001
0000
0010
0000
0100
0001
,  // measure 15
1000
0010
0001
0000
0100
0000
0010
0000
,  // measure 16
1000
0100
1000
0001
,  // measure 17
0100
1000
0100
0001
,  // measure 18
0010
0100
1000
0010
,  // measure 19
0100
0001
0100
0000
0010
0000
1000
0000
,  // measure 20
0100
0001
0100
1000
,  // measure 21
0010
0100
0001
0010
,  // measure 22
0100
0101
0110
1100
,  // measure 23
0010
0000
0100
0001
0000
0100
0001
1000
,  // measure 24
0100
0000
0010
0001
0000
0100
0010
0000
,  // measure 25
1000
0000
0100
1000
0000
0010
0100
0001
,  // measure 26
0010
0000
0001
0100
0000
0010
1000
0000
,  // measure 27
0100
0000
1000
0001
0000
0100
0010
0100
,  // measure 28
1000
0000
0100
0001
0000
1000
0100
0000
,  // measure 29
0010
0000
0001
0100
0000
1000
0100
0001
,  // measure 30
0010
0000
0100
1000
0001
0100
1000
0100
,  // measure 31
0010
0000
1000
0100
0000
1000
0001
0100
,  // measure 32
0010
0000
1000
0100
0000
0010
0001
0000
,  // measure 33
0100
0000
0010
1000
0000
0100
0001
0100
,  // measure 34
1000
0000
0010
1000
0000
0100
0010
0000
,  // measure 35
0011
0100
0010
1100
,  // measure 36
0010
0101
0010
1000
,  // measure 37
1001
0011
1100
1001
,  // measure 38
0001
0000
0100
0000
0010
1000
0010
0100
,  // measure 39
0001
0000
0010
0000
0100
0000
1000
0001
,  // measure 40
0100
0000
0010
0000
1000
0100
0001
0100
,  // measure 41
0010
0000
0001
0000
0100
0000
0010
1000
,  // measure 42
0100
0000
1000
0000
0001
0100
1000
0001
,  // measure 43
0010
0000
1000
0000
0100
0000
0010
0001
,  // measure 44
0100
0000
0010
0100
0001
0010
0100
1000
,  // measure 45
1001
0000
0010
0100
0010
0100
0010
1000
,  // measure 46
0100
1000
0001
0100
0010
0100
0001
0000
,  // measure 47
0010
0000
0100
0000
1000
0000
0010
0100
,  // measure 48
0010
1000
0100
1000
0010
0100
0001
0000
,  // measure 49
0010
0000
0100
0000
1000
0100
0010
0001
,  // measure 50
0010
0000
0110
0000
0110
0000
0100
1000
,  // measure 51
0001
0100
0010
1000
0001
0010
0011
0000
,  // measure 52
0001
0010
0000
0110
0000
1100
0000
1001
,  // measure 53
0000
0101
0000
0110
0000
1010
0000
1000
,  // measure 54
0010
1000
0000
0011
0000
1100
0000
0101
,  // measure 55
0000
0110
0000
1001
0000
0011
0000
0100
,  // measure 56
1000
0010
0000
1100
0000
1001
0000
0101
,  // measure 57
0000
1010
0000
1001
0000
0011
0000
0100
,  // measure 58
1000
0100
0000
1100
0000
0011
0000
0101
,  // measure 59
0000
0110
0000
1000
0001
0000
0010
0100
,  // measure 60
0000
1100
0000
1100
0000
0011
0000
0011
,  // measure 61
0000
1100
0000
1100
0000
0001
0100
0101
,  // measure 62
0000
0101
0000
1010
0000
1010
0000
0110
,  // measure 63
0000
0110
0000
2002
0000
3000
1003
1100
,  // measure 64
0000
0011
0000
0101
0000
1000
0001
0100
,  // measure 65
0010
0100
1000
0100
0001
0010
1000
0010
,  // measure 66
0100
1000
1001
0000
0010
0100
0110
0000
,  // measure 67
0010
1000
0100
1000
,  // measure 68
0010
0100
0001
0100
,  // measure 69
0010
1000
0001
0010
,  // measure 70
0100
0000
1000
0000
0001
0000
0100
1000
,  // measure 71
0100
0010
1000
0100
,  // measure 72
0010
0100
1000
0010
,  // measure 73
0100
0001
0010
0100
,  // measure 74
1000
0000
0001
0000
0100
1000
0100
0001
,  // measure 75
0100
0010
1000
0100
,  // measure 76
0010
0100
1000
0001
,  // measure 77
0100
0010
0100
0001
,  // measure 78
1000
0000
0100
0000
0010
0000
0001
1000
,  // measure 79
0010
0001
1000
0100
,  // measure 80
0001
0010
0100
1000
,  // measure 81
1000
0100
0001
0100
0010
0001
1000
0010
,  // measure 82
0110
0000
0000
0101
0000
0000
1010
0000
,  // measure 83
1001
0000
0001
0100
1000
0100
0010
0000
,  // measure 84
1000
0000
0100
0010
0001
0010
0100
0000
,  // measure 85
1000
0100
0001
0100
0010
0100
1000
0100
,  // measure 86
0010
0001
0010
1000
0010
0100
0010
0001
,  // measure 87
0100
1000
0100
0010
0100
0001
0100
1000
,  // measure 88
0100
0010
1000
0010
0100
0010
0001
0010
,  // measure 89
0100
0001
0100
1000
0100
0010
0100
0001
,  // measure 90
1000
0100
0010
0100
1000
0001
0100
0010
,  // measure 91
1010
0100
0101
0010
,  // measure 92
1100
0000
0001
0100
0011
0000
0100
0000
,  // measure 93
1010
0001
1100
0010
,  // measure 94
0110
0000
0010
0100
1001
0000
0100
0000
,  // measure 95
0011
1100
0011
0101
,  // measure 96
1010
0000
0110
0100
1001
0000
0100
0000
,  // measure 97
0011
0001
0101
0100
0110
0010
1010
1000
,  // measure 98
1001
1100
0010
0100
,  // measure 99
0001
0100
1000
0100
,  // measure 100
0010
1000
0001
0010
,  // measure 101
0100
1000
0010
0100
,  // measure 102
0001
0101
0101
1010
,  // measure 103
1010
0011
0011
1100
,  // measure 104
1100
1001
1001
0110
,  // measure 105
0110
0101
1010
1001
,  // measure 106
0101
0100
0001
0010
,  // measure 107
0100
1000
0001
0100
,  // measure 108
0010
0100
0001
0010
,  // measure 109
0100
1000
0001
0010
,  // measure 110
0100
0110
0110
1001
,  // measure 111
1001
0011
0011
1100
,  // measure 112
1100
0000
0001
0100
0000
0110
0000
1010
,  // measure 113
0000
0011
0100
0000
2000
0000
0000
0000
,  // measure 114
0000
0000
3001
0000
0100
1000
0000
0100
,  // measure 115
0001
0000
0010
0100
0010
0000
0001
0010
,  // measure 116
0001
0100
0010
0000
1000
0100
0000
1000
,  // measure 117
0001
0000
0100
0010
0100
0000
1000
0100
,  // measure 118
0001
0010
0100
0000
1000
0001
0000
0100
,  // measure 119
0010
0000
1000
0100
0001
0000
0001
0100
,  // measure 120
1000
0001
0100
0000
0010
1000
0000
0010
,  // measure 121
0100
0000
0001
0010
1000
0000
0001
0100
,  // measure 122
1000
0010
0110
0000
0100
0001
0000
1000
,  // measure 123
0100
0000
0010
0001
0100
0000
0010
1000
,  // measure 124
0010
1000
1001
0000
0100
0010
0000
0001
,  // measure 125
0100
0000
0010
0001
0010
0000
0100
0001
,  // measure 126
0100
0001
0202
0000
0303
0000
0001
1000
,  // measure 127
0100
0000
0010
0001
1000
0000
0010
0100
,  // measure 128
0001
1000
0100
0001
0100
0010
0001
0100
,  // measure 129
1000
0100
0010
1000
0001
0010
0001
0010
,  // measure 130
0100
1000
0002
0000
0000
0000
0103
0010
,  // measure 131
0000
0100
1001
0000
0100
0010
0001
0100
,  // measure 132
0000
1000
0100
0000
0001
0010
0100
1000
,  // measure 133
0000
0001
0101
0000
0100
1000
0100
0010
,  // measure 134
0000
1000
0001
0000
0010
0000
0110
0000
;
