#TITLE:wither garden;
#SUBTITLE:;
#ARTIST:uma feat. Kanon Tachibana;
#TITLETRANSLIT:;
#SUBTITLETRANSLIT:;
#ARTISTTRANSLIT:;
#GENRE:;
#CREDIT:;
#BANNER:;
#BACKGROUND:;
#LYRICSPATH:;
#CDTITLE:;
#MUSIC:wither garden.mp3;
#OFFSET:-0.032500;
#SAMPLESTART:99.982803;
#SAMPLELENGTH:12.000000;
#SELECTABLE:YES;
#BPMS:0.000000=168.000000
,236.000000=84.000000
,240.000000=168.000000
,328.000000=84.000000
;
#STOPS:
;
#BGCHANGES:;
#KEYSOUNDS:;
#ATTACKS:;

//---------------dance-single - ----------------
#NOTES:
     dance-single:
     :
     Hard:
     15:
     0.818585,0.851590,0.477508,0.304617,0.584535,696.000000,638.000000,58.000000,37.000000,0.000000,0.000000,0.818585,0.851590,0.477508,0.304617,0.584535,696.000000,638.000000,58.000000,37.000000,0.000000,0.000000:
0000
0000
0000
0000
,
0000
0000
0000
0000
,
0000
0000
0000
0000
,
0000
0000
0000
0000
,
0000
0000
0000
0000
,
1000
0010
0100
0001
1000
0001
0010
0100
,
1000
0010
0100
0001
1000
0100
0010
0100
,
1000
0001
0100
0010
0100
1000
0100
0001
,
0020
0000
0000
0000
0030
0000
0100
0000
1000
0001
0000
0001
1000
0000
0010
0100
,
0001
0000
0000
0000
1000
0000
0010
0000
0100
0000
0001
0010
0000
0010
0001
0000
,
0100
0010
0100
0000
0010
0000
1000
0000
0100
0000
0000
0110
0000
0000
0010
0001
,
0100
0001
0100
0000
0010
0000
1000
0000
0100
0000
1000
0010
1000
0010
1000
0000
,
1100
0000
0000
0101
0000
0000
1100
0000
1020
0000
0000
0000
0130
0000
0000
0000
,
0100
0000
0001
0000
0010
0000
0100
0000
1000
0000
0010
1000
0000
1000
0010
0000
,
0100
0010
0100
0000
0001
0000
0010
0000
0100
0000
1000
0010
1000
0000
0001
0000
,
0101
0000
0000
0000
0022
0000
0033
0000
0001
0010
0001
0010
0100
1000
0100
1000
,
0010
0000
0000
0100
0000
0000
0010
0000
2002
0000
3003
0000
1000
0000
0100
0000
,
0010
0000
0100
1000
0001
0000
0100
0001
,
0010
0000
0100
0010
0001
0000
0100
0010
,
1010
1001
0101
0011
,
0110
0000
0010
0100
1000
0000
1000
0010
,
0100
0000
0100
0010
0001
0000
0001
0010
,
1000
0100
0010
0001
0100
0000
0100
0001
,
0010
0011
1001
1010
,
1200
0000
0000
0000
0000
0000
0010
0000
0310
0000
0000
0000
0010
0001
0010
0001
,
0100
0000
0000
0000
0110
0000
0000
0000
1010
0000
0000
0000
1000
0001
1000
0001
,
0100
0000
0010
0010
1000
0100
0110
0000
,
1001
0000
0001
0000
0100
0000
0010
1000
,
1010
0000
0000
0000
1000
0000
0010
0000
0110
0000
0100
0001
0100
0000
0001
0000
,
0010
0000
0100
0000
1000
0010
0100
0000
0001
0000
1000
0000
0001
0100
0010
0000
,
0100
0000
0001
0000
0010
0100
1000
0000
0010
0000
0100
0000
0001
0000
0001
0000
,
1001
1010
0101
0011
,
2100
0000
0000
0000
3000
0000
0100
0010
0001
0000
0000
0000
0100
0001
0100
0001
,
0020
0000
0230
0000
0302
0000
0103
1000
,
0010
0100
0010
0000
1000
0000
0001
0000
0010
0100
0010
0000
0001
0000
1000
0000
,
0001
0100
0001
0000
1000
0000
0100
0000
0010
0100
1000
0000
0010
0100
0010
0100
,
0002
0000
0003
0000
1000
0000
0010
0100
0020
0000
0030
0000
1000
0000
0100
1000
,
0100
0000
0010
0001
0100
0000
0001
0000
1000
0010
1000
0010
0200
0000
0300
0000
,
0001
0010
0001
0000
0100
0000
0010
0000
1000
0100
1000
0000
0010
0000
0100
0000
,
0001
0100
0001
0000
0010
0000
0100
0000
0010
0000
0001
0010
0000
0100
1000
0000
,
0010
0000
0000
0000
0100
0000
0001
0000
1001
0000
1000
0010
0000
0010
0100
0000
,
0101
0000
0001
1000
0000
1000
0100
0000
0110
0000
0000
0000
1001
0000
0000
0000
,
1000
1000
0100
0100
0010
0010
0001
0001
,
0100
0001
0010
0100
1000
0010
0100
0000
,
0001
0001
1000
1000
0010
0010
0100
0100
,
0010
1000
0100
0010
0100
0001
0100
0010
,
0001
0010
0001
0000
0100
0001
0100
0000
0001
1000
0001
0000
0100
0001
0100
0000
,
0001
0010
0001
0000
1000
0001
1000
0000
0001
0100
0010
0100
0002
0000
0003
0000
,
1000
0100
1000
0000
0010
1000
0010
0000
1000
0001
1000
0000
0010
1000
0010
0000
,
0100
0000
0010
0000
1000
0000
0100
1000
0100
0010
0000
0100
0010
0001
0100
0010
,
2000
0000
0000
0000
0100
0000
0000
0000
3010
0000
0000
0000
1000
0010
1000
0010
,
0200
0000
0001
0000
0310
0000
0110
0001
,
2002
0000
3003
0000
0100
0000
0010
0000
1000
0000
0000
0000
0101
0000
0001
1000
,
0100
0000
0010
0000
0001
0000
0100
0010
0100
0000
0001
0000
0010
0000
0100
0000
,
0010
0001
0100
0010
0001
0010
0100
0001
0010
0100
0000
0000
,
1000
0000
0100
0000
0010
0000
0100
0000
1000
0000
0010
0000
0100
0000
1000
0000
0100
0000
0010
0000
0000
2000
0000
0000
,
3000
0001
0100
0010
0001
0010
0100
0001
,
2000
0000
0000
0000
0000
0000
0100
0000
3001
0000
0000
0000
0001
0100
0001
0100
,
0002
0000
0023
0000
2030
0000
3010
0001
,
0101
0000
0100
0000
0010
0000
0010
0000
1000
0000
1000
0000
0100
0010
0100
0010
,
0001
0000
0100
0000
0010
0000
1000
0001
1000
0000
0100
0000
0010
0000
0100
0010
,
0001
0000
0100
0001
0010
0000
0100
0000
1000
0010
1000
0010
0200
0000
0300
0000
,
0010
1000
0010
0000
0100
0000
0001
0000
0010
0100
0010
0000
0001
0000
0100
0000
,
0010
1000
0100
0000
0010
0001
0100
0000
0001
0000
0010
0100
0010
0000
0100
0000
,
2000
0000
3000
0000
1010
0000
0010
0100
0001
0000
0000
0011
0000
0000
1001
0000
,
1000
0010
0000
0100
0001
0000
1000
0000
0100
0010
0001
0000
0101
0000
0000
0000
,
1000
0010
1000
0000
0001
0100
0001
0000
0010
0100
0010
0000
0001
0000
0100
0000
,
0010
0000
1000
0010
0100
0000
0001
0000
1000
0000
0000
0000
1010
0000
0000
0000
,
0010
0100
0001
0000
1000
0100
0010
0000
0100
1000
0010
0000
0100
0000
0001
0000
,
0010
0100
0010
0000
0001
0100
0010
0000
1000
0010
0100
0001
0020
0000
0030
0000
,
0001
0010
0100
0000
1000
0100
0010
0000
0100
1000
0010
0000
0001
0000
0010
0000
,
0100
0000
0001
0010
0100
0000
1000
0000
0100
0000
0010
0000
0001
0000
0100
1000
,
0200
0000
0000
0000
0300
0000
0010
1000
0100
0000
0000
0010
0000
0000
0001
0000
,
0102
0000
0003
1000
2010
3000
0110
0000
,
1001
0000
0001
0000
0100
0000
0010
0000
1000
0000
0000
0100
0000
0000
0110
0000
,
0010
0001
0010
0000
0001
0000
0100
0000
0110
0000
0000
1001
0000
0000
0001
0100
,
0001
0100
0001
0000
0010
0000
0100
0000
1000
0000
0010
1000
0010
1000
0100
0000
,
1100
0000
0000
0110
0000
0000
0011
0000
1001
0000
0000
0000
0220
0000
0330
0000
,
1000
0100
1000
0000
0010
0000
0100
0000
0001
0000
0010
0100
0000
0010
1000
0000
,
0010
0100
0010
0000
0001
0000
0100
0000
0010
0000
0001
0010
0100
0000
0010
0000
,
1010
0000
0000
0000
2200
0000
3300
0000
1000
0010
1000
0010
0100
0001
0100
0001
,
0010
0000
0000
0011
0000
0000
1001
0000
2200
0000
3300
0000
1000
0100
0010
0001
,
0020
0000
0000
0030
;

//---------------dance-single - ----------------
#NOTES:
     dance-single:
     :
     Medium:
     11:
     0.638637,0.708852,0.370480,0.123493,0.139959,543.000000,498.000000,45.000000,15.000000,0.000000,0.000000,0.638637,0.708852,0.370480,0.123493,0.139959,543.000000,498.000000,45.000000,15.000000,0.000000,0.000000:
0000
0000
0000
0000
,
0000
0000
0000
0000
,
0000
0000
0000
0000
,
0000
0000
0000
0000
,
0000
0000
0000
0000
,
0001
0001
1000
0010
0100
0001
1000
0100
,
0010
0100
1000
0010
0100
0001
0010
0100
,
1000
0001
0100
0010
1000
0010
0100
0001
,
0010
0100
1000
0010
0100
0001
0100
0010
,
1010
0000
0000
0000
1000
0000
1000
0000
0010
0000
0000
0100
0000
0000
0001
0000
,
0010
0000
0100
0000
0010
0000
0001
0000
0011
0000
0000
1100
0000
0000
1000
0100
,
1000
0000
0010
0000
0100
0000
0001
0000
0011
0000
0000
0100
0000
0000
1010
0000
,
1001
0000
0000
0100
0000
0000
1001
0000
0020
0000
0000
0000
0130
0000
0000
0000
,
1000
0000
0010
0000
0100
0000
0010
0000
1000
0000
0000
0001
0000
0000
0010
0000
,
0100
0000
0010
0000
0100
0000
1000
0000
0010
0000
0100
0010
0100
0000
0001
0000
,
0010
0000
0000
0000
0011
0000
0000
0000
0001
0100
0001
0000
1000
0100
1000
0000
,
0010
0000
0000
0100
0000
0000
0010
0000
1000
0000
0000
0000
0100
0000
1000
0000
,
0010
0000
1000
0001
0100
0000
0001
0010
,
0100
0000
0010
0001
0100
0000
0010
1000
,
0100
0110
0010
0011
,
0001
0000
1000
0010
0100
0000
0010
1000
,
0100
0000
0010
0100
1000
0000
0100
0010
,
0001
0000
0010
0100
0001
0000
0100
1000
,
0010
1010
0100
0101
,
2002
0000
3003
0110
0220
0330
0010
0100
,
0001
1100
0010
0011
,
0001
0000
0100
0010
1000
0010
0100
0000
,
0001
0011
1000
1100
,
0110
0000
0010
0100
1000
0100
0010
0000
,
0001
0000
0100
0010
0100
0000
0001
0000
,
1000
0100
0010
0100
1000
0010
0100
0100
,
0001
0011
1000
1100
,
2020
0000
3030
0100
0101
0000
0001
0010
,
0100
0000
0010
0000
0001
0000
0100
0010
,
1000
0100
0010
0001
1000
0100
0010
0001
,
1000
0010
0100
0001
1000
0010
0100
0001
,
0010
0000
0100
0010
0001
0000
1000
0100
,
0010
0000
0000
0010
0000
0000
0010
0000
0100
0000
1000
0000
1001
0000
0000
0000
,
0001
0100
0010
1000
0001
0100
0010
1000
,
0001
0010
0100
1000
0001
0100
0001
0010
,
0100
0000
0000
0000
1000
0000
0010
0000
1000
0000
0000
0100
0000
0000
0010
0000
,
1000
0000
0000
0010
0000
0000
0001
0000
0100
0000
0000
0000
0110
0000
0000
0000
,
2000
0010
0001
0100
,
0001
0010
3100
1100
,
0012
0100
1000
0010
,
0100
0000
0013
0000
0010
0001
0100
0010
,
1000
0100
0010
0100
0001
0100
0010
0100
,
1000
0100
0010
0100
1000
0010
0100
0000
,
0001
0100
0010
0100
1000
0100
0010
0100
,
0001
1000
0001
0100
0010
0100
0001
1000
,
0100
0000
0000
0000
1100
0000
0000
0000
1000
0000
0000
0000
0010
0100
0010
0000
,
0100
0000
0101
0000
0001
0000
0011
0001
,
0100
0000
0110
0000
0010
0000
1000
0100
,
1000
0000
0010
0100
0001
1000
0001
1000
,
0001
0010
0000
0001
0100
0000
0001
1000
0000
1100
0000
0000
,
1000
0000
0000
0000
0010
0000
0000
0000
0000
0000
0000
0000
1000
0000
0000
0000
0001
0000
0000
0000
0000
0000
0000
0000
1000
0000
0000
0100
0000
0000
1000
0000
0000
0000
0000
0000
0010
0000
0000
0000
0000
0000
0200
0000
0000
0000
0000
0000
,
0300
0001
0100
0001
0010
0001
0100
0010
,
2000
0000
0000
0000
3100
0000
0100
0010
,
0100
0000
1000
0000
0010
0000
0001
0010
,
1000
0000
1100
0000
0001
0000
0101
0100
,
0010
1000
0100
1000
0001
0100
0001
0010
,
0100
0010
0001
0100
0010
1000
0100
0000
,
1000
0010
0100
0001
0010
0100
1000
0001
,
0100
0010
1000
0100
0010
0001
0100
0010
,
1000
0000
0000
0000
0001
0000
0100
0000
0001
0000
0000
0010
0000
0000
0001
0000
,
1000
0000
0000
0100
0000
0000
0010
0000
0001
0000
0000
0000
1001
0000
0000
0000
,
1000
0100
0010
0001
0100
0010
0001
0010
,
0100
0010
1000
0100
0010
0001
0100
0000
,
0001
0100
0010
0100
1000
0100
0010
1000
,
0010
0100
0001
0010
0100
0000
1100
0000
,
1000
0010
0100
0001
1000
0100
0001
0100
,
0010
0001
0100
0010
1000
0010
0001
0010
,
0200
0000
0000
0000
0300
0000
0010
0000
1000
0000
0000
0100
0000
0000
0010
0000
,
0002
0000
0000
0010
0200
0303
0101
0000
,
1000
0000
0000
0000
0010
0000
0100
0000
0010
0000
0000
1000
0000
0000
0100
0000
,
0010
0000
0010
0000
0100
0000
1000
0000
0001
0000
0000
1001
0000
0000
1000
0000
,
0100
0100
0010
0100
1000
0010
0100
0001
,
0011
0000
0000
1001
0000
0000
1100
0000
0110
0000
0000
0000
1001
0000
0000
0000
,
1000
0000
0010
0000
0100
0000
0001
0000
0010
0000
0100
0010
0000
0000
0010
0000
,
0001
0100
0001
0000
1000
0000
0010
0000
0100
0000
0010
0100
0000
0000
0100
0000
,
0010
0000
0000
0000
1010
0000
0000
0000
1000
0100
1000
0000
0001
0100
0001
0000
,
0010
0000
0000
0100
0000
0000
1000
0000
0200
0000
0300
0000
0010
0001
0010
0001
,
1000
0000
0000
0000
;

//---------------dance-single - ----------------
#NOTES:
     dance-single:
     :
     Easy:
     8:
     0.451633,0.506323,0.123493,0.131726,0.045281,384.000000,369.000000,15.000000,16.000000,0.000000,0.000000,0.451633,0.506323,0.123493,0.131726,0.045281,384.000000,369.000000,15.000000,16.000000,0.000000,0.000000:
0000
0000
0000
0000
,
0000
0000
0000
0000
,
0000
0000
0000
0000
,
0000
0000
0000
0000
,
0000
0000
0000
0000
,
1000
0000
0010
0000
,
0100
0000
0001
0000
,
0010
0000
0001
0000
,
0101
0000
1000
1000
,
0010
0000
0010
0000
0100
0000
0001
0001
,
1000
0000
0100
0000
0010
0001
0000
0000
,
0001
0100
0001
1000
,
0100
0000
0000
0100
0000
0000
0100
0000
0020
0000
0000
0000
0030
0000
0000
0000
,
0010
0000
0001
0000
1000
0100
1000
0000
,
0001
0100
0001
0000
1000
0000
0010
0000
,
0100
0000
0110
0000
0010
1000
0010
0000
,
0100
0100
2002
3003
,
0001
0100
0001
0010
,
0100
1000
0010
1000
,
0100
0100
0010
0010
,
0002
0000
0003
1000
2000
0000
3000
0010
,
0100
0100
0001
0001
,
1000
0010
0100
0001
0010
0000
0100
0000
,
1000
0010
0100
0001
,
0010
0000
0000
0100
0100
0000
1001
0000
,
1000
0000
0010
0000
0100
0000
0001
0010
,
0001
0000
0100
0000
0010
0000
1000
0100
,
0010
0000
0100
0000
1000
0000
0001
0100
,
0001
1000
0010
0100
,
0001
0100
0001
0000
1000
0100
1000
0000
,
0001
0010
0001
0000
1000
0010
1000
0000
,
0100
0100
0010
0010
,
0002
0000
0000
0000
1003
0000
1000
1000
,
0100
1000
0010
0100
,
0001
0000
0100
0010
1000
0000
0010
0100
,
0001
0000
1000
0100
0010
0000
0100
0010
,
0002
0000
0003
1000
0020
0000
0030
0100
,
0010
0000
1000
0001
0001
0000
1001
0000
,
0010
0000
1000
0100
0010
0000
0001
0100
,
0010
0000
1000
0010
0100
0000
0001
0100
,
0020
0000
0000
0000
0030
0000
1000
0000
0100
0000
0000
0100
0000
0000
0100
0000
,
0010
0000
0000
0010
0000
0000
0010
0000
0001
0000
0000
0000
1001
0000
0000
0000
,
2000
0000
0100
0000
,
0000
0000
3100
1100
,
0102
0000
0100
0003
,
0021
0000
0030
0100
1000
0010
1000
0010
,
0100
0001
0100
0000
0010
1000
0010
0000
,
0100
0000
0001
0000
0010
0100
1000
0000
,
0001
0100
0010
0000
1000
0100
1000
0000
,
0010
0000
0100
0000
0001
0000
0010
0100
,
1000
0000
1000
0000
1000
0000
0001
0100
,
0010
0000
0010
0000
0010
0000
0010
0100
,
0001
0000
1000
0000
0010
0000
0100
0001
,
0010
0000
0100
0010
0001
0000
0100
0000
,
0010
1000
0010
0000
1000
0010
1000
0000
,
0001
0010
0001
0000
0010
0001
0100
0000
,
0010
0000
1000
0000
0100
0100
0010
0010
,
0002
0000
0000
0000
1003
0000
1000
0010
,
0100
0010
1000
0100
,
0020
0000
0000
0000
0000
0000
0031
0001
,
0100
0000
0010
1000
0100
0000
1000
0010
,
0100
0001
1000
0001
0100
0000
0010
0000
,
1000
0000
0001
0100
0010
0000
1000
0100
,
0010
0000
0100
0000
1000
0001
0100
0010
,
0100
0000
0000
0000
0000
0000
0001
0000
1000
0000
0000
1000
0000
0000
1000
0000
,
0100
0000
0000
0100
0000
0000
0100
0000
0010
0000
0000
0000
0110
0000
0000
0000
,
0010
0000
0001
0000
0100
0000
0010
1000
,
0100
0000
1000
0010
0100
0000
0001
0000
,
0010
0000
0100
0000
1000
0000
0010
0100
,
0001
0000
0010
0001
0100
0000
0010
0000
,
1000
0000
0100
0000
0010
0000
0100
1000
,
0001
0000
0100
0001
0010
0000
0100
1000
,
0010
0000
0000
0000
0000
0000
0100
0000
0001
0000
0000
0010
0000
0000
0100
0000
,
0200
0000
0000
1000
1300
0000
1100
0000
,
1000
0000
0000
0000
0010
0000
0100
0000
0001
0000
0000
0010
0000
0000
0001
0000
,
0000
0000
0100
0000
0010
0000
0010
0000
1000
0000
0000
1100
0000
0000
0000
0000
,
1000
0000
0100
0010
0001
0000
0100
0010
,
1000
0000
0000
1000
0000
0000
1000
0000
0001
0000
0000
0000
0110
0000
0000
0000
,
0010
0000
0000
0000
1000
0000
0010
0000
0100
0000
0000
0001
0000
0000
0100
0000
,
0010
0010
1000
0001
0010
0000
0100
1000
,
0010
0000
1010
0000
1000
0001
1000
0001
,
0100
0000
0000
0010
0000
0000
0010
0000
2000
0000
3000
0000
0001
0000
0001
0000
,
0110
0000
0000
0000
;
