#VERSION:0.83;
#TITLE:winkle 2 winkle;
#SUBTITLE:;
#ARTIST:Ryu☆ ft.NU-KO;
#TITLETRANSLIT:;
#SUBTITLETRANSLIT:;
#ARTISTTRANSLIT:;
#GENRE:;
#CREDIT:;
#MUSIC:winkle 2 winkle.ogg;
#BANNER:banner.png;
#BACKGROUND:background.png;
#CDTITLE:;
#SAMPLESTART:16.830;
#SAMPLELENGTH:20.000;
#SELECTABLE:YES;
#OFFSET:-1.404;
#BPMS:0.000=171.000
,43.000=342.000
,43.667=85.500
,44.000=171.000
,183.000=342.000
,183.667=85.500
,184.000=171.000
,259.000=342.000
,259.667=85.500
,260.000=171.000
,323.000=342.000
,323.667=85.500
,324.000=171.000
;
#STOPS:;
#SPEEDS:0.000=1.000=0.000=0;
#SCROLLS:0.000=1.000;
#TICKCOUNTS:0.000=4;
#TIMESIGNATURES:0.000=4=4;
#LABELS:0.000=Song Start;
#COMBOS:0.000=1;
#DISPLAYBPM:171.000;
#ORIGIN:;
#PREVIEWVID:;
#JACKET:jacket.png;
#CDIMAGE:;
#DISCIMAGE:;
#BGCHANGES:;
#FGCHANGES:;

//--------------- dance-single - ----------------
#NOTEDATA:;
#STEPSTYPE:dance-single;
#DESCRIPTION:;
#DIFFICULTY:Beginner;
#METER:5;
#RADARVALUES:0.19066,0.236479,0,0.150145,0,160,160,0,18,0,0,0,0,0,0.19066,0.236479,0,0.150145,0,160,160,0,18,0,0,0,0,0;
#DISPLAYBPM:171.000;
#CHARTNAME:;
#CHARTSTYLE:;
#CREDIT:ZSL;
#NOTES:
0000
0000
0000
0000
,
0000
0000
0000
0000
,
0000
0000
0000
0000
,
0000
0000
0000
0000
,
0000
0000
0000
0000
,
1000
0000
0001
0000
,
0010
0000
0100
0000
,
1000
0000
0001
0000
,
0100
0000
0010
0000
,
1000
0000
0000
0000
,
0002
0000
0000
0000
,
0003
0000
0010
0000
,
0100
1000
0100
0000
,
0010
0000
0001
0000
,
0100
0010
1000
0000
,
0010
0000
0100
0000
,
0001
1000
0001
0000
,
0010
0000
0100
0000
,
1000
0001
0100
0010
,
2000
3000
0100
0000
,
0020
0030
0100
0000
,
0020
0030
0001
0000
,
2000
3000
0010
0000
,
0200
0300
0010
0000
,
0200
0300
0001
0000
,
2000
3000
0001
0000
,
0010
0000
0000
0000
,
0200
0300
1000
0010
,
0200
0300
0010
1000
,
0002
0003
0010
0100
,
2000
3000
0001
0100
,
0020
0030
1000
0100
,
0020
0030
0001
0100
,
0020
0030
0100
0001
,
0000
0000
0000
0000
,
1000
0000
0010
0000
,
0100
0000
0000
0000
,
0001
0000
0010
0000
,
0100
0000
0000
0000
,
1000
0000
0001
0000
,
0100
0000
0000
0000
,
0010
0000
1000
0000
,
0100
0000
0010
0000
,
0000
0000
0000
0000
,
0000
0000
0000
0000
,
0002
0000
0000
0000
,
0003
0000
0100
0000
,
0010
0000
1000
0000
,
0010
0000
0100
0000
,
0001
0000
0100
0000
,
0001
0000
1000
0000
,
0100
0000
0010
0000
,
0100
0000
1000
0000
,
0001
0000
1000
0000
,
0010
0000
0100
0000
,
0010
0000
1000
0000
,
0001
0000
0010
0000
,
0100
0000
1000
0000
,
0010
0100
0010
0000
,
1000
0001
1000
0000
,
0100
0010
0100
0000
,
0010
0001
1000
0010
,
0000
0000
0000
0000
,
0000
0000
0000
0000
,
0200
0000
0000
0000
,
0300
0000
0010
0000
,
1000
0001
0010
0000
,
0001
0000
0010
0000
,
0100
1000
0001
0000
,
0100
0000
0010
0000
,
0100
0001
1000
0000
,
0100
0000
0010
0000
,
0100
1000
0001
0100
,
0010
0000
1000
0000
,
0100
0010
0001
1000
,
0010
0000
0100
0000
,
0010
1000
0100
0000
,
0010
0000
0001
0000
,
0100
0010
1000
0001
,
0010
0000
0100
0000
,
0010
0001
0100
0020
,
0030
0000
0000
0000
;

//--------------- dance-single - ----------------
#NOTEDATA:;
#STEPSTYPE:dance-single;
#DESCRIPTION:;
#DIFFICULTY:Easy;
#METER:7;
#RADARVALUES:0.284799,0.304044,0,0.150145,0,239,239,0,18,0,0,0,0,0,0.284799,0.304044,0,0.150145,0,239,239,0,18,0,0,0,0,0;
#DISPLAYBPM:171.000;
#CHARTNAME:;
#CHARTSTYLE:;
#CREDIT:ZSL;
#NOTES:
0000
0000
0000
0000
,
0000
0000
0000
0000
,
0000
0000
0000
0000
,
0000
0000
0000
0000
,
0000
0000
0000
0000
,
1000
0000
0010
0000
,
0100
0001
0010
0100
,
1000
0000
0100
0000
,
0010
0001
0100
0010
,
0000
0000
0000
0000
,
2000
0000
0000
3001
,
0100
0001
1000
0100
,
0010
0100
1000
0001
,
0100
0010
0100
0001
,
0010
0100
1000
0000
,
0100
0010
0001
0100
,
0010
0100
0001
1000
,
0100
0010
0100
1000
,
0010
0100
0001
1000
,
0002
0003
1000
0010
,
0200
0300
0001
0100
,
0020
0030
1000
0001
,
0020
0030
0100
1000
,
0002
0003
0010
0001
,
0200
0300
0010
1000
,
0200
0300
0010
0001
,
0000
0000
0000
0000
,
0020
0031
0010
0100
,
2000
3001
1000
0001
,
0200
0310
0100
0001
,
0020
0130
1000
0010
,
0200
0301
0100
0010
,
2000
3100
0010
0100
,
2000
3001
1000
0010
,
0000
0000
0000
0000
,
0100
0000
0010
0000
,
0100
0001
1000
0001
,
0010
0000
0100
0000
,
0010
0001
1000
0000
,
0010
0000
1000
0000
,
0010
0100
0001
1000
,
0100
0000
0010
0000
,
0100
1000
0010
0100
,
0000
0000
0000
0000
,
0000
0000
0000
0000
,
0020
0000
0000
1030
,
0010
1000
0001
0000
,
0010
0001
1000
0000
,
0010
1000
0100
1000
,
0100
0010
0001
0000
,
0010
0001
1000
0000
,
0010
1000
0001
0000
,
0010
0001
0100
0001
,
0100
0010
1000
0000
,
0001
0010
0100
0000
,
1000
0100
0010
0000
,
0001
0100
0010
1000
,
0100
0010
0001
0000
,
1000
0010
1000
0010
,
0100
0001
0100
0001
,
0010
0001
0100
0010
,
1000
0100
0010
0001
,
0000
0000
0000
0000
,
0000
0000
0000
0000
,
2000
0000
0000
3001
,
1000
0010
0100
0001
,
1000
0100
0010
0100
,
1000
0010
0100
0001
,
0010
0001
1000
0000
,
0001
0010
0100
1000
,
0001
0100
0010
0100
,
0001
0010
0100
1000
,
0010
1000
0001
0001
,
0010
0001
0100
0001
,
0010
0100
1000
0001
,
0100
0001
0010
0001
,
0100
0010
1000
0000
,
0010
1000
0100
1000
,
0010
0100
0001
1000
,
0100
1000
0010
1000
,
0100
0010
0001
0200
,
0310
0000
0000
0000
;

//--------------- dance-single - ----------------
#NOTEDATA:;
#STEPSTYPE:dance-single;
#DESCRIPTION:;
#DIFFICULTY:Medium;
#METER:12;
#RADARVALUES:0.5124,0.574305,0.05839,0.091755,0.05839,430,423,7,11,0,0,0,0,0,0.5124,0.574305,0.05839,0.091755,0.05839,430,423,7,11,0,0,0,0,0;
#DISPLAYBPM:171.000;
#CHARTNAME:;
#CHARTSTYLE:;
#CREDIT:ZSL;
#NOTES:
0000
0000
0000
0000
,
0000
0000
0000
0000
,
0000
0000
0000
0000
,
0000
0000
0000
0000
,
0000
0000
0000
0000
,
1000
0001
0010
0100
,
1000
0001
1000
0000
0010
0100
0010
0000
,
0100
0001
0010
0100
,
1000
0000
0001
0000
0100
0001
0100
0000
,
0000
0010
0000
0010
0000
1000
0001
2000
,
0000
0000
0000
3001
,
0011
0100
1100
0001
,
0110
0000
1000
0010
0100
0001
0010
0001
,
0100
0010
1010
0001
,
1000
0100
0010
0001
0100
0001
1000
0000
,
1010
0100
0101
1000
,
0010
1000
0010
1000
0100
0010
0001
0010
,
0100
1000
0110
0001
,
0100
0000
0010
0000
0001
0010
1000
0000
,
0002
0000
0000
0000
1003
0100
0000
0010
0000
0000
0100
0000
1000
0000
0000
0000
,
0020
0000
0000
0000
0130
0001
0000
0100
0000
0000
0010
0000
1000
0000
0000
0000
,
0002
0000
0000
0000
0013
0100
0000
1000
0000
0000
0001
0000
0100
0000
0000
0000
,
0020
0000
0000
0000
1030
0001
0000
1000
0000
0000
0010
0000
0100
0000
0000
0000
,
0020
0000
0000
0000
1030
0100
0000
1000
0000
0000
0010
0000
0100
0000
0000
0000
,
0002
0000
0000
0000
0013
0001
0000
0100
0000
0000
0001
0000
1000
0000
0000
0000
,
0200
0000
0000
0000
0310
0100
0000
1000
0000
0000
0010
0000
0100
0000
0000
0000
,
0010
0000
1000
0000
0001
0010
0100
0000
,
1000
0010
1000
0100
0010
0001
1000
0000
,
0001
0010
0001
0100
0010
1000
0001
0000
,
0100
0010
1000
0100
0010
0001
1000
0000
,
0100
0010
0001
0100
0010
1000
0001
0000
,
1000
0001
0010
0100
0001
0100
0010
0000
,
0001
1000
0010
0100
1000
0100
0010
0000
,
1000
0001
0100
0010
1000
0100
0010
0001
,
0000
1000
0000
1000
0000
0010
0100
0010
,
0100
0001
1000
0100
,
0010
0100
1000
0001
,
0100
0010
0100
0001
,
1000
0000
0001
0000
1000
0001
1000
0000
,
0010
0100
0001
1000
,
0010
0000
1000
0000
0001
0010
0001
0000
,
1000
0001
0100
0010
,
1000
0000
0100
0000
0010
0001
0010
0000
,
0000
0000
0000
0000
,
0000
0001
0000
0001
0000
1000
0010
2000
,
0000
0000
0000
3001
,
1000
0000
0100
0000
0010
0001
1000
0000
,
0001
0000
0100
0000
0010
1000
0001
0000
,
1000
0000
0100
0000
0010
0100
1000
0000
,
0001
0000
0100
0000
0010
0100
0001
0000
,
1000
0000
0001
0000
0100
0001
0010
0000
,
0001
0000
1000
0000
0100
1000
0010
0000
,
0100
0000
0010
0000
1000
0100
0010
0000
,
0100
0000
0010
0000
0001
0100
0010
0000
,
1000
0010
1000
0000
0001
0010
0001
0000
,
1000
0100
1000
0000
0001
0100
0001
0000
,
1000
0100
0010
0000
0001
0100
0010
0000
,
0100
0001
0010
0000
0100
1000
0010
0000
,
0100
0010
0100
0010
1000
0001
0010
0000
,
0100
0010
0100
0010
0001
1000
0010
0000
,
1000
0001
1000
0001
0010
0100
0010
0100
,
0001
0100
0010
0001
0100
0010
1000
0000
,
0000
0010
0000
0010
0000
0100
0001
0100
,
0000
0000
0000
0000
,
0002
0000
0000
1003
,
0100
0010
0001
0000
0010
0100
1000
0000
,
0001
0100
0001
1000
0100
0010
0001
0000
,
0100
0010
1000
0000
0010
0100
0001
0000
,
1000
0100
1000
0001
0100
0010
1000
0000
,
0001
1000
0100
0000
0010
0001
1000
0000
,
0010
0100
0010
1000
0100
0010
0001
0000
,
1000
0001
0100
0000
0010
1000
0001
0000
,
0010
0100
0010
0001
0100
0010
1000
0000
,
0001
0100
0001
0100
0010
1000
0010
1000
,
0100
0010
0001
1000
0010
0100
0001
0000
,
1000
0100
1000
0100
0010
0001
0010
0001
,
0100
0010
1000
0001
0010
0100
1000
0000
,
0010
1000
0100
1000
0001
0010
0001
0100
,
0010
1000
0001
0010
0100
0010
0001
1000
,
0100
1000
0010
1000
0001
0100
0010
0100
,
1000
0000
0100
0000
0001
1000
0200
0000
,
0310
0000
0000
0000
;

//--------------- dance-single - ----------------
#NOTEDATA:;
#STEPSTYPE:dance-single;
#DESCRIPTION:;
#DIFFICULTY:Hard;
#METER:14;
#RADARVALUES:0.679228,0.777001,0.183511,0.250242,0.275266,570,548,22,30,0,0,0,0,0,0.679228,0.777001,0.183511,0.250242,0.275266,570,548,22,30,0,0,0,0,0;
#DISPLAYBPM:171.000;
#CHARTNAME:;
#CHARTSTYLE:;
#CREDIT:ZSL;
#NOTES:
0000
0000
0000
0000
,
0000
0000
0000
0000
,
0000
0000
0000
0000
,
0000
0000
0000
0000
,
0000
0000
0000
0000
,
2001
3010
1002
0013
,
0100
1000
0001
0000
0100
0010
1000
0100
,
0110
0001
0110
1000
,
1001
0000
0001
0000
0100
0010
1000
0000
,
0000
0001
0000
0001
0000
0010
0010
0200
,
0000
0000
0000
1300
,
0100
1000
0010
1000
0100
1000
0010
1000
,
0100
0010
1000
0010
0001
0100
0010
1000
,
0100
1000
0010
1000
0100
1000
0010
0100
,
1000
0100
0001
0010
1000
0010
0001
0000
,
0100
0001
0010
0001
0100
0001
0010
0001
,
0100
0010
0001
0010
1000
0100
0010
0001
,
0100
0001
0010
0001
0100
0001
0010
0100
,
0001
0100
1000
0010
0001
1000
0100
0000
,
0002
0000
0103
0000
0010
1000
0000
0010
0000
0100
0001
0000
2000
0000
0000
0000
,
3200
0000
0310
0000
0001
0010
0000
0100
0000
1000
0100
0000
0010
0000
0000
0000
,
0002
0000
0103
0000
0010
1000
0000
0100
0000
1000
0010
0000
0200
0000
0000
0000
,
0320
0000
1030
0000
0100
0010
0000
0100
0000
1000
0010
0000
0100
0000
0000
0000
,
0002
0000
1003
0000
0100
0001
0000
0100
0000
1000
0100
0000
2000
0000
0000
0000
,
3002
0000
0103
0000
1000
0100
0000
0001
0000
0100
0010
0000
1000
0000
0000
0000
,
0002
0000
0013
0000
1000
0010
0000
0100
0000
1000
0010
0000
0200
0000
0000
0000
,
0310
1000
0001
0010
0100
1000
0001
0000
,
0200
0000
0310
0000
1000
0100
1000
0100
0010
0000
0001
0000
0012
0000
0000
0000
,
2003
0000
3010
0000
0100
0001
0100
0000
0010
0000
1000
0000
0001
0000
0000
0000
,
0020
0000
0130
0000
0010
0001
0010
0001
1000
0000
0001
0000
0201
0000
0000
0000
,
0320
0000
1030
0000
0001
1000
0001
0000
1000
0000
0010
0000
0100
0000
0000
0000
,
0002
0000
0013
0000
0100
1000
0001
1000
0100
0000
0010
0000
0011
0000
0001
0000
,
0200
0000
0310
0000
1000
0010
0100
0000
0001
0000
1000
0000
0010
0000
1000
0000
,
0002
0000
0013
0000
0001
0010
0100
1000
0001
0000
1000
0000
2010
0000
0000
0000
,
3001
0101
0000
0110
0000
1010
1000
0100
,
0010
0100
0010
0100
,
1000
0001
0100
0000
0010
1000
0001
0000
,
0010
0100
0010
0100
,
0001
0000
0100
0000
1000
0001
0001
0000
,
1002
0103
2001
3100
,
0011
0000
0100
0000
1000
0010
0100
0000
,
0110
0001
0011
0100
,
1001
0000
1000
0000
0010
0100
0010
0000
,
0000
0000
0000
0000
,
0000
1000
0000
1000
0000
0001
0001
0020
,
0000
0000
0000
0130
,
1000
0100
0010
0100
1000
0010
0100
0010
,
1000
0001
0010
0001
0100
0010
1000
0001
,
0010
0100
1000
0010
0100
0001
0100
0010
,
1000
0100
0010
0001
0100
0010
1000
0000
,
0001
0100
0010
0100
0001
0010
0100
0010
,
0001
1000
0010
1000
0100
0010
0001
1000
,
0010
0100
0001
0010
0100
1000
0100
0010
,
0001
0100
0010
1000
0100
0010
0001
0000
,
1000
0100
0010
0100
0001
0100
0010
0100
,
1000
0010
0100
0010
0001
0010
0100
0010
,
1000
0100
0001
1000
0010
0001
0100
0010
,
0001
1000
0100
0001
0010
0100
1000
0000
,
0001
0001
0100
0100
0010
1000
0001
0010
,
0100
0100
1000
1000
0010
0100
0001
1000
,
0100
0010
0001
0000
1000
0000
0010
0000
0100
0001
1000
0000
0100
0000
0010
0000
,
0001
0100
0001
1000
0010
0000
1000
0000
0100
0010
0001
1000
0020
0000
0000
0000
,
0030
0100
0000
0100
0000
0010
0010
0100
,
0000
0000
0000
0000
,
0002
0000
0000
1003
,
0010
1000
0010
0000
0100
0000
0010
0000
1000
0100
1000
0000
0100
0000
0010
0000
,
0001
1000
0001
0000
0100
0000
0010
0000
0001
0000
0010
0000
0100
0000
0001
0000
,
1000
0100
1000
0000
0010
0000
0100
0000
0001
0010
0001
0000
1000
0000
0100
0000
,
0010
0100
0010
0000
0001
0000
0100
0000
1000
0000
0100
0000
0001
0000
0000
0000
,
0010
0001
0010
0000
0100
0000
0010
0000
0001
0100
0001
0000
0100
0000
0010
0000
,
1000
0001
1000
0000
0100
0000
0010
0000
1000
0000
0010
0000
0100
0000
1000
0000
,
0001
0100
0001
0000
0010
0000
0100
0000
1000
0010
1000
0000
0001
0000
0100
0000
,
0010
0100
0010
0000
1000
0000
0100
0000
0001
0000
1000
0000
0010
0000
0000
0000
,
0100
1000
0001
0000
0100
0000
0010
0000
0100
0001
1000
0000
0100
0000
0010
0000
,
0011
0001
1000
0010
0110
0100
0001
1000
,
0010
1000
0001
0000
0010
0000
0100
0000
0010
0001
1000
0000
0010
0000
0100
0000
,
0101
0001
1000
0100
0110
0010
0100
0000
,
0010
0001
1000
0010
0100
0000
0000
0000
0010
1000
0001
0010
0100
0000
0000
0000
,
1000
0001
0100
0010
1000
0000
0001
0000
0010
0000
0100
0000
1000
0000
0010
0000
,
0100
0001
1000
0010
0100
0000
0000
0000
0001
1000
0100
0010
0001
0000
0000
0000
,
0100
0001
0010
0100
1000
0000
0010
0000
0001
0000
0010
0000
2000
0000
0000
0000
,
3001
0000
0000
0000
;
