#TITLE:take me higher;
#SUBTITLE:;
#ARTIST:KOTONOHOUSE;
#TITLETRANSLIT:;
#SUBTITLETRANSLIT:;
#ARTISTTRANSLIT:;
#GENRE:;
#CREDIT:;
#BANNER:sc2024-banner.png;
#BACKGROUND:sc2024-background.png;
#LYRICSPATH:;
#JACKET:take me higher-jacket.png
#CDTITLE:collab-cdtitle.png;
#MUSIC:Take Me Higher.ogg;
#OFFSET:0.000000;
#SAMPLESTART:27.429;
#SAMPLELENGTH:13.714;
#SELECTABLE:YES;
#BPMS:0.000000=140.000000
;
#STOPS:
;
#BGCHANGES:;
#KEYSOUNDS:;
#ATTACKS:;

//---------------dance-single - DS, XO----------------
#NOTES:
     dance-single:
     DS, XO:
     Hard:
     13:
     0.660158,0.757595,0.628908,0.337240,0.405600,507.000000,438.000000,69.000000,37.000000,5.000000,0.000000,0.660158,0.757595,0.628908,0.337240,0.405600,507.000000,438.000000,69.000000,37.000000,5.000000,0.000000:
// measure 0
0000
0000
0000
0000
,  // measure 1
0000
0000
0000
0000
,  // measure 2
0000
0000
0000
0000
,  // measure 3
0000
0000
0000
0000
,  // measure 4
1001
0000
0000
0000
1000
0000
0000
0000
0010
0000
0000
0100
0000
0000
0010
0000
,  // measure 5
1000
0000
0000
0000
0001
0000
0000
0000
0010
0000
0000
0100
0000
0000
0010
0000
,  // measure 6
0011
0000
0000
0110
0000
0000
0011
0000
,  // measure 7
0000
1010
0000
0000
0110
0010
2000
0000
,  // measure 8
3001
0010
0100
0010
0002
0000
1003
0010
,  // measure 9
0100
0010
2000
0000
3001
0010
0200
0010
,  // measure 10
2300
0000
3010
0000
1000
0001
0200
0010
,  // measure 11
0302
0013
0M00
MMMM
,  // measure 12
1000
0010
0100
0010
2000
0000
3001
0010
,  // measure 13
0100
0010
0002
0000
1003
0010
0200
0010
,  // measure 14
0301
1000
0010
0100
0001
1000
0200
0010
,  // measure 15
2300
0000
0000
0000
3010
0000
0000
0000
1000
0001
1000
0000
0200
0000
0000
0000
,  // measure 16
1300
0000
0001
0100
0001
0000
1000
0000
0100
0000
0000
0010
0000
0000
0100
0000
,  // measure 17
1000
0001
0100
0000
0001
0000
1000
0000
1100
0000
0000
0110
0000
0000
0011
0000
,  // measure 18
0001
0000
1000
0100
1000
0000
0001
0000
0100
0000
0000
0010
0000
0000
0100
0000
,  // measure 19
0001
1000
0100
0000
1000
0000
0001
0000
0101
0000
0000
1001
0000
0000
1100
0000
,  // measure 20
1000
0000
0001
0010
0001
0000
1000
0000
0010
0000
0000
0100
0000
0000
0010
0000
,  // measure 21
1000
0001
0010
0000
0001
0000
1000
0000
1010
0000
0000
0110
0000
0000
0101
0000
,  // measure 22
0001
0000
1000
0010
1000
0000
0001
0000
0010
0000
0000
0100
0000
0000
0010
0000
,  // measure 23
0001
1000
0010
0000
1000
0001
0010
0000
0021
0000
0130
0000
1100
0000
0000
0000
,  // measure 24
1000
0000
0001
0010
0001
0000
1000
0000
0010
0000
0000
0100
0000
0000
0010
0000
,  // measure 25
1000
0001
0010
0000
0100
0000
0001
0000
0101
0000
0000
0110
0000
0000
1100
0000
,  // measure 26
1000
0000
0001
0100
0001
0000
1000
0000
0100
0000
0000
0010
0000
0000
0100
0000
,  // measure 27
1000
0001
0100
0000
0010
0000
0001
0000
0011
0000
0000
0110
0000
0000
1001
0000
,  // measure 28
0001
0000
1000
0010
1000
0000
0001
0000
0010
0000
0000
0100
0000
0000
0010
0000
,  // measure 29
0001
1000
0010
0000
0100
0000
1000
0000
1100
0000
0000
0110
0000
0000
0101
0000
,  // measure 30
0001
0000
1000
0100
1000
0000
0001
0000
0100
0000
0000
0010
0000
0000
0100
0000
,  // measure 31
0001
1000
0100
0000
1000
0001
0100
0000
0201
0000
0310
0000
1010
0000
0000
0000
,  // measure 32
2001
0000
0000
0000
3010
0000
0100
0000
0002
0000
0000
1000
0000
0000
1003
0000
,  // measure 33
1002
0000
0000
0000
0013
0000
0100
0000
2000
0000
0000
0001
0000
0000
3001
0000
,  // measure 34
1001
0000
1000
0000
0100
0000
0010
0000
0002
0000
0000
0100
0000
0000
0103
0000
,  // measure 35
1002
0000
0000
0000
0103
0000
0010
0000
2000
0000
0000
0001
0000
0000
3100
0000
,  // measure 36
0120
0000
0000
0000
0031
0000
0100
0000
0002
0000
0000
1000
0000
0000
0013
0000
,  // measure 37
2001
0000
0000
0000
3100
0000
0010
0000
0002
0000
0000
0203
0000
0000
2300
0000
,  // measure 38
3100
0000
0010
0000
0100
0000
0001
0000
0020
0000
0000
2030
0000
0000
3020
0000
,  // measure 39
0031
0000
1000
0100
1000
0000
0001
0100
0001
0000
1000
0100
0010
0000
0001
0000
,  // measure 40
1001
1000
0010
0100
,  // measure 41
0001
1000
0001
0200
,  // measure 42
0320
1030
0001
0010
,  // measure 43
0001
0100
0001
0000
1000
0100
1000
0000
0001
0100
0010
1000
0200
0000
0310
0001
,  // measure 44
1000
1100
0001
0101
,  // measure 45
1000
1010
0001
0011
,  // measure 46
1000
0000
0100
0000
0010
0000
0001
0000
1000
0010
1000
0000
0001
0010
0001
0010
,  // measure 47
0200
0000
0000
0000
1300
0000
0010
0000
0100
0000
0010
1000
0002
0000
0000
0000
,  // measure 48
1003
0000
0010
0000
0100
0000
0001
0000
0010
0000
0000
0011
0000
0001
1000
0000
,  // measure 49
0001
0000
0100
0000
0010
0000
1000
0000
0100
0000
0000
1100
0000
1000
0001
0000
,  // measure 50
1000
0000
0010
0000
0100
0000
0001
0000
0010
0000
0000
0011
0000
0001
1000
0000
,  // measure 51
0001
0010
0100
1000
0010
0010
1000
1000
,  // measure 52
1100
0000
0000
0110
0000
0000
0011
0000
0001
0100
0001
0000
1000
0100
1000
0000
,  // measure 53
0101
0000
0000
0110
0000
0000
1010
0000
1000
0100
1000
0000
0001
0100
0001
0000
,  // measure 54
0011
0000
0000
0110
0000
0000
1100
0000
1000
0010
1000
0000
0001
0010
0001
0000
,  // measure 55
0011
0000
0000
0110
0000
0000
1100
0000
1000
0000
1000
0100
0020
0000
0031
0000
,  // measure 56
1000
0000
0100
0000
0010
0000
0100
0000
0001
0000
0000
0101
0000
0100
1000
0000
,  // measure 57
0001
0000
0100
0000
0010
0000
0100
0000
1000
0000
0000
1100
0000
0100
0001
0000
,  // measure 58
1000
0000
0010
0000
0100
0000
0010
0000
0001
0000
0000
0011
0000
0010
1000
0000
,  // measure 59
0001
0010
0100
0010
1000
1000
0010
0010
,  // measure 60
0011
0000
0000
0110
0000
0000
1100
0000
1000
0010
1000
0000
0001
0010
0001
0000
,  // measure 61
1010
0000
0000
0110
0000
0000
0101
0000
0001
0010
0001
0000
1000
0010
1000
0000
,  // measure 62
1100
0000
0000
0110
0000
0000
0011
0000
0001
0100
0001
0000
1000
0100
1000
0000
,  // measure 63
1100
0000
0000
0110
0000
0000
0011
0000
1000
0000
0001
0100
0001
0000
1000
0100
;

//---------------dance-single - BU, DS, FS, SJ, XO----------------
#NOTES:
     dance-single:
     BU, DS, FS, SJ, XO:
     Challenge:
     16:
     0.861981,0.961563,0.483074,0.382814,0.975263,662.000000,609.000000,53.000000,42.000000,9.000000,0.000000,0.861981,0.961563,0.483074,0.382814,0.975263,662.000000,609.000000,53.000000,42.000000,9.000000,0.000000:
0000
0000
0000
0000
,
0000
0000
0000
0000
,
0000
0000
0000
0000
,
0000
0000
0000
0000
,
1001
0000
0000
0000
0001
0100
0000
0010
0000
1000
0000
0010
0000
0100
0001
1000
,
0001
0010
0100
1000
0001
0100
0010
1000
0001
0010
0001
0100
0001
1000
0010
1000
,
0100
0000
0000
0110
0000
0000
1001
0000
,
0000
0000
0000
0101
0000
0000
0000
0000
0000
0000
0000
0000
1100
0000
0000
1000
0001
1000
0010
0000
0000
0100
0000
0000
,
0001
0000
1000
0000
0100
0000
1000
0000
0020
0000
0000
0130
0001
0000
1000
0000
,
0001
0000
0010
0000
0200
0000
0000
0000
0310
0000
0001
1000
0020
0000
0100
0000
,
2030
0000
0000
0000
3001
0000
0100
0000
0001
0000
1000
0001
0020
0000
0100
0000
,
0031
1000
0010
0100
0001
1000
0001
1000
0200
0000
0000
0300
0M00
0000
0000
0000
,
1001
1000
0001
0100
0010
0000
0100
0001
,
1000
0100
0010
0000
0100
1000
0001
0100
,
0001
0000
0001
0000
1000
0000
1000
0000
0100
0010
0001
1000
0001
0100
0010
1000
,
0002
0000
0000
0000
0000
0000
0000
0000
0000
0000
0000
0000
0000
0000
0000
0000
0000
0000
0000
0000
0000
0000
0000
0000
0000
0000
0000
0000
0000
0000
0000
0000
0000
0000
0000
0000
0000
0000
0000
0000
0000
0000
0000
0000
0000
0000
0000
0000
0000
0000
0000
0000
0000
0000
0000
0000
0000
0000
0000
0000
0000
0000
0000
0000
0000
0000
0000
0000
0000
0000
0000
0000
0000
0000
0000
0000
0000
0000
0000
0000
0000
0000
0000
0000
0000
0000
0000
0000
0000
0000
0000
0000
0000
0000
0000
0000
0010
0003
0000
0000
0000
0000
0000
0000
0000
0000
0000
0000
0100
0000
0000
0000
0000
0000
0000
0000
0000
0000
0000
0000
0010
0000
0000
0000
0000
0000
0000
0000
0000
0000
0000
0000
0100
0000
0000
0000
0000
0000
0000
0000
0000
0000
0000
0000
2000
0000
0000
0000
0000
0000
0000
0000
0000
0000
0000
0000
0000
0000
0000
0000
0000
0000
0000
0000
0000
0000
0000
0000
0000
0000
0000
0000
0000
0000
0000
0000
0000
0000
0000
0000
0000
0000
0000
0000
0000
0000
0000
0000
0000
0000
0000
0000
,
3001
0100
0010
0100
1000
0000
0100
0010
1000
0000
0100
0010
0000
0000
0011
0000
,
0001
1000
0010
1000
0001
0000
1000
0100
0110
0000
0000
0011
0000
0000
1001
0000
,
0001
0100
0010
0100
1000
0000
0100
0010
1000
0000
0100
0010
0000
0000
0011
0000
,
0001
1000
0010
0000
1000
0001
0100
0001
0010
0000
0100
1000
0010
0000
1010
0000
,
1000
0100
0010
0100
0001
0000
0100
0010
0001
0000
0100
0010
0000
0000
1010
0000
,
1000
0001
0010
0001
1000
0000
0001
0100
0110
0000
0000
1010
0000
0000
1001
0000
,
1000
0100
0010
0100
0001
0000
0100
0010
0001
0000
0100
0010
0000
0000
1010
0000
,
1000
0100
0100
0001
1000
0100
0100
0001
1000
0010
0100
0000
0110
0000
0010
0000
,
1000
0010
0100
0010
0001
0000
0010
0100
0001
0000
0010
0100
0000
0000
1100
0000
,
1000
0001
0100
0001
1000
0000
0001
0010
0110
0000
0000
1100
0000
0000
1001
0000
,
1000
0010
0100
0010
0001
0000
0010
0100
0001
0000
0010
0100
0000
0000
1100
0000
,
1000
0001
0100
0000
0001
1000
0010
1000
0100
0000
0010
0001
0100
0000
0101
0000
,
0001
0010
0100
0010
1000
0000
0010
0100
1000
0000
0010
0100
0000
0000
0101
0000
,
0001
1000
0100
1000
0001
0000
1000
0010
0110
0000
0000
0101
0000
0000
1001
0000
,
0001
0010
0100
0010
1000
0000
0010
0100
1000
0000
0010
0100
0000
0000
0101
0000
,
0001
0100
0100
1000
0001
0100
0100
1000
0001
0010
0100
0000
0110
0000
0000
0000
,
2001
0000
0000
3001
0100
0000
0010
0000
2000
0000
0000
0100
0000
0000
3001
0000
,
1002
0000
0000
1003
0010
0000
0100
0000
0002
0000
0000
0010
0000
0000
1003
0000
,
1001
0000
0001
0000
0010
0000
0100
0000
2000
0000
0000
0100
0000
0000
3001
0000
,
1001
0000
0000
0000
0001
0000
0010
0000
0002
0000
0000
1000
0000
0000
0103
0000
,
2001
0000
0000
0000
3100
0000
1000
0000
0002
0000
0000
0100
0000
0000
0013
0000
,
1002
0000
0000
0000
0103
0000
0001
0000
2000
0000
0000
3200
0000
0000
0302
0000
,
0103
0000
0010
0000
0001
0000
1000
0000
0020
0000
0000
0032
0000
0000
0013
0000
,
1000
0001
0010
0100
1000
0001
0100
0010
1000
0100
0010
0001
1000
0010
0100
0001
,
0020
0130
1000
0001
,
0100
0010
1000
0200
,
0310
0001
1000
0010
0100
0001
1000
0100
0010
0001
1000
0010
0100
0001
0010
0100
,
1000
0000
0000
0001
0000
0000
0100
0000
0000
0010
0000
0000
1000
0000
0000
0100
0000
0000
0010
0000
0000
0001
0000
0000
0100
0000
0000
0000
0000
0000
0010
0000
1000
0000
0010
0000
1000
0000
0000
0000
0000
0000
0100
0000
0000
0010
0000
0000
,
0011
0000
0001
1000
0010
0000
0100
0001
1000
0000
0100
0010
0001
0000
1000
0010
,
0100
0000
0001
1000
0100
0000
0010
0001
1000
0000
0010
0100
0001
0000
0100
0010
,
1000
0100
1000
0001
1000
0010
1000
0001
0010
0001
1000
0001
0100
0001
1000
0100
,
0010
0000
0000
0000
0000
0000
0001
0000
0000
1000
0000
0000
0010
0000
0000
0100
0001
0100
0002
0000
0000
0000
0000
0000
,
1003
0100
0010
0002
0100
0000
0013
0001
2000
0000
3001
0100
0000
0100
0001
1000
,
0001
0100
0010
2000
0100
0000
3010
1000
0001
0000
1000
0100
0000
0100
1000
0001
,
1000
0010
0100
0002
0010
0000
0103
0010
1000
0000
0001
0100
0000
0100
0001
1000
,
0001
0010
0100
2000
0010
0000
3100
0010
0001
0000
0001
0000
1000
0000
0001
0000
,
0101
0000
0000
010M
1000
0000
2001
0000
3100
0100
0001
0000
0100
0100
1000
0000
,
1100
0000
0000
M100
0001
0000
2001
0000
3100
0100
0001
0000
0100
0100
1000
0000
,
1010
0000
0000
M010
0001
0000
1002
0000
0013
0010
1000
0000
0010
0010
0001
0000
,
0011
0000
0000
001M
1000
0000
2001
0000
3010
0010
0001
0010
0100
0000
1000
0001
,
1000
0100
0010
0200
0001
0000
0310
0100
1000
0000
0001
0100
0000
0100
0001
1000
,
0001
0100
0010
0200
1000
0000
0310
0100
0001
0000
1000
0100
0000
0100
1000
0001
,
1000
0010
0100
0020
0001
0000
0130
0010
1000
0000
0001
0100
0000
0100
0001
1000
,
0001
0010
0100
0020
1000
0000
0130
0010
0001
0000
0001
0000
1000
0000
0100
0000
,
1100
0000
0000
M100
0001
0000
1002
0000
0103
0100
1000
0000
0100
0100
0001
0000
,
0101
0000
0000
010M
1000
0000
1002
0000
0103
0100
1000
0000
0100
0100
0001
0000
,
0011
0000
0000
001M
1000
0000
2001
0000
3010
0010
0001
0000
0010
0010
1000
0000
,
1010
0000
0000
M010
0001
0000
1002
0000
0013
0100
1000
0010
0100
0001
0010
0100
;
