#TITLE:symbolic;
#SUBTITLE:;
#ARTIST:TaQ;
#TITLETRANSLIT:;
#SUBTITLETRANSLIT:;
#ARTISTTRANSLIT:;
#GENRE:;
#CREDIT:;
#MUSIC:symbolic.ogg;
#BANNER:symbolic.png;
#BACKGROUND:symbolic-bg.png;
#CDTITLE:;
#SAMPLESTART:92.875;
#SAMPLELENGTH:15.000;
#SELECTABLE:YES;
#OFFSET:-0.375;
#BPMS:0.000=155.000;
#STOPS:;
#BGCHANGES:;
#FGCHANGES:;

//--------------- dance-single - ORDINARY ----------------
#NOTES:
     dance-single:
     ORDINARY:
     Beginner:
     6:
     0,0,0,0,0:
0000
0000
0000
0000
,
0000
0000
0000
0000
,
0000
0000
0000
0000
,
0000
0000
0000
0000
0000
0000
0001
0001
,
0001
0000
0000
0000
,
0010
0000
0000
0000
,
0100
0000
0000
0000
,
1000
0000
0000
0000
0000
0000
0000
0001
,
0000
0100
0000
0000
,
0000
0010
0000
0000
0000
0000
1000
0000
,
0000
0100
0000
0000
,
0000
0010
0000
0000
0000
0000
0000
0000
,
0001
0000
0001
0000
,
1000
0000
1000
0000
,
0010
0000
0010
0000
,
0001
0000
0000
0000
0001
0000
0000
0010
,
0000
0010
0000
0010
,
0000
0100
0000
0100
,
0000
0001
0000
0001
,
0000
1000
0000
1000
,
0001
0000
0010
0000
,
1000
0000
1000
0000
,
0001
0000
0100
0000
,
1000
0000
0000
0000
1000
0000
0000
1000
,
0000
0010
0000
0000
,
0001
0000
0001
0000
,
1000
0000
0100
0000
,
0001
0000
0000
0000
,
1000
0000
0100
0000
,
0001
0000
0100
0000
,
1000
0000
0001
0000
,
0100
0000
1000
0000
,
0100
0000
0001
0000
,
1000
0000
0010
0000
,
0100
0000
0001
0000
,
1000
0000
0000
0000
,
0001
0000
0010
0000
,
1000
0000
0010
0001
,
1000
0000
0010
0000
,
0001
0000
0010
1000
,
0001
0000
0100
0000
,
1000
0000
0100
0001
,
1000
0000
0100
0000
,
0001
0000
0100
1000
,
0000
0000
0001
0000
0000
0100
0000
0000
,
0010
0000
1000
0001
,
0000
0000
1000
0000
0000
0100
0000
0000
,
0010
0000
0001
1000
,
0000
0000
0001
0000
0000
0010
0000
0000
,
0100
0000
1000
0001
,
0000
0000
1000
0000
0000
0010
0000
0000
,
0100
0000
0001
1000
,
0001
0000
0000
0000
,
1000
0000
0000
0000
,
0100
0000
0000
0000
,
0010
0000
0000
0000
,
1001
0000
0000
0000
,
0100
0000
0100
0000
,
0100
0100
0100
0100
,
0100
1000
0001
0000
,
1001
0000
0001
0000
,
0010
0100
1000
0000
,
1001
0000
1000
0000
,
0010
0100
0001
0000
,
1001
0000
0001
0000
,
0010
0001
1000
0000
,
1001
0000
1000
0010
,
0100
0001
1000
0000
,
1001
0001
0010
0100
,
1000
1000
0001
0000
,
1001
1000
0010
0100
,
0001
0001
1000
0000
,
1001
0001
0010
1000
,
0010
0010
0001
0000
,
1001
1000
0010
0001
,
0010
1000
0001
0000
;

//--------------- dance-single - GENUINE ----------------
#NOTES:
     dance-single:
     GENUINE:
     Easy:
     8:
     0,0,0,0,0:
0000
0000
0000
0000
,
0000
0000
0000
0000
,
0000
0000
0000
0000
,
0000
0000
0000
0000
0000
0000
1000
1000
,
1000
0000
1000
0000
,
1000
0000
1000
0000
,
0001
0000
0001
0000
,
0001
0000
0000
0000
0001
0000
0000
0010
,
0000
0010
0000
0010
,
0000
0010
0000
0100
,
0000
0100
0000
0100
,
0000
0000
0000
0000
0000
0100
0000
0000
,
1000
1000
0001
0001
,
0100
0100
0010
0010
,
1000
1000
0100
0100
,
1000
0000
1000
0000
0001
0000
0001
0001
,
0000
0001
0000
0001
0000
0010
0000
0010
,
0000
0100
0000
0100
0000
0001
0000
0001
,
0000
0100
0000
0100
0000
1000
0000
1000
,
0000
0001
0000
0001
0000
0001
0000
0001
,
1000
1001
0001
0010
,
0100
0100
0100
0100
,
1000
1001
0001
0010
,
0100
0000
0100
0000
0100
0000
0100
1000
,
0000
1001
1000
0010
,
0100
0100
0100
0100
,
0001
1001
1000
0010
,
0100
0000
0000
0000
,
0001
0000
0010
0000
,
1000
0000
0001
0100
,
1000
0000
0010
0000
,
0001
0000
1000
0100
,
0001
0000
1000
0000
,
0100
0000
0001
1000
,
0010
0000
0001
0000
,
1000
0000
0000
0000
,
0001
0010
0001
0001
,
1000
0010
0001
0010
,
1000
0100
1000
1000
,
0001
0100
1000
0100
,
0001
0100
0001
0001
,
1000
0100
0001
0100
,
1000
0010
1000
1000
,
0001
0010
1000
0010
,
0001
0101
0100
0110
,
0010
1000
0001
0010
,
0100
1100
1000
1010
,
0010
0100
0001
1000
,
0100
0110
0010
0011
,
0001
1000
0010
0100
,
0001
0011
0010
0110
,
0100
0001
0100
1000
,
0001
0000
0001
0000
,
1000
0000
1000
0000
,
0100
0000
0100
0000
,
0010
0000
0010
0000
,
1001
0000
0000
0000
,
0100
0100
0100
0100
,
0100
0000
0100
0000
0100
0100
0100
0100
,
0000
1000
0000
0001
0000
0000
0100
0010
,
1000
0001
0010
0001
,
1000
0000
0010
0000
1000
0000
0001
0010
,
0100
0010
0001
1000
,
0010
0000
0100
0000
0010
0000
1000
0001
,
0010
0100
0001
0100
,
1000
0000
0010
0000
0100
0000
0001
1000
,
0100
0001
0100
1000
,
0000
0001
0000
0010
0000
0000
1000
0010
,
0001
0101
0001
0010
,
0100
0000
1000
0000
0100
0000
0001
0100
,
1000
1001
0001
0010
,
0001
0000
1000
0000
0010
0000
0001
0010
,
1000
1100
1000
0010
,
0001
0000
0010
0000
0100
0000
1000
0100
,
0001
0001
1000
1000
,
0010
0010
0010
0010
0010
0000
0000
0000
;

//--------------- dance-single - PARAMOUNT ----------------
#NOTES:
     dance-single:
     PARAMOUNT:
     Medium:
     10:
     0,0,0,0,0:
0000
0000
0000
0000
,
0000
0000
0000
0000
,
0000
0000
0000
0000
,
0000
0000
0000
0000
0000
0000
0001
0001
,
0001
0000
0001
0000
,
0001
0001
0001
0000
,
0010
0000
0010
0000
,
0010
0000
0010
0000
0010
0000
0000
0100
,
0000
0100
0000
0100
,
0000
0100
0000
0100
0000
0000
1000
0000
,
0000
1000
0000
1000
,
0000
1000
0000
0000
0000
1000
0000
1000
,
1000
0010
1000
0001
,
0000
0010
0000
1000
0000
0000
0010
0000
,
0001
1000
0100
1000
,
0000
0010
0000
0001
0000
0000
0010
1000
,
0000
1000
0001
0000
0010
0000
0100
0000
,
0000
0001
0000
0100
1000
0000
1001
0000
,
0001
0100
0010
0001
,
0000
0010
0000
0100
0001
0000
1000
1000
,
1000
0110
1000
0100
,
0001
0001
0001
0001
,
0001
0110
0001
0100
,
1000
0000
1000
0000
1000
0000
1000
1000
,
0000
0101
1000
0100
,
0001
0001
0001
0001
,
0001
1010
0001
0010
,
1000
0000
0000
0000
,
0001
0100
1000
0100
,
0001
0100
1000
0100
,
0001
0010
1000
0010
,
0001
0010
1000
0010
,
0001
1000
0010
0001
,
0010
1000
0010
0100
,
0001
1000
0100
0001
,
0100
0000
0000
0000
,
1000
0010
0001
1000
,
0001
0000
0010
0000
1000
0000
0100
0010
,
0001
0100
1000
0001
,
1000
0000
0100
0000
0001
0000
0010
0100
,
1000
0100
0001
1000
,
0001
0000
0100
0000
1000
0000
0010
0100
,
0001
0010
1000
0001
,
1000
0000
0010
0000
0001
0000
0100
0010
,
1000
0000
0100
0000
0001
0100
0000
0010
,
0100
0000
0000
0010
1000
0000
0010
0001
,
1000
0000
0010
0000
0001
0010
0000
0100
,
0010
0000
0000
0100
1000
0000
0100
0001
,
1000
0000
0100
0010
0000
0001
0100
1000
,
0000
0000
0000
0100
0010
0000
1000
0000
,
0001
0000
0010
0100
0000
1000
0010
0001
,
0010
0010
0010
0010
0010
0000
0100
0001
,
1000
0000
0010
0000
0000
0100
0000
0000
,
0001
0000
1000
0000
,
0001
0000
0010
0000
0000
0100
0000
0000
,
1000
0000
0001
0000
,
1001
0000
0000
0000
,
0100
0100
0100
0100
,
0100
0100
0100
0100
0100
0100
0100
0100
,
0000
0000
0001
0000
0000
0000
1000
0000
0010
0000
0000
0000
1000
0000
0000
1000
,
0100
0011
0001
1000
,
0010
0000
0001
0000
0000
0000
0010
0000
1000
0000
0000
0000
0001
0000
0000
0001
,
0100
1010
1000
0001
,
0010
0000
1000
0000
0000
0000
0010
0000
0001
0000
0000
0000
1000
0000
0000
1000
,
0010
0101
0001
1000
,
0100
0000
0001
0000
0000
0000
0100
0000
1000
0000
0000
0000
0001
0000
0000
0001
,
0010
0110
1100
1001
,
0000
0000
1000
0000
0000
0000
0001
0000
0100
0000
0000
0000
0001
0010
0000
0001
,
0010
0000
0110
0000
0100
1000
0000
0010
,
0001
0000
0010
0000
0000
0000
0100
0000
0001
0000
0000
0000
1000
0100
0000
1000
,
0100
0000
0110
0000
0010
0001
0000
0100
,
1000
0000
0100
0000
0000
0000
0010
0000
1000
0000
0000
0000
0001
0100
0000
0001
,
0100
0000
0110
0000
0010
1000
0000
0100
,
0001
0000
0100
0000
0000
0000
0010
0000
0100
0000
0000
0000
1000
0010
0000
1000
,
0010
0010
1000
1000
0001
0001
0010
0010
,
0000
1000
0000
0010
0001
0000
0000
0000
;

//--------------- dance-single - EXORBITANT ----------------
#NOTES:
     dance-single:
     EXORBITANT:
     Hard:
     12:
     0,0,0,0,0:
0000
0000
0000
0000
,
0000
0000
0000
0000
,
0000
0000
0000
0000
,
0000
0000
0000
0000
0000
0000
1000
1000
,
1000
1000
1000
1000
,
0001
0001
0001
0001
,
0100
0100
0100
0100
,
0010
0000
0010
0000
0010
0000
0010
0010
,
0000
0100
0100
0000
0001
0000
0001
0000
,
1000
1000
0100
0100
,
0001
0001
0100
0100
,
1000
0000
0000
0000
0000
0001
0000
0001
,
0001
0010
1000
0010
,
0001
0010
0000
0010
0100
0000
1000
0001
,
1000
0010
0001
0010
,
1000
0010
0000
0010
0100
0000
0001
1000
,
0000
0100
0001
0100
,
1000
0100
0000
0100
0010
0000
0001
1000
,
0001
0100
1000
0100
,
0001
0100
0000
0100
0010
0000
1000
0001
,
1000
0000
1100
0000
0100
0000
0010
0001
,
1000
1000
1000
1000
,
1000
0000
1100
0000
0100
0000
0010
0001
,
1000
0000
1000
0000
1000
0000
1000
1001
,
0000
0000
0101
0000
0100
0000
0010
1000
,
0001
0001
0001
0001
,
0001
0000
0101
0000
0100
0000
0010
1000
,
0001
0000
0000
0000
,
1000
0000
0000
0100
0000
0000
0000
0000
0010
0000
0000
0001
0000
0000
0000
0000
,
0010
0000
0000
0100
0000
0000
0000
0000
0010
0000
0000
0001
0000
0000
1000
0000
,
0001
0000
0000
0100
0000
0000
0000
0000
0010
0000
0000
1000
0000
0000
0000
0000
,
0010
0000
0000
0100
0000
0000
0000
0000
0010
0000
0000
1000
0000
0000
0001
0000
,
1000
0000
0000
0100
0000
0000
0000
0000
0001
0000
0000
0100
0000
0000
0000
0000
,
0010
0000
0000
0001
0000
0000
0000
0000
0100
0000
0000
0010
0000
0000
1000
0000
,
0001
0000
0000
0010
0000
0000
0000
0000
0100
0000
0000
1000
0000
0000
0000
0000
,
0001
0000
0000
0000
,
1000
0000
0000
0010
0000
0000
0100
0000
0001
0000
0000
1000
0000
0000
0100
0000
,
0010
0000
0000
0100
0000
0000
1000
0000
0010
0000
0010
0000
1000
0000
0000
0000
,
0001
0000
0000
0010
0000
0000
0100
0000
0010
0000
0000
0001
0000
0000
1000
0000
,
0010
0000
0000
1000
0000
0000
0001
0000
0010
0000
0010
0000
0001
0000
0000
0000
,
1000
0000
0000
0010
0000
0000
0100
0000
0010
0000
0000
0001
0000
0000
0010
0000
,
0100
0000
0000
0001
0000
0000
1000
0000
0100
0000
0100
0000
1000
0000
0000
0000
,
0001
0000
0000
0100
0000
0000
1000
0000
0100
0000
0000
0001
0000
0000
1000
0000
,
0100
0000
0000
0010
0000
0000
0001
0000
0100
0000
0100
0000
0001
0000
0000
0000
,
1000
0000
1100
0000
0001
0101
0000
0010
,
1000
0000
0100
0010
0011
0000
0001
1000
,
0001
0000
0101
0000
1000
1100
0000
0010
,
0001
0000
0100
0010
1010
0000
1000
0001
,
1000
0000
1010
0000
0001
0011
0000
0010
,
1000
0000
0010
0100
1100
0000
0001
1000
,
0001
0000
0011
0000
1000
1010
0000
0010
,
0001
0001
0010
0010
0100
0100
0001
0001
,
1000
1000
0100
0100
,
0010
0010
0001
0001
,
1000
1000
0010
0010
,
0100
0100
0001
0001
,
1001
0000
0000
0000
,
0100
0100
0100
0100
0100
0100
0100
0100
,
0100
0100
0100
0100
0100
0100
0100
0100
,
0000
0000
0001
0000
0010
0000
1000
0000
0010
0000
0000
0000
0001
0010
0000
0010
,
0001
0000
1001
0000
1000
0010
0100
0001
,
0010
0000
0001
0000
0000
0000
1000
0000
1001
0000
0000
0000
1000
0010
0000
0010
,
1000
0000
1001
0000
0001
0010
0100
0010
,
0001
0000
1000
0000
0000
0000
0010
0000
0100
0000
0000
0000
0001
0010
0000
0010
,
0100
0000
1001
0000
1000
0001
0010
0001
,
0100
0000
0010
0000
0000
0000
1000
0000
0001
0000
0000
0000
1000
0010
0000
0010
,
0100
0100
0001
0001
1000
1000
0100
0100
,
0000
0000
0001
0000
0100
0000
1000
0000
0001
0000
0000
0000
1000
0010
0000
0010
,
0001
0000
0110
0000
0100
0001
1000
0100
,
0001
0000
0100
0000
0000
0000
1000
0000
1001
0000
0000
0000
0001
0010
0000
0010
,
1000
0000
0110
0000
0100
0001
0100
1000
,
0010
0000
0100
0000
0000
0000
0001
0000
1001
0000
0000
0000
1000
0100
0000
0100
,
0001
0100
0110
0000
0010
0001
0100
1000
,
0100
0000
0001
0000
0000
0000
1000
0000
1001
0000
0000
0000
0001
0100
0000
0100
,
1000
1000
0100
0100
0001
0001
1000
1000
,
0100
0001
0100
1000
0001
0000
0000
0000
;

//--------------- dance-single - APOCALYPTIC ----------------
#NOTES:
     dance-single:
     APOCALYPTIC:
     Challenge:
     15:
     0,0,0,0,0:
0000
0000
0000
0000
,
0000
0000
0000
0000
,
0000
0000
0000
0000
,
0000
0000
0000
0000
0000
0000
0001
0001
,
0001
0001
0001
0001
,
0100
0100
0100
0100
,
0010
0010
0010
0010
,
1000
0000
1000
0000
1000
0000
1000
1000
,
0000
0001
0001
0000
0010
0000
0001
0000
,
1000
0010
0100
0001
,
0100
0010
1000
0001
,
0010
0000
0000
0000
0000
0100
0000
0100
,
1000
0010
1000
0000
0001
0010
0000
0010
,
0100
0001
0000
0100
1000
0000
0001
1000
,
0001
0100
0101
0000
1000
0100
0000
0100
,
0010
1000
0000
0010
0001
0000
1000
0100
,
0000
0100
1100
0000
0001
0100
0000
0100
,
0010
0001
0000
0010
1000
0000
0001
1000
,
0001
0010
0011
0000
1000
0010
0000
0010
,
0100
1000
0000
0100
0001
0000
1000
1000
,
1000
0000
1010
0000
0010
0100
0000
0100
,
0001
0001
0001
0001
,
0001
0000
0011
0000
0010
0100
0000
0100
,
1000
0000
1000
0000
1000
0000
1000
1001
,
0000
0001
0101
0000
0100
0010
0000
0010
,
1000
1000
1000
1000
,
1000
0000
1100
0000
0100
0010
0000
0010
,
0001
0000
0000
0000
1001
1000
0000
0000
,
0001
0010
0000
0100
0000
0000
1000
0000
0001
0100
0000
0010
0000
0000
1000
0001
,
1000
0100
0000
0010
0000
0000
0001
0000
1000
0010
0000
0100
0000
0001
1000
0001
,
0100
0010
0000
1000
0000
0000
0001
0000
0010
0100
0000
1000
0000
0000
0001
1000
,
0010
0100
0000
0001
0000
0000
1000
0000
0100
0010
0000
0001
0000
1000
0001
1000
,
0001
0010
0000
0100
0000
0000
0001
0000
0100
1000
0000
0001
0000
0000
0100
0001
,
1000
0100
0000
0010
0000
0000
1000
0000
0010
0001
0000
1000
0000
0010
1000
0001
,
1000
0010
0000
0100
0000
0000
1000
0000
0100
0001
0000
1000
0000
0000
0001
0000
,
0000
0000
0000
1000
1001
1000
0000
0000
,
0001
0010
0000
0010
0100
0000
0001
0000
0100
0000
1000
0000
0100
0000
0010
0000
,
0001
0100
0000
0100
0010
0000
1000
0000
1010
0000
0010
0000
1000
0000
0001
0000
,
1000
0100
0000
0100
0010
0000
1000
0000
0010
0000
0001
0000
0010
0000
0100
0000
,
1000
0010
0000
0010
0100
0000
0001
0000
0101
0000
0100
0000
0001
0000
1000
0000
,
0001
0100
0000
0100
0010
0000
1000
0000
0010
0001
0000
0001
0010
0000
1000
0000
,
0001
0010
0000
0010
0100
0000
1000
0000
1100
0000
0100
0000
0010
0000
0001
0000
,
1000
0010
0000
0010
0100
0000
0001
0000
0100
1000
0000
1000
0100
0000
0001
0000
,
1000
0100
0000
0100
0010
0000
0001
0000
0011
0000
0010
0000
0100
0000
1000
0000
,
0001
0100
0110
0010
1000
1001
0001
0010
,
0100
0001
0000
0001
0100
0000
1000
0000
1100
0000
0100
0000
0010
0000
0001
0000
,
1000
0010
0110
0100
0001
1001
1000
0100
,
0010
1000
0000
1000
0010
0000
0001
0000
0011
0000
0010
0000
0100
0000
0100
0000
,
1000
0100
0110
0010
0001
1001
1000
0010
,
0100
1000
0000
1000
0100
0000
0001
0000
0101
0000
0100
0000
0010
0000
1000
0000
,
0001
0010
0110
0100
1000
1001
0001
0100
,
0010
0010
0010
1000
1010
1000
1001
1001
,
0001
0000
0011
0000
1000
0001
0000
0100
,
0010
0000
0000
0100
0101
0000
1000
0001
,
1000
0000
1100
0000
0001
1000
0000
0010
,
0100
0000
0000
0010
1010
0000
1000
0001
,
1001
0000
0000
0000
,
0100
0100
0100
0100
0100
0100
0100
0100
,
0001
0001
0010
0010
1000
1000
0100
0100
,
0000
0001
0010
0000
0000
1000
0010
0000
0000
0001
0000
0001
1000
0010
0100
0001
,
1000
0000
0000
0000
1100
0000
1000
0000
0010
0000
1000
0000
0001
0000
0010
0100
,
0000
1000
0010
0000
0000
0000
0100
0000
0110
0000
0000
0000
0001
0100
0010
1000
,
0001
0000
0000
0000
0011
0000
0000
0000
0001
0000
1000
0000
0010
0000
0100
0010
,
0000
0001
0010
0000
0100
0000
0001
0000
1001
0000
0000
0000
1000
0100
0010
0001
,
1000
0000
0000
0000
1010
0000
1000
0000
0100
0000
0010
0000
1000
0000
0010
0001
,
0000
0001
0100
0000
0000
0000
0010
0000
0110
0000
0000
0000
0001
0010
0100
1000
,
0001
0001
0100
0100
1000
1000
0010
0010
,
0000
0001
1000
0001
0000
0100
0010
0100
0001
1000
0001
0000
0010
0001
0100
0001
,
0010
0000
0000
0000
0110
0000
0010
0000
0001
0000
0101
0000
0100
0000
0010
0001
,
0000
0000
0010
0000
1000
0000
0001
0000
1001
0000
0000
0000
0100
1000
0010
1000
,
0100
0000
0000
0000
0110
0000
0100
0000
1000
0000
1010
0000
0010
0000
0001
0010
,
0000
0010
0100
0000
0001
0000
1000
0000
1001
0000
0000
0000
0100
0001
0010
0001
,
0100
0000
0100
0000
0110
0000
0010
0000
0001
0000
0011
0000
0010
0000
1000
0001
,
0000
0010
0100
0000
1000
0001
1000
0000
1001
0000
0000
0000
0010
1000
0100
1000
,
0010
0000
0010
0000
0001
0000
0001
0000
0100
0000
0100
0000
1000
0000
1000
0001
,
1000
0100
0010
0001
1000
0001
0010
0100
1000
0000
0000
0000
0000
0000
0000
0000
;

//--------------- dance-single - INSANITY ----------------
#NOTES:
     dance-single:
     INSANITY:
     Edit:
     17:
     0,0,0,0,0:
0000
0000
0000
0000
,
0000
0000
0000
0000
,
0000
0000
0000
0000
,
0000
0000
0000
0000
0000
0000
1001
1001
,
1001
1000
0100
0100
,
0010
0010
0001
0001
,
0100
0100
0010
0010
,
1000
0000
1000
0000
0001
0000
1001
1001
,
0000
1001
1001
0001
0000
0010
0000
1000
,
0000
0010
0000
0001
0000
0100
0000
0010
,
0000
1000
0000
0100
0000
0001
0000
0100
,
0000
1000
0000
0000
0000
0110
0000
1001
,
1001
0100
1000
0010
1000
0001
1000
0010
,
0100
1000
0100
0001
0100
0010
0100
0001
,
1000
0100
0010
0100
0001
0100
1000
0100
,
0010
1000
0010
0100
0010
0001
1001
1001
,
0000
1001
1001
0010
0001
0100
0001
1000
,
0010
0001
0010
0100
0010
1000
0010
0100
,
0001
0010
0100
0010
1000
0010
0100
1000
,
0100
0000
0001
0000
0100
0000
0010
0000
0100
0000
1000
0000
0001
1000
0001
1000
,
0001
0000
0000
0000
1001
0000
0000
0000
0010
0000
0110
0000
0000
0000
1000
0001
,
1000
1000
1000
1000
,
1000
0000
0000
0000
1001
0000
0000
0000
0100
0000
0110
0000
0000
0000
0001
1000
,
0001
0000
0001
0000
0001
0000
0001
1001
,
0000
0000
0100
0000
0110
0000
0000
0000
0001
0000
1001
0000
0000
0000
0100
0010
,
0100
0100
0100
0100
,
0100
0000
0000
0000
0110
0000
0000
0000
1000
0000
1001
0000
0000
0000
0010
0100
,
0000
0000
0000
0000
0000
0000
1000
0000
1001
0000
0000
0000
0001
1000
0001
1000
,
0001
0010
0000
0001
0010
0000
0100
0000
1000
0010
0000
1000
0010
0000
0100
0000
,
0001
1000
0000
0001
1000
0000
0010
0000
0100
0010
0000
0100
0010
1000
0001
1000
,
0001
0100
0000
0001
0100
0000
0010
0000
1000
0100
0000
1000
0100
0000
0010
0000
,
0001
1000
0000
0001
1000
0000
0100
0000
0010
0100
0000
0010
0100
1000
0001
0100
,
0010
1000
0000
0010
1000
0000
0001
0000
0010
0100
0000
0010
0100
0000
1000
0000
,
0001
0100
0000
0001
0100
0000
0010
0000
1000
0001
0000
1000
0001
0010
0001
0010
,
0100
1000
0000
0100
1000
0000
0001
0000
0100
0010
0000
0100
0010
0000
1000
0001
,
0000
0000
0000
0000
0000
0000
1000
0000
1001
0000
0000
0000
0001
1000
0001
1000
,
0000
0001
0010
0001
0010
0000
0100
0000
1000
0010
1000
0010
1000
0000
0001
0000
,
0010
0100
0010
0100
0010
0000
0100
0000
1000
0000
0001
0000
1000
0100
0010
0001
,
0100
0001
0100
0001
0100
0000
0010
0000
1000
0100
1000
0100
1000
0000
0001
0000
,
0100
0010
0100
0010
0100
0000
0010
0000
1000
0000
0001
0000
0010
0100
1000
0001
,
0010
0100
0010
0001
0010
0000
0100
0000
1000
0010
1000
0001
1000
0000
0010
0000
,
0100
0001
0100
0010
0100
0000
0001
0000
1001
0000
0001
0000
1000
0100
0010
0001
,
1000
0010
1000
0100
1000
0000
0001
0000
0010
0100
0010
0001
0010
0000
0100
0000
,
1000
0010
1000
0001
0010
0000
0100
0000
0110
0000
0100
0000
1000
0010
0100
0001
,
1000
0000
0100
0000
1100
0000
0000
0000
0001
0100
0010
0000
0110
0000
0100
0001
,
1000
0100
0000
0100
0010
0000
0001
0000
0011
0000
0001
0000
1000
0000
0010
0001
,
0010
0000
0100
0000
0110
0000
0000
0000
0010
1000
0001
0000
0011
0000
0010
0100
,
1000
0001
0000
0001
0100
0000
0010
0000
0110
0000
0010
0000
1000
0001
0010
0001
,
1000
0000
0010
0000
1010
0000
0000
0000
0001
0010
0100
0000
0110
0000
0010
0001
,
1000
0010
0000
0010
0001
0000
0010
0000
0110
0000
0010
0000
1000
0000
0001
0100
,
0010
0000
0001
0000
0011
0000
0000
0000
0010
1000
0001
0000
1001
0000
0001
0010
,
0100
0000
0100
0000
1100
0000
1100
0000
1001
0000
1001
0000
1000
0010
0100
0001
,
1000
0000
0000
0000
1100
0000
0000
0000
0000
0000
0011
0000
0000
0000
1000
0001
,
0000
0000
0000
0000
0110
0000
0000
1000
,
0000
0000
0000
0000
0101
0000
0000
0000
0000
0000
1010
0000
0000
0000
0001
1000
,
0000
0000
0000
0000
0110
0000
1001
1001
,
1001
0000
0000
0000
,
0100
0100
0100
0100
0100
0100
0100
0100
,
1100
0000
1001
0000
1010
0000
0101
0000
1001
0000
0011
0000
0110
0000
0100
1000
,
0000
0010
0001
0010
0000
1000
0100
1000
0000
0001
0000
0001
0100
0010
1000
0001
,
0010
0000
0100
0000
0110
0000
0010
0000
0001
1000
0010
0000
0001
0000
0010
0100
,
0010
0001
0010
0000
0100
0001
1000
0000
1001
0000
1000
0000
0010
0100
0001
1000
,
0100
0000
0010
0000
0110
0000
0100
0000
1000
0001
0100
0000
0010
0000
0100
1000
,
0100
0001
0100
0000
0010
1000
0001
0000
1001
0000
0001
0000
0010
0001
1000
0010
,
0100
0000
1000
0000
1100
0000
0100
0000
0010
0100
0001
0000
1000
0000
0100
0010
,
0100
0001
0100
0000
0010
0001
1000
0000
1001
0000
1000
0000
0100
1000
0001
0100
,
0010
0000
0010
0000
1010
0000
1010
0000
1001
0000
0101
0000
1001
0000
1000
0100
,
0000
0010
1000
0010
0000
0100
0001
0100
1000
0001
0100
0001
1000
0100
0001
0100
,
1000
0000
0001
0100
0010
0100
0001
0000
1000
0100
0010
0100
0001
0100
0010
0001
,
1000
0010
0100
0000
0001
1000
0001
0000
1001
0000
0000
0000
0001
0100
1000
0100
,
0001
0000
1000
0100
0010
0100
1000
0000
0001
0100
1000
0100
0010
0100
0001
1000
,
0100
0010
0001
0000
1000
0001
1000
0000
1001
0000
0000
0000
1000
0010
0001
0010
,
1000
0000
1010
0000
1001
0000
0001
0010
0100
0001
0100
1000
0001
0100
0001
1000
,
0100
0010
0100
0000
1000
0001
1000
0000
1001
0000
0000
0000
0001
0010
1000
0010
,
0001
0000
0011
0000
1001
0000
1010
0000
0110
0000
0101
0000
1001
0000
1000
0001
,
1000
0010
0001
0010
1000
0100
0001
0100
1000
0000
0000
0000
0000
0000
0000
0000
;

//--------------- dance-double - PSYCHOTIC ----------------
#NOTES:
     dance-double:
     PSYCHOTIC:
     Hard:
     16:
     0,0,0,0,0:
00000000
00000000
00000000
00000000
,
00000000
00000000
00000000
00000000
,
00000000
00000000
00000000
00000000
,
00000000
00000000
00000000
00000000
00000000
00000000
00011000
00011000
,
00011000
00010000
00100000
00100000
,
10000000
10000000
01000000
01000000
,
00010000
00010000
00000100
00000100
,
00000010
00000000
00000010
00000000
00001000
00000000
00001000
00011000
,
00000000
00011000
00010000
00000010
00000000
00000001
00000000
00000010
,
00000000
00001000
00000000
00010000
00000000
01000000
00000000
00100000
,
00000000
00010000
00000000
00000010
00000000
00001000
00000000
00000100
,
00000000
00010000
00000000
00000000
00000000
00011000
00000000
00011000
,
00010000
00100000
10000000
00010000
00100000
01000000
00010000
00001000
,
00000100
00000001
00000100
00010000
00000100
00000010
00010000
00001000
,
00100000
01000000
00010000
00001000
01000000
00100000
10000000
01000000
,
00010000
00000100
00001000
01000000
00010000
00001000
00011000
00011000
,
00000000
00011000
00011000
00001000
00000100
00000001
00000010
00001000
,
00100000
00010000
00000010
00000100
00010000
01000000
10000000
00100000
,
00010000
00001000
00100000
01000000
00001000
00000100
00010000
00000010
,
00000001
00000010
00001000
00000100
00010000
01000000
10000000
10000000
,
10000000
00010000
00001000
01000000
,
10000000
10000000
10000000
10000000
,
10000000
00010000
00001000
01000000
,
10000000
00000000
10000000
00000000
10000000
00000000
00010000
00001000
,
00000000
00000001
00000100
00000000
00010000
00000000
00001000
00000000
,
00000001
00000001
00000001
00000001
,
00000001
00000100
00010000
00001000
,
00000001
00000000
00000000
00000000
,
00000001
00000010
00000000
00000100
00000000
00000000
00001000
00000000
00000010
00000100
00000000
00001000
00000000
00000000
00010000
00000010
,
00000100
00001000
00000000
00010000
00000000
00000000
00000100
00000000
00001000
00010000
00000000
00100000
01000000
00010000
00001000
00010000
,
00000100
00001000
00000000
00010000
00000000
00000000
00100000
00000000
00001000
00010000
00000000
00100000
00000000
00000000
01000000
00001000
,
00010000
00100000
00000000
01000000
00000000
00000000
00010000
00000000
00100000
01000000
00000000
10000000
00010000
01000000
00001000
10000000
,
01000000
00100000
00000000
00010000
00000000
00000000
01000000
00000000
00100000
00010000
00000000
00001000
00000000
00000000
00100000
00010000
,
01000000
00100000
00000000
00010000
00000000
00000000
00001000
00000000
00100000
00010000
00000000
00001000
00000100
00000010
00001000
00010000
,
00001000
00100000
00000000
00010000
00000000
00000000
00001000
00000000
00000100
00010000
00000000
00001000
00000000
00000000
00000100
00000010
,
00000000
00000000
00000000
00000000
,
00001000
00000001
00000000
00000100
00000010
00000000
00001000
00000000
00000100
00010000
00000000
00001000
00100000
00000000
00010000
01000000
,
00100000
10000000
00000000
01000000
00100000
00000000
00001000
00000000
00011000
00000000
00010000
00000000
01000000
10000000
00100000
10000000
,
00010000
10000000
00000000
00100000
01000000
00000000
00010000
00000000
00100000
00001000
00000000
00010000
00000100
00000000
00001000
00000010
,
00000100
00000001
00000000
00000010
00000100
00000000
00010000
00000000
00011000
00000000
00001000
00000000
00000100
00000001
00000010
00000001
,
00001000
00000001
00000000
00000010
00001000
00000000
00010000
00000000
00000010
00001000
00000000
00010000
01000000
00000000
00010000
00100000
,
01000000
10000000
00000000
00100000
01000000
00000000
00001000
00000000
00011000
00000000
00010000
00000000
00100000
10000000
01000000
10000000
,
00010000
10000000
00000000
01000000
00010000
00000000
00001000
00000000
01000000
00010000
00000000
00001000
00000010
00000000
00001000
00000100
,
00000010
00000001
00000000
00000100
00000010
00000000
00010000
00000000
00011000
00000000
00001000
00000000
00000010
00000001
00000100
00000001
,
00001000
00000000
00000001
00000000
00000101
00000000
00000100
00000000
00001000
00000000
00011000
00000000
00010000
00000000
00100000
10000000
,
00010000
00100000
00000000
00000100
00010000
00000000
00001000
00000000
00011000
00000000
00010000
00000000
00100000
10000000
01000000
10000000
,
00010000
00000000
10000000
00000000
10100000
00000000
00100000
00000000
00010000
00000000
00011000
00000000
00001000
00000000
00000100
00000001
,
00001000
00000100
00000000
00100000
00001000
00000000
00010000
00000000
00011000
00000000
00001000
00000000
00000100
00000001
00000010
00000001
,
00001000
00000000
00000001
00000000
00000011
00000000
00000010
00000000
00001000
00000000
00011000
00000000
00010000
00000000
01000000
10000000
,
00010000
01000000
00000000
00000010
00010000
00000000
00001000
00000000
00011000
00000000
00010000
00000000
01000000
10000000
00100000
10000000
,
00010000
00000000
10000000
00000000
11000000
00000000
01000000
00000000
00010000
00000000
00011000
00000000
00001000
00000000
00000010
00000001
,
00001000
00000000
00001000
00000000
00010000
00000000
00010000
00000000
10000000
00000000
10000000
00000000
01000000
00010000
00001000
00000000
,
00011000
00000000
00010000
00000000
00000000
01000000
00000000
10000000
,
00100000
00000000
00000000
00010000
00001000
00000000
00010000
00000000
,
00011000
00000000
00001000
00000000
00000000
00000010
00000000
00000001
,
00000100
00000000
00000000
00001000
00010000
00000000
00001000
00000000
,
00011000
00000000
00000000
00000000
,
00001000
00001000
00001000
00001000
00001000
00001000
00001000
00001000
,
10000000
00000000
10000000
00000000
00010000
00000000
00010000
00000000
00001000
00000000
00001000
00000000
00000001
00000000
00000001
00001000
,
00000000
00000010
00000100
00000010
00000000
00010000
00000100
00010000
00000000
00001000
00000000
00001000
00010000
00001000
00100000
01000000
,
10000000
00000000
10100000
00100000
01000000
00010000
00001000
00010000
,
00100000
00000000
01000000
00000000
00010000
00000000
00001000
00000000
00011000
00000000
00000000
00000000
00001000
00010000
00000100
00000010
,
00000001
00000000
00000101
00000100
00001000
00010000
00000100
00000010
,
00010000
00000000
00001000
00000000
00000100
00000000
00010000
00000000
00011000
00000000
00000000
00000000
00010000
00001000
01000000
00100000
,
10000000
00000000
11000000
01000000
00010000
00001000
00000100
00010000
,
01000000
00000000
00100000
00000000
00010000
00000000
00001000
00000000
00011000
00000000
00000000
00000000
00001000
00010000
00000010
00000100
,
00000001
00000000
00000001
00000000
00001000
00000000
00001000
00000000
00010000
00000000
00010000
00000000
10000000
00000000
10000000
00100000
,
00000000
00010000
00001000
00010000
00000000
00001000
00000010
00001000
00000010
00000001
00000010
00000001
00000010
00001000
00010000
01000000
,
10000000
00000000
00000000
00000000
10100000
00000000
00100000
00000000
00010000
00001000
00000100
00000000
00010000
00000000
01000000
00000000
,
00001000
00100000
00010000
00000000
00001000
01000000
10000000
00000000
10100000
00000000
00000000
00000000
00100000
00010000
00001000
00000100
,
00000001
00000000
00000000
00000000
00000011
00000000
00000010
00000000
00001000
00010000
01000000
00000000
00001000
00000000
00000010
00000000
,
00010000
00000100
00001000
00000000
00010000
00000010
00000001
00000000
00000101
00000000
00000000
00000000
00000100
00001000
00010000
00100000
,
10000000
00000000
10000000
00000000
11000000
00000000
01000000
00000000
00010000
00001000
00000010
00000000
00010000
00000000
00100000
00000000
,
00001000
01000000
00010000
00000000
00001000
00100000
10000000
00000000
11000000
00000000
00000000
00000000
01000000
00010000
00001000
00000010
,
00000001
00000000
00000001
00000000
00001000
00000000
00001000
00000000
00010000
00000000
00010000
00000000
10000000
00000000
10000000
00010000
,
10000000
01000000
00100000
00010000
00001000
00000100
00000010
00000001
00000100
00000000
00000000
00000000
00000000
00000000
00000000
00000000
;
