#TITLE:super highway;
#SUBTITLE:;
#ARTIST:nouvo nude;
#TITLETRANSLIT:;
#SUBTITLETRANSLIT:;
#ARTISTTRANSLIT:;
#GENRE:;
#CREDIT:;
#BANNER:super highway.png;
#BACKGROUND:super highway-bg.png;
#LYRICSPATH:;
#CDTITLE:;
#MUSIC:super highway.ogg;
#OFFSET:1.053000;
#SAMPLESTART:7.947000;
#SAMPLELENGTH:11.984000;
#SELECTABLE:YES;
#BPMS:0.000000=160.000000
;
#STOPS:
;
#BGCHANGES:4.000=super highway.mp4=1.000=1=0=1===CrossFade==,
99999=-nosongbg-=1.000=0=0=0 // don't automatically add -songbackground-
;
#KEYSOUNDS:;
#ATTACKS:;

//---------------dance-single - Pandemonium X----------------
#NOTES:
     dance-single:
     Pandemonium X:
     Beginner:
     2:
     0.099900,0.186480,0.011100,0.000000,0.000000,63.000000,62.000000,1.000000,0.000000,0.000000,0.000000,0.099900,0.186480,0.011100,0.000000,0.000000,63.000000,62.000000,1.000000,0.000000,0.000000,0.000000:
// measure 0
0000
0000
0000
0000
,  // measure 1
0000
0000
0000
0000
,  // measure 2
0000
0000
0000
0000
,  // measure 3
0000
0000
0000
0000
,  // measure 4
0000
0000
0000
0000
,  // measure 5
0000
0000
0000
0000
,  // measure 6
0001
0000
0000
0000
,  // measure 7
0000
0000
0000
0000
,  // measure 8
1000
0000
0000
0000
,  // measure 9
0000
0000
0000
0000
,  // measure 10
0001
0000
0000
0000
,  // measure 11
0000
0000
0000
0000
,  // measure 12
1000
0000
0000
0000
,  // measure 13
0000
0000
0000
0000
,  // measure 14
0010
0000
0000
0000
,  // measure 15
0100
0000
0100
0000
,  // measure 16
0010
0000
0000
0000
,  // measure 17
0100
0000
0000
0000
,  // measure 18
0001
0000
0000
0000
,  // measure 19
1000
0000
1000
0000
,  // measure 20
0001
0000
0000
0000
,  // measure 21
0100
0100
0000
0000
,  // measure 22
0010
0000
1001
0000
,  // measure 23
1000
0000
0000
0000
,  // measure 24
0001
0000
0000
0000
,  // measure 25
0010
0000
0000
0000
,  // measure 26
0100
0000
0100
0000
,  // measure 27
1000
0000
0000
0000
,  // measure 28
0001
0000
0000
0000
,  // measure 29
0100
0000
0000
0000
,  // measure 30
0010
0000
0010
0000
,  // measure 31
0100
0000
0000
0000
,  // measure 32
0001
0000
1000
0000
,  // measure 33
0100
0000
0000
0000
,  // measure 34
0010
0000
0001
0000
,  // measure 35
0100
0000
0000
0000
,  // measure 36
0010
0000
0100
0000
,  // measure 37
0001
0000
0000
0000
,  // measure 38
1000
1000
0000
0001
,  // measure 39
1000
0000
0000
0000
,  // measure 40
0001
0000
0000
0000
,  // measure 41
0100
0000
0000
0000
,  // measure 42
0010
0000
0000
0000
,  // measure 43
1000
0000
0000
0000
,  // measure 44
0100
0000
0000
0000
,  // measure 45
0010
0000
0000
0000
,  // measure 46
0001
0000
0000
0000
,  // measure 47
1000
0000
0000
0000
,  // measure 48
0001
0001
0001
0000
,  // measure 49
0000
0000
0000
0000
,  // measure 50
1000
1000
1000
0000
,  // measure 51
0000
0000
0000
0000
,  // measure 52
0010
0010
0010
0000
,  // measure 53
0000
0000
0000
0000
,  // measure 54
0100
0100
0100
0000
,  // measure 55
0000
0000
0000
0000
,  // measure 56
0010
0000
0000
0000
;

//---------------dance-single - Pandemonium X----------------
#NOTES:
     dance-single:
     Pandemonium X:
     Easy:
     5:
     0.202972,0.279720,0.111000,0.000000,0.000000,128.000000,118.000000,10.000000,0.000000,0.000000,0.000000,0.202972,0.279720,0.111000,0.000000,0.000000,128.000000,118.000000,10.000000,0.000000,0.000000,0.000000:
0000
0000
0000
0000
,
0000
0000
0000
0000
,
0000
0000
0000
0000
,
0000
0000
0000
0000
,
0000
0000
0000
0000
,
0000
0000
0000
0000
,
0001
0000
0000
1000
0000
0000
0000
0000
,
0100
0000
0100
0000
,
0010
0000
0000
0100
0000
0000
0000
0000
,
0010
0010
0010
0000
,
0001
0000
0000
1000
0000
0000
0000
0000
,
0010
0000
1000
0000
,
0001
0000
0000
1000
0000
0000
0100
0000
,
0010
0000
0000
0000
,
0100
0000
0000
0000
,
1000
0000
0001
0000
,
0100
0000
0000
0000
,
0010
0010
0010
0000
,
1000
0000
0000
0000
,
0001
0000
1000
0000
,
0100
0000
0000
0000
,
0010
0010
0000
0010
,
0100
0000
1001
0000
,
0001
0000
1000
0000
,
0010
1000
0010
0000
,
1000
0000
0001
0000
,
0010
0001
0010
0000
,
0001
0000
1000
0000
,
0100
1000
0100
0000
,
1000
0000
0001
0000
,
0100
0001
0100
0001
,
0100
0010
1000
0000
,
0010
0100
0001
0000
,
1000
0100
0010
0000
,
0100
1000
0001
0000
,
0100
0010
1000
0000
,
0010
0100
0001
0000
,
0010
0100
1000
0000
,
0100
0100
0000
0100
,
1001
0000
0000
0000
,
0001
0000
0000
0001
0000
0000
0000
0000
,
1000
0000
0010
0000
,
0100
0000
0000
0001
0000
0000
0000
0000
,
0010
0010
0010
0000
,
0100
0000
0000
1000
0000
0000
0000
0000
,
0001
0000
1000
0000
,
0010
0000
0000
1000
0000
0000
0000
0000
,
0100
0100
0100
0000
,
0010
0001
0100
0000
,
0110
0000
1001
0000
,
1000
0010
0100
0000
,
0110
0000
1001
0000
,
1000
0001
0010
0000
,
0110
0000
1001
0000
,
1000
0010
0100
0000
,
0110
0000
1001
0000
,
0010
0000
0000
0000
;

//---------------dance-single - Pandemonium X----------------
#NOTES:
     dance-single:
     Pandemonium X:
     Medium:
     9:
     0.340929,0.372960,0.044400,0.000000,0.033300,215.000000,211.000000,4.000000,0.000000,0.000000,0.000000,0.340929,0.372960,0.044400,0.000000,0.033300,215.000000,211.000000,4.000000,0.000000,0.000000,0.000000:
0000
0000
0000
0000
,
0000
0000
0000
0000
,
0000
0000
0000
0000
,
0000
0000
0000
0000
,
0000
0000
0000
0000
,
0000
0000
0000
0000
,
0001
1000
0100
1000
0000
0000
0000
0000
,
0001
0000
0001
0000
,
0010
0001
0100
0001
0000
0000
0000
0000
,
1000
0100
0010
0001
0000
1000
0001
0000
,
0100
0010
1000
0100
0000
0000
0000
0000
,
0010
0000
0100
1000
,
0010
0100
0001
0010
0000
0000
0001
0010
,
0100
1000
0000
0000
0001
0000
1000
0000
,
0001
0000
1000
0100
0000
0000
0000
0000
,
0010
0000
0000
0010
0000
0000
0010
0000
0000
0000
0100
0000
0000
0100
0000
0000
,
0010
0000
0001
0100
0000
0000
0000
0000
,
0010
0100
0001
0010
0000
0100
0100
0000
,
1000
0000
0001
0010
0000
0000
0000
0000
,
0100
0000
0000
0100
0000
0000
0100
0000
0000
0000
0010
0000
0000
0010
0000
0000
,
0100
0000
0010
0100
0000
0000
0000
0000
,
0011
0000
0011
0000
0000
1000
0100
1000
,
0001
0000
0100
0000
,
0010
0000
1000
0010
0000
0100
0001
0000
,
0010
0100
0010
0000
0100
1000
0100
0000
,
1000
0000
0001
0100
0000
0001
0010
0000
,
0100
0100
0100
0000
0010
0010
0010
0000
,
0001
0000
1000
0100
0000
1000
0010
0000
,
0100
0001
0100
0000
0010
0100
0010
0000
,
0100
0000
0001
0010
0000
0100
0010
0000
,
0001
1000
0000
0001
0000
1000
0000
0001
,
1000
0000
0100
0010
0000
0000
0000
0000
,
0100
0000
0000
0000
1000
0000
0010
0000
0000
0000
0100
0000
0000
0100
0000
0000
,
0001
0000
0010
0100
0000
0000
0000
0000
,
0010
0000
0001
1000
0000
0001
0101
0000
,
0001
0000
0100
0010
0000
0000
0000
0000
,
0010
0000
0000
0000
1000
0000
0100
0000
0000
0000
0010
0000
0000
0010
0000
0000
,
0100
0000
1000
0001
0000
0000
0000
0000
,
0100
0000
0100
0000
0100
0010
1000
0000
,
0011
0000
0000
0000
,
1000
1000
0001
0010
0000
0000
0000
0000
,
0100
0000
0010
0000
,
0001
0001
1000
0010
0000
0000
0000
0000
,
0100
0001
1000
0100
0000
0010
0100
0000
,
0010
0010
0001
1000
0000
0000
0000
0000
,
0001
0000
1000
0000
,
0100
0100
0010
0001
0000
0000
1000
0100
,
0010
0001
0000
0000
1000
0000
0001
0000
,
0100
0001
0010
0100
0000
0000
0000
0000
,
0010
0000
0100
0000
,
0010
0001
1000
0010
0000
0000
0000
0000
,
0100
0001
1000
0100
0000
0010
0100
0000
,
0010
0001
1000
0010
0000
0000
0000
0000
,
0100
0000
0001
1000
,
0100
0010
0001
1000
0000
0000
0001
1000
,
0100
0010
0000
0100
1000
0000
0001
0000
,
0010
0000
0000
0000
;

//---------------dance-single - Pandemonium X----------------
#NOTES:
     dance-single:
     Pandemonium X:
     Hard:
     11:
     0.472543,0.497281,0.122100,0.000000,0.122100,298.000000,287.000000,11.000000,0.000000,0.000000,0.000000,0.472543,0.497281,0.122100,0.000000,0.122100,298.000000,287.000000,11.000000,0.000000,0.000000,0.000000:
0000
0000
0000
0000
,
0000
0000
0000
0000
,
0000
0000
0000
0000
,
0000
0000
0000
0000
,
0000
0000
0000
0000
,
0000
0000
0000
0000
,
0001
0100
0001
0010
0000
0001
1000
0000
,
0100
0000
1000
0000
0010
1000
0010
0000
,
0010
0100
0001
0010
0000
0100
1000
0000
,
0001
1000
0001
0010
0000
0100
1000
0100
,
0010
0001
0100
0010
0000
0100
0001
0000
,
1000
0000
0001
0000
0010
0100
0010
0000
,
0010
0001
1000
0010
0000
0100
0001
1000
,
0100
0010
0000
0000
0100
0000
0100
0000
,
1000
0001
0100
0001
0000
0000
0000
0000
,
0010
0000
0000
0010
0000
0000
0010
0000
0000
0000
0011
0000
0000
0011
0000
0000
,
1000
0010
1000
0100
0000
0000
0000
0000
,
0010
0100
1000
0001
0000
0100
1001
0000
,
0001
0100
0001
0010
0000
0000
0000
0000
,
0100
0000
0000
0100
0000
0000
0100
0000
0000
0000
1100
0000
0000
1100
0000
0000
,
0010
0001
0100
0010
0000
0000
0000
0000
,
0100
0000
0000
0100
0010
0000
0000
0000
0000
0000
0100
0000
0100
0000
0010
0000
,
0100
0000
1001
0000
,
1000
0000
0001
0000
1000
0000
0100
0000
0000
0000
1000
0000
0100
0010
0000
0000
,
0100
0000
0010
0000
0100
0010
0000
0100
0000
0000
0010
0000
0001
1000
0000
0000
,
0001
0000
1000
0000
0001
0000
0010
0000
0000
0000
0001
0000
0010
0100
0000
0000
,
0010
0000
0001
0000
0100
0000
0010
0000
0001
0000
0010
0000
1000
0001
0000
0000
,
0010
0000
0100
0000
1000
0000
0010
0000
0000
0000
0100
0000
0010
1000
0000
0000
,
0001
0000
1000
0000
0001
0010
0000
0001
0000
0000
1000
0000
0010
0100
0000
0000
,
0001
0000
1000
0000
0100
0000
0010
0000
0000
0000
0100
0000
1000
0010
0000
0000
,
0100
0100
0000
0100
0000
0100
0000
0000
,
0001
0001
1000
0010
0000
0100
0100
0000
,
0001
0000
0001
0000
0100
0000
0010
0000
0000
0000
0100
0000
0000
0100
0000
0000
,
0001
0001
0010
0100
0000
0010
0010
0000
,
0100
0000
0100
0000
0010
0000
0001
0000
0100
0000
1000
0000
0100
0010
0000
0000
,
0100
0100
0001
1000
0000
0001
0001
0000
,
0100
0000
0100
0000
0010
0000
1000
0000
0000
0000
0100
0000
0010
0001
0000
0000
,
1000
1000
0001
0010
0000
0100
0100
0000
,
0010
0000
0100
0000
0010
0100
0000
1000
0000
0000
1000
0001
0000
0000
0000
0000
,
1000
0000
0000
0101
0000
0000
0000
0000
,
1000
0001
0010
1000
0000
0010
0100
0010
,
0001
1000
1001
1000
,
0001
1000
0010
0001
0000
0010
0100
0010
,
1000
0001
0100
0010
0000
0000
0101
0000
,
1000
0010
0001
0010
0000
0100
0001
0000
,
0001
1000
0011
1000
,
0010
1000
0010
0001
0000
0010
0100
1000
,
0001
0100
0000
0010
0100
0000
0100
0000
,
0001
0100
1000
0100
0000
0010
0000
0100
,
0001
1000
1001
1000
,
0001
0100
0010
1000
0000
0010
0100
0000
,
0001
0010
0100
0010
0000
0001
1000
0000
,
0010
0001
0010
1000
0000
0010
0100
0000
,
0001
0000
1000
0000
1000
0001
0100
0000
,
0100
0001
1000
0010
0000
0100
0001
1000
,
0100
0010
0100
0000
1000
0000
0001
0000
,
0100
0000
0000
0000
;

//---------------dance-double - Pandemonium X----------------
#NOTES:
     dance-double:
     Pandemonium X:
     Easy:
     6:
     0.198215,0.341880,0.066600,0.000000,0.000000,125.000000,119.000000,6.000000,0.000000,0.000000,0.000000,0.198215,0.341880,0.066600,0.000000,0.000000,125.000000,119.000000,6.000000,0.000000,0.000000,0.000000:
00000000
00000000
00000000
00000000
,
00000000
00000000
00000000
00000000
,
00000000
00000000
00000000
00000000
,
00000000
00000000
00000000
00000000
,
00000000
00000000
00000000
00000000
,
00000000
00000000
00000000
00000000
,
00010000
00000000
00000000
00010000
00000000
00000000
00000000
00000000
,
01000000
00000000
00000000
00000000
00000000
01100000
00000000
00000000
,
00100000
00000000
00000000
00100000
00000000
00000000
00000000
00000000
,
01000000
00000000
00000000
00010000
00000000
00000000
00000000
00000000
,
00100000
00000000
00000000
00100000
00000000
00000000
00000000
00000000
,
00001000
00000000
00000000
00000000
00000000
00011000
00000000
00000000
,
00010000
00000000
00000000
00010000
00000000
00000000
00000100
00000000
,
00001000
00000000
00000000
00000000
,
00000010
00000000
00000000
00000010
00000000
00000000
00000000
00000000
,
00000100
00000000
00000100
00000000
,
00000001
00000000
00000000
00000001
00000000
00000000
00000000
00000000
,
00001000
00000000
00000000
00000000
00000000
00000100
00010000
00000000
,
00001000
00000000
00000000
00001000
00000000
00000000
00000000
00000000
,
00010000
00000000
00000000
00000000
00000000
00001000
00000000
00000000
,
01000000
00000000
00000000
01000000
00000000
00000000
00000000
00000000
,
00100000
00100000
00000000
00000000
,
10010000
00000000
00000000
00000000
,
10000000
00000000
00010000
00000000
,
00100000
00000000
00001000
00000000
,
00010000
00000000
00001000
00000000
,
00010000
00000000
00000010
00000010
,
00000100
00000000
00000001
00000000
,
00001000
00000000
00000100
00000000
,
00001000
00000000
00000001
00000000
,
00000100
00000100
00000000
00000100
00000000
00000100
00000000
00000000
,
00000010
00000000
00000000
00010000
00000000
00000000
00000000
00000000
,
00001000
00000000
00000000
00100000
00000000
00000000
10010000
00000000
,
10000000
00000000
00000000
00010000
00000000
00000000
00000000
00000000
,
01000000
00000000
00000000
00001000
00000000
00010000
00001000
00000000
,
00010000
00000000
00000000
00000100
00000000
00000000
00000000
00000000
,
00001000
00000000
00000000
00000010
00000000
00000000
00000100
00000000
,
00000001
00000000
00000000
00001000
00000000
00000000
00000000
00000000
,
00001100
00000000
00001100
00000000
00000100
00010000
00001000
00000000
,
00010000
00000000
00010000
00001000
00000000
00000000
00000000
00000000
,
00010000
00000000
00000000
00000100
00000000
00000000
00000000
00000000
,
00001000
00000000
00000000
00000000
00000000
00000001
00000000
00000000
,
00000010
00000000
00000000
00000001
00000000
00000000
00000000
00000000
,
00001000
00000000
00000000
00000100
00000000
00000000
00000000
00000000
,
00010000
00000000
00000000
00001000
00000000
00000000
00000000
00000000
,
01000000
00000000
00000000
00000000
00000000
00100000
00000000
00000000
,
01000000
00000000
00000000
00010000
00000000
00000000
00000000
00000000
,
00100000
00000000
00100000
01000000
00000000
00000000
00000000
00000000
,
00100000
00000000
00000000
00001000
00000000
00000000
00000000
00000000
,
00010000
00000100
00001000
00000000
,
00000010
00000000
00000000
00000100
00000000
00000000
00000000
00000000
,
00000001
00001000
00000100
00000000
,
00010000
00000000
00000000
00001000
00000000
00000000
00000000
00000000
,
01000000
00010000
10000000
00000000
,
01000000
00000000
00000000
00100000
00000000
00000000
00001000
00000000
,
00010000
00000100
00000000
00000000
00001000
00000000
00000010
00000000
,
00000100
00000000
00000000
00000000
;

//---------------dance-double - Pandemonium X----------------
#NOTES:
     dance-double:
     Pandemonium X:
     Medium:
     8:
     0.310800,0.341880,0.133200,0.000000,0.044400,196.000000,184.000000,12.000000,0.000000,0.000000,0.000000,0.310800,0.341880,0.133200,0.000000,0.044400,196.000000,184.000000,12.000000,0.000000,0.000000,0.000000:
00000000
00000000
00000000
00000000
,
00000000
00000000
00000000
00000000
,
00000000
00000000
00000000
00000000
,
00000000
00000000
00000000
00000000
,
00000000
00000000
00000000
00000000
,
00000000
00000000
00000000
00000000
,
00010000
01000000
00010000
00100000
00000000
00000000
00000000
00000000
,
01000000
00000000
00000000
00000000
00000000
10010000
00000000
00000000
,
10000000
00100000
01000000
00100000
00000000
00000000
00000000
00000000
,
01000000
00010000
00100000
00001000
00000000
00000000
00000000
00000000
,
00010000
00000100
00001000
00000010
00000000
00000000
00000000
00000000
,
00000100
00000000
00000000
00000000
00000000
00001001
00000000
00000000
,
00000001
00000010
00000100
00000010
00000000
00000000
00000100
00000010
,
00000001
00001000
00000000
00000000
00000000
00000000
00000000
00000000
,
00000010
00000000
00000010
00000100
00000000
00000000
00000000
00000000
,
00000001
00000000
00000000
00000001
00000000
00000000
00000001
00000000
00000000
00000000
00001000
00000000
00000000
00001000
00000000
00000000
,
00000100
00000000
00010000
00001000
00000000
00000000
00000000
00000000
,
00100000
00100000
00100000
00000000
00000000
00010000
10010000
00000000
,
10000000
00000000
00100000
01000000
00000000
00000000
00000000
00000000
,
00010000
00000000
00000000
00010000
00000000
00000000
00010000
00000000
00000000
00000000
00100000
00000000
00000000
00100000
00000000
00000000
,
01000000
00000000
00100000
00001000
00000000
00000000
00000000
00000000
,
00011000
00011000
00000000
00000000
,
00010100
00000000
00001000
00000000
,
00000010
00001000
00000100
00000010
,
00000001
00000100
00001000
00010000
,
00100000
10000000
01000000
00100000
,
00010000
00000000
00010000
00000000
00001000
00000100
00000010
00000000
,
00000100
00000010
00000001
00000100
,
00001000
00000100
00001000
00010000
,
00001000
01000000
00100000
10000000
,
01000000
00100000
00000000
00010000
00000000
00010000
00000000
00000000
,
00100000
00000000
00001000
00010000
00000000
00000000
00000000
00000000
,
00010000
00000000
00000000
00000000
00000100
00000000
00001000
00000000
00000000
00000000
00000010
00000000
00000000
00000010
00000000
00000000
,
00000100
00000000
00000001
00000010
00000000
00000000
00000000
00000000
,
00000100
00000000
00001000
00000000
00000010
00001000
00000100
00000000
,
00010000
00000000
00001000
01000000
00000000
00000000
00000000
00000000
,
00010000
00000000
00000000
00000000
00100000
00000000
01000000
00000000
00000000
00000000
10000000
00000000
00000000
10000000
00000000
00000000
,
01000000
00000000
10000000
00100000
00000000
00000000
00000000
00000000
,
01000000
00000000
00010000
00000000
00100000
00000000
00000000
00001000
00000000
00000000
00001000
00010000
00000000
00000000
00000000
00000000
,
00011000
00000000
00000000
00000000
,
00000100
00001000
00000010
00000100
00000000
00000000
00000000
00000000
,
00000001
00000000
00000000
00000000
00000000
00001010
00000000
00000000
,
00000010
00001000
00000100
00010000
00000000
00000000
00000000
00000000
,
00001000
01000000
00010000
00100000
00000000
00000000
00000000
00000000
,
01000000
10000000
00010000
01000000
00000000
00000000
00000000
00000000
,
00010000
00000000
00000000
00000000
00000000
01001000
00000000
00000000
,
00001000
00010000
00000100
00001000
00000000
00000000
00000010
00000100
,
00000001
00001000
00000000
00000000
00000000
00000000
00000000
00000000
,
00000100
00001000
00000100
00010000
00000000
00000000
00000000
00000000
,
00001000
00000000
00000000
00000000
00000000
01100000
00000000
00000000
,
10000000
00010000
00100000
01000000
00000000
00000000
00000000
00000000
,
00100000
00010000
00001000
00000100
00000000
00000000
00000000
00000000
,
00000010
00000001
00000100
00000010
00000000
00000000
00000000
00000000
,
00001000
00000000
00000000
00000000
00000000
00011000
00000000
00000000
,
00001000
01000000
00010000
00100000
00000000
01000000
00100000
00010000
,
00001000
00000100
00000000
00000000
00000000
00000000
00000000
00000000
,
00011000
00000000
00000000
00000000
;

//---------------dance-double - Pandemonium X----------------
#NOTES:
     dance-double:
     Pandemonium X:
     Hard:
     11:
     0.431315,0.497281,0.111000,0.000000,0.105450,272.000000,262.000000,10.000000,0.000000,0.000000,0.000000,0.431315,0.497281,0.111000,0.000000,0.105450,272.000000,262.000000,10.000000,0.000000,0.000000,0.000000:
00000000
00000000
00000000
00000000
,
00000000
00000000
00000000
00000000
,
00000000
00000000
00000000
00000000
,
00000000
00000000
00000000
00000000
,
00000000
00000000
00000000
00000000
,
00000000
00000000
00000000
00000000
,
00100000
00010000
01000000
00001000
00000000
00000000
00000000
00000000
,
00010000
00000000
00000000
00000000
00000100
00001000
00000100
00000000
,
00000100
00010000
00001000
01000000
00000000
00000000
00001000
00000000
,
01000000
00010000
00100000
01000000
00000000
10000000
00100000
00000000
,
01000000
00010000
00100000
00001000
00000000
00000000
00000000
00000000
,
00010000
00000000
00000000
00000000
00000100
00001000
00000100
00000000
,
00000100
00010000
00000100
00001000
00000000
00001000
00000100
00000010
,
00000001
00001000
00000000
00000000
00000000
00000000
00000000
00000000
,
00001000
00000000
00000100
00001000
00000000
00000000
00000000
00000000
,
00000100
00000000
00000000
00000100
00000000
00000000
00000100
00000000
00000000
00000000
00010100
00000000
00000000
00010100
00000000
00000000
,
00010000
00000000
00001000
01000000
00000000
00000000
00000000
00000000
,
00010000
00100000
01000000
10000000
00010000
01000000
10010000
00000000
,
10000000
00000000
00100000
01000000
00000000
00000000
00000000
00000000
,
00010000
00000000
00000000
00010000
00000000
00000000
00010000
00000000
00000000
00000000
00101000
00000000
00000000
00101000
00000000
00000000
,
00001000
00000000
00010000
00000100
00000000
00000000
00000000
00000000
,
00001010
00000000
00001010
00000000
00000001
00000001
00000001
00000000
,
00001100
00000000
00001010
00000000
,
00000100
00000000
00000000
00010000
00000000
00000000
00001000
00000000
00000000
00000000
01000000
00000000
00001000
00010000
00000000
00000000
,
00001000
00000000
01000000
00000000
00010000
00100000
00000000
00010000
00000000
00000000
10000000
00000000
01000000
00100000
00000000
00000000
,
01000000
00000000
10000000
00000000
00100000
00000000
01000000
00000000
00000000
00000000
00010000
00000000
00100000
00010000
00000000
00000000
,
00100000
00000000
00001000
00000000
00010000
00000000
00000010
00000000
00000100
00000000
00001000
00000000
00000100
00000001
00000000
00000000
,
00001000
00000000
00000001
00000000
00000010
00000000
00000001
00000000
00000000
00000000
00001000
00000000
00000100
00000010
00000000
00000000
,
00000100
00000000
00001000
00000000
00000100
00010000
00000000
00001000
00000000
00000000
00010000
00000000
00001000
00010000
00000000
00000000
,
00001000
00000000
01000000
00000000
00100000
00000000
01000000
00000000
00000000
00000000
00100000
00000000
01000000
00100000
00000000
00000000
,
10000000
10000000
00000000
10000000
00000000
10000000
00000000
00000000
,
10000000
01000000
00100000
00010000
00000000
00000000
00000000
00000000
,
00010000
00000000
00001000
00000000
00000100
00000000
00000010
00000000
00000000
00000000
00000001
00000000
00000000
00000001
00000000
00000000
,
00000001
00000100
00001000
00010000
00000000
00000000
00000000
00000000
,
00001000
00010000
00100000
10000000
01000000
00100000
00010000
00000000
,
10000000
01000000
00100000
00010000
00000000
00000000
00000000
00000000
,
00100000
00000000
00010000
00000000
00001000
00000000
00010000
00000000
00000000
00000000
00000100
00000000
00001000
00000010
00000000
00000000
,
00000100
00001000
00010000
00100000
00000000
00000000
00000000
00000000
,
01000000
00000000
00000000
00000000
01000000
00000000
00000000
00000000
01000000
00000000
00010000
10000000
00000000
00000000
00000000
00000000
,
01000000
00000000
00000000
00000000
,
00100000
00010000
00001000
00000100
00000000
00001000
00000010
00000000
,
00000100
00000000
00000001
00000000
00001000
00000001
00001000
00000000
,
00000001
00000100
00001000
00010000
00000000
00001000
00010000
00000000
,
00001000
01000000
00010000
00100000
00000000
01000000
00100000
00010000
,
10000000
01000000
00100000
00010000
00000000
00100000
00001000
00000000
,
00010000
00000000
00000100
00000000
00001000
00000010
00001000
00000000
,
00001000
00000010
00000001
00000010
00000000
00000100
00000010
00001000
,
00000001
00000010
00000000
00000000
00000100
00000000
00000100
00000000
,
00001000
00000100
00000001
00000100
00000000
00000010
00000001
00000000
,
00000100
00000000
00000010
00000000
00010000
00001000
00010000
00000000
,
00001000
01000000
00010000
00100000
00000000
01000000
10000000
00000000
,
00010000
00100000
00010000
01000000
00000000
00001000
00010000
00001000
,
00010000
00000100
00001000
00000010
00000000
00000100
00000001
00000000
,
00000010
00000000
00000100
00000000
00000100
00000010
00000100
00000000
,
00000010
00000001
00000100
00000010
00000000
00000100
00001000
00010000
,
00100000
01000000
00000000
00000000
00100000
00000000
00100000
00000000
,
10010000
00000000
00000000
00000000
;
